<?xml version="1.0" standalone="no"?>
<!DOCTYPE svg PUBLIC "-//W3C//DTD SVG 1.1//EN" "http://www.w3.org/Graphics/SVG/1.1/DTD/svg11.dtd" >
<svg xmlns="http://www.w3.org/2000/svg" xmlns:xlink="http://www.w3.org/1999/xlink" version="1.1">
<metadata>
Created by FontForge 20200314 at Sat Aug  6 00:25:54 2016
 By Unknown
2013 published by Monotype GmbH
</metadata>
<defs>
<font id="MarkPro-Bold" horiz-adv-x="1200" >
  <font-face 
    font-family="Mark Pro"
    font-weight="700"
    font-stretch="normal"
    units-per-em="2000"
    panose-1="2 11 8 4 2 2 1 1 1 4"
    ascent="1580"
    descent="-420"
    x-height="969"
    cap-height="1400"
    bbox="-1361 -473 3105 2227"
    underline-thickness="136"
    underline-position="-532"
    unicode-range="U+000D-FEFF"
  />
<missing-glyph horiz-adv-x="1182" 
d="M137 0v1400h908v-1400h-908zM349 212h484v976h-484v-976z" />
    <glyph glyph-name=".notdef" horiz-adv-x="1182" 
d="M137 0v1400h908v-1400h-908zM349 212h484v976h-484v-976z" />
    <glyph glyph-name=".null" horiz-adv-x="0" 
 />
    <glyph glyph-name=".null" horiz-adv-x="0" 
 />
    <glyph glyph-name="nonmarkingreturn" horiz-adv-x="666" 
 />
    <glyph glyph-name="CR" unicode="&#xd;" horiz-adv-x="495" 
 />
    <glyph glyph-name="space" unicode=" " horiz-adv-x="495" 
 />
    <glyph glyph-name="exclam" unicode="!" horiz-adv-x="555" 
d="M433 1400l-36 -919h-240l-36 919h312zM278 355q76 0 132.5 -56.5t56.5 -132.5q0 -77 -56.5 -134t-132.5 -57t-133.5 57.5t-57.5 133.5t57 132.5t134 56.5z" />
    <glyph glyph-name="quotedbl" unicode="&#x22;" horiz-adv-x="1123" 
d="M223 1440h261v-597h-261v597zM639 1440h261v-597h-261v597z" />
    <glyph glyph-name="numbersign" unicode="#" horiz-adv-x="1470" 
d="M251 1070h202l71 330h240l-71 -330h239l71 330h240l-71 -330h203l-48 -224h-202l-61 -285h202l-47 -224h-203l-71 -337h-240l71 337h-239l-71 -337h-240l71 337h-202l48 224h202l61 285h-203zM646 846l-61 -285h239l61 285h-239z" />
    <glyph glyph-name="dollar" unicode="$" horiz-adv-x="1400" 
d="M608 1564h222v-185q219 -21 417 -141l-125 -214q-141 86 -292 109v-319q96 -15 172 -43t136 -72t92 -110t30 -149q-2 -90 -36 -164t-93 -124t-134.5 -82t-165.5 -45v-198h-222v193q-137 12 -262.5 55t-214.5 113l137 212q143 -109 339 -136v322l-11 2q-96 15 -170 43
t-131.5 73t-87.5 112.5t-28 154.5q3 165 120.5 272.5t307.5 133.5v187zM985 417q1 48 -38 79.5t-117 51.5v-277q71 17 112.5 54t42.5 92zM455 984q-1 -50 37.5 -81t115.5 -51v276q-71 -17 -111.5 -54t-41.5 -90z" />
    <glyph glyph-name="percent" unicode="%" horiz-adv-x="1979" 
d="M464 1425q168 0 279.5 -108.5t111.5 -272.5q0 -165 -111.5 -274t-279.5 -109q-167 0 -278.5 109t-111.5 274q0 163 111.5 272t278.5 109zM464 1216q-72 0 -120 -48.5t-48 -123.5q0 -76 48 -125t120 -49q74 0 121.5 49t47.5 125q0 75 -47.5 123.5t-121.5 48.5zM1588 1400
l-938 -1400h-262l939 1400h261zM1515 739q168 0 279.5 -109t111.5 -273t-111.5 -273t-279.5 -109q-167 0 -278.5 109t-111.5 273q0 162 111.5 272t278.5 110zM1515 530q-73 0 -120.5 -48.5t-47.5 -124.5t47.5 -124.5t120.5 -48.5q74 0 121.5 48.5t47.5 124.5t-47.5 124.5
t-121.5 48.5z" />
    <glyph glyph-name="ampersand" unicode="&#x26;" horiz-adv-x="1473" 
d="M1452 0h-359l-151 144q-180 -169 -414 -169q-206 0 -323 99.5t-117 272.5q0 113 65 205.5t177 178.5q-93 95 -133.5 171t-40.5 172q0 154 113.5 252.5t297.5 98.5q182 0 295 -95.5t113 -250.5q0 -54 -20.5 -105t-60.5 -96.5t-81.5 -81.5t-100.5 -78l219 -212l201 282
l197 -136l-224 -315zM549 212q120 0 222 97l-269 258q-134 -108 -134 -201q0 -70 49.5 -112t131.5 -42zM424 1062q0 -40 24 -76t96 -106q81 57 123 101.5t42 89.5q0 55 -38 87t-104 32q-68 0 -105.5 -33.5t-37.5 -94.5z" />
    <glyph glyph-name="quotesingle" unicode="'" horiz-adv-x="707" 
d="M223 1440h261v-597h-261v597z" />
    <glyph glyph-name="parenleft" unicode="(" horiz-adv-x="844" 
d="M697 1449l83 -233q-191 -90 -293 -262t-102 -386t102 -386t293 -262l-83 -233q-266 104 -426.5 340t-160.5 541t160.5 541t426.5 340z" />
    <glyph glyph-name="parenright" unicode=")" horiz-adv-x="844" 
d="M147 -312l-83 233q191 90 293 262t102 386t-102 386t-293 262l83 233q266 -104 426.5 -340t160.5 -541t-160.5 -541t-426.5 -340z" />
    <glyph glyph-name="asterisk" unicode="*" horiz-adv-x="950" 
d="M143 1271l236 -82l-4 251h201l-5 -251l237 82l62 -192l-239 -73l151 -199l-163 -119l-144 205l-143 -205l-163 119l150 199l-239 73z" />
    <glyph glyph-name="plus" unicode="+" 
d="M714 72h-228v349h-346v223h346v349h228v-349h346v-223h-346v-349z" />
    <glyph glyph-name="comma" unicode="," horiz-adv-x="534" 
d="M151 316h293l-140 -596h-220z" />
    <glyph glyph-name="hyphen" unicode="-" horiz-adv-x="813" 
d="M702 646v-228h-591v228h591z" />
    <glyph glyph-name="period" unicode="." horiz-adv-x="554" 
d="M278 363q77 0 135 -57.5t58 -135.5q0 -79 -58 -137t-135 -58q-78 0 -136.5 58t-58.5 137q0 78 58.5 135.5t136.5 57.5z" />
    <glyph glyph-name="slash" unicode="/" horiz-adv-x="1036" 
d="M1085 1540l-849 -1740h-276l849 1740h276z" />
    <glyph glyph-name="zero" unicode="0" horiz-adv-x="1412" 
d="M706 1425q125 0 235 -50t192 -141.5t129.5 -229.5t47.5 -304t-47.5 -304t-129.5 -229.5t-192 -141.5t-235 -50q-126 0 -235.5 50t-191.5 141.5t-129 229.5t-47 304t47 304t129 229.5t191.5 141.5t235.5 50zM706 1166q-140 0 -231 -122.5t-91 -343.5t91 -343.5t231 -122.5
q141 0 231.5 122t90.5 344t-90.5 344t-231.5 122z" />
    <glyph glyph-name="one" unicode="1" horiz-adv-x="821" 
d="M657 1422v-1422h-270v1042l-335 -136v272z" />
    <glyph glyph-name="two" unicode="2" horiz-adv-x="1126" 
d="M241 1013l-174 171q185 241 478 241q218 0 346.5 -124.5t128.5 -327.5q0 -118 -51.5 -212.5t-150.5 -196.5l-299 -311h535v-253h-925v211l495 507q115 117 115 240q0 92 -59 150.5t-155 58.5q-91 0 -155 -40t-129 -114z" />
    <glyph glyph-name="three" unicode="3" horiz-adv-x="1144" 
d="M530 1425q222 0 359 -110.5t137 -291.5q0 -109 -54.5 -190t-154.5 -128q113 -44 176.5 -127t63.5 -194q0 -80 -28 -148t-77 -115.5t-115 -80.5t-140.5 -49t-155.5 -16q-156 0 -282.5 53t-206.5 150l161 177q61 -64 144.5 -99t173.5 -35q108 0 176.5 47t68.5 135
q0 87 -77.5 135t-196.5 48h-163v240h164q107 0 176 46.5t69 131.5q0 82 -65.5 128.5t-166.5 46.5q-91 0 -163.5 -40t-119.5 -102l-170 171q74 100 191 158.5t276 58.5z" />
    <glyph glyph-name="four" unicode="4" horiz-adv-x="1168" 
d="M932 881v-373h195v-252h-195v-256h-270v256h-621v196l491 947h300l-468 -891h298v373h270z" />
    <glyph glyph-name="five" unicode="5" horiz-adv-x="1166" 
d="M996 1400v-251h-567l-6 -280h161q235 0 362.5 -118.5t127.5 -302.5q0 -146 -69 -255t-184 -163.5t-258 -54.5q-154 0 -280.5 54.5t-215.5 154.5l152 189q59 -64 153.5 -106t188.5 -42q112 0 172.5 57.5t60.5 145.5t-66 142.5t-219 54.5h-333l15 775h805z" />
    <glyph glyph-name="six" unicode="6" horiz-adv-x="1180" 
d="M909 1400l-345 -487q38 4 65 4q211 0 348 -133.5t137 -331.5q0 -205 -150.5 -341t-376.5 -136q-148 0 -268 61t-188.5 169.5t-68.5 241.5q0 172 133 372l388 581h326zM587 680q-105 0 -174.5 -64.5t-69.5 -165.5t69.5 -165.5t174.5 -64.5q107 0 176.5 64.5t69.5 165.5
t-70 165.5t-176 64.5z" />
    <glyph glyph-name="seven" unicode="7" horiz-adv-x="1100" 
d="M1049 1400v-211l-580 -1189h-318l576 1148h-665v252h987z" />
    <glyph glyph-name="eight" unicode="8" horiz-adv-x="1269" 
d="M635 1425q143 0 258.5 -47t185 -139.5t69.5 -215.5q0 -218 -214 -317q248 -97 248 -325q0 -124 -74.5 -217.5t-197.5 -141t-275 -47.5t-275 47.5t-197.5 141t-74.5 217.5q0 228 247 325q-213 99 -213 317q0 123 69.5 215.5t185 139.5t258.5 47zM635 596q-110 0 -183 -51
t-73 -141q0 -89 73 -138.5t183 -49.5t183 49.5t73 138.5q0 90 -73.5 141t-182.5 51zM635 1181q-98 0 -162 -47.5t-64 -131.5q0 -87 64 -135.5t162 -48.5t162 48.5t64 135.5q0 84 -64 131.5t-162 47.5z" />
    <glyph glyph-name="nine" unicode="9" horiz-adv-x="1180" 
d="M271 0l343 487q-25 -4 -63 -4q-211 0 -348 133.5t-137 331.5q0 205 150 341t376 136q148 0 268.5 -61t189 -169.5t68.5 -241.5q0 -173 -133 -372l-388 -581h-326zM592 720q106 0 175.5 64.5t69.5 165.5t-69.5 165.5t-175.5 64.5t-175.5 -64.5t-69.5 -165.5t69.5 -165.5
t175.5 -64.5z" />
    <glyph glyph-name="colon" unicode=":" horiz-adv-x="554" 
d="M278 995q77 0 135 -57.5t58 -135.5q0 -79 -58 -137t-135 -58q-78 0 -136.5 58t-58.5 137q0 78 58.5 135.5t136.5 57.5zM278 363q77 0 135 -57.5t58 -135.5q0 -79 -58 -137t-135 -58q-78 0 -136.5 58t-58.5 137q0 78 58.5 135.5t136.5 57.5z" />
    <glyph glyph-name="semicolon" unicode=";" horiz-adv-x="534" 
d="M284 995q77 0 135 -57.5t58 -135.5q0 -79 -58 -137t-135 -58q-78 0 -136.5 58t-58.5 137q0 78 58.5 135.5t136.5 57.5zM151 316h293l-140 -596h-220z" />
    <glyph glyph-name="less" unicode="&#x3c;" 
d="M1010 290v-260l-819 381v243l819 381v-260l-571 -242z" />
    <glyph glyph-name="equal" unicode="=" 
d="M1060 432v-223h-920v223h920zM1060 856v-223h-920v223h920z" />
    <glyph glyph-name="greater" unicode="&#x3e;" 
d="M191 775v260l819 -381v-243l-819 -381v260l571 242z" />
    <glyph glyph-name="question" unicode="?" horiz-adv-x="891" 
d="M413 478h-241v340h96q145 0 221 45t76 133q0 81 -75.5 123.5t-218.5 42.5q-68 0 -152 -8l-19 263q91 13 202 13q260 0 405.5 -111.5t145.5 -302.5q0 -173 -111.5 -281.5t-320.5 -141.5zM293 356q76 0 132.5 -56.5t56.5 -132.5q0 -77 -56.5 -134.5t-132.5 -57.5
q-77 0 -134 57.5t-57 133.5q0 77 57 133.5t134 56.5z" />
    <glyph glyph-name="at" unicode="@" horiz-adv-x="1934" 
d="M1344 878v-431q0 -86 21 -125t70 -39q68 0 107.5 63.5t39.5 196.5q0 166 -78 298t-218 206.5t-317 74.5t-317 -78t-218 -220t-78 -324q0 -183 77.5 -326t215.5 -221t313 -78q218 0 380 114l119 -161q-211 -154 -499 -154q-180 0 -335.5 62.5t-264.5 172t-171 262.5
t-62 329q0 175 62.5 327.5t172.5 261t266.5 171t338.5 62.5q181 0 337.5 -60.5t266 -164.5t171.5 -247.5t62 -305.5q0 -202 -103 -329.5t-279 -127.5q-186 0 -258 133q-88 -119 -246 -119q-162 0 -265 113.5t-103 285.5q0 170 102.5 284.5t257.5 114.5q139 0 222 -100v79
h210zM955 698q-82 0 -132 -56.5t-50 -141.5t50 -141.5t132 -56.5q81 0 132 56t51 142t-51 142t-132 56z" />
    <glyph glyph-name="A" unicode="A" horiz-adv-x="1472" 
d="M906 1400l545 -1400h-298l-122 326h-597l-122 -326h-291l545 1400h340zM733 1124l-203 -541h405z" />
    <glyph glyph-name="B" unicode="B" horiz-adv-x="1384" 
d="M159 1400h572q252 0 391.5 -96.5t139.5 -291.5q0 -103 -56.5 -183.5t-146.5 -113.5q100 -34 166.5 -119t66.5 -195q0 -199 -136 -300t-391 -101h-606v1400zM751 582h-313v-336l313 -1q125 0 188 37.5t63 132.5q0 93 -63.5 130t-187.5 37zM723 1154h-285v-327h286
q118 0 182.5 35.5t64.5 129.5q0 39 -13 67.5t-34.5 46.5t-54 29t-67.5 15t-79 4z" />
    <glyph glyph-name="C" unicode="C" horiz-adv-x="1510" 
d="M827 1426q194 0 354.5 -83.5t245.5 -230.5l-240 -147q-60 92 -153 142.5t-209 50.5q-192 0 -317 -128t-125 -330q1 -207 127 -332.5t315 -125.5q115 0 208 49.5t157 142.5l228 -164q-95 -139 -248.5 -217.5t-342.5 -78.5q-159 0 -296 54.5t-233.5 150t-151 230.5
t-54.5 291t54.5 291t151 230.5t233.5 150t296 54.5z" />
    <glyph glyph-name="D" unicode="D" horiz-adv-x="1555" 
d="M159 1400h577q329 0 528 -192t199 -508t-199 -508t-528 -192h-577v1400zM733 1139h-295v-878h295q214 0 326 120.5t112 318.5q0 200 -112 319.5t-326 119.5z" />
    <glyph glyph-name="E" unicode="E" horiz-adv-x="1332" 
d="M1205 256v-256h-1046v1400h1038v-256h-759v-310h724v-256h-724v-322h767z" />
    <glyph glyph-name="F" unicode="F" horiz-adv-x="1282" 
d="M1140 824v-257h-702v-567h-279v1400h1028v-257h-749v-319h702z" />
    <glyph glyph-name="G" unicode="G" horiz-adv-x="1600" 
d="M831 1426q164 0 300.5 -56t230.5 -159l-201 -197q-128 147 -338 147q-193 0 -317.5 -128.5t-124.5 -332.5q0 -210 125.5 -337.5t311.5 -127.5q169 0 269.5 79t128.5 230h-356v233h644q4 -36 4 -79q0 -209 -88 -374.5t-244 -257t-352 -91.5q-116 0 -225 31.5t-200.5 94
t-160.5 148.5t-107.5 202.5t-38.5 248.5q0 156 55.5 291.5t152.5 230.5t234.5 149.5t296.5 54.5z" />
    <glyph glyph-name="H" unicode="H" horiz-adv-x="1550" 
d="M438 1400v-564h674v564h279v-1400h-279v576h-674v-576h-279v1400h279z" />
    <glyph glyph-name="I" unicode="I" horiz-adv-x="597" 
d="M438 1400v-1400h-279v1400h279z" />
    <glyph glyph-name="J" unicode="J" horiz-adv-x="1129" 
d="M978 1400v-890q0 -256 -138 -395.5t-364 -139.5q-288 0 -447 194l162 203q106 -130 272 -130q114 0 175 73t61 221v864h279z" />
    <glyph glyph-name="K" unicode="K" horiz-adv-x="1424" 
d="M1065 0l-498 576h-129v-576h-279v1400h279v-567h132l463 567h350l-587 -683l631 -717h-362z" />
    <glyph glyph-name="L" unicode="L" horiz-adv-x="1210" 
d="M1178 261v-261h-1019v1400h279v-1139h740z" />
    <glyph glyph-name="M" unicode="M" horiz-adv-x="1863" 
d="M1704 1400v-1400h-279v1057l-346 -922h-295l-346 914v-1049h-279v1400h409l364 -945l363 945h409z" />
    <glyph glyph-name="N" unicode="N" horiz-adv-x="1570" 
d="M1411 1400v-1400h-262l-710 935l-1 -935h-279v1400h261l711 -935v935h280z" />
    <glyph glyph-name="O" unicode="O" horiz-adv-x="1655" 
d="M827 1426q212 0 380.5 -94t262 -259.5t93.5 -372.5t-93.5 -372.5t-262 -259.5t-380.5 -94q-159 0 -296 55t-233.5 151t-151 230.5t-54.5 289.5t54.5 289.5t151 230.5t233.5 151t296 55zM827 1158q-194 0 -319 -127.5t-125 -330.5t125 -330.5t319 -127.5
q195 0 319.5 127.5t124.5 330.5t-124.5 330.5t-319.5 127.5z" />
    <glyph glyph-name="P" unicode="P" horiz-adv-x="1321" 
d="M732 512h-294v-512h-279v1400h571q247 0 379.5 -119t132.5 -326q0 -205 -132.5 -324t-377.5 -119zM725 1143h-287v-376h287q231 0 231 188t-231 188z" />
    <glyph glyph-name="Q" unicode="Q" horiz-adv-x="1665" 
d="M827 1426q212 0 380.5 -94t262 -259.5t93.5 -372.5q0 -247 -141 -434l197 -266h-328l-65 86q-177 -112 -399 -112q-159 0 -296 55t-233.5 151t-151 230.5t-54.5 289.5t54.5 289.5t151 230.5t233.5 151t296 55zM827 1158q-194 0 -319 -127.5t-125 -330.5t125 -330.5
t319 -127.5q132 0 236 62l-255 340h334l96 -130q33 88 33 186q0 203 -124.5 330.5t-319.5 127.5z" />
    <glyph glyph-name="R" unicode="R" horiz-adv-x="1360" 
d="M159 1400h592q248 0 380.5 -111.5t132.5 -314.5q0 -173 -114 -283.5t-315 -129.5l431 -561h-338l-408 557h-82v-557h-279v1400zM746 1143h-308v-343h308q231 0 231 174q0 169 -231 169z" />
    <glyph glyph-name="S" unicode="S" horiz-adv-x="1353" 
d="M1241 1275l-132 -228q-193 119 -397 119q-120 0 -194 -45t-74 -123q0 -37 20 -64t63 -45.5t88.5 -29.5t117.5 -23l79 -13q446 -73 446 -392q0 -112 -47 -201t-127 -143.5t-182 -83t-217 -28.5q-164 0 -322.5 47.5t-267.5 135.5l145 225q82 -65 200 -108t246 -43
q120 0 197.5 45t77.5 124q0 69 -70 104t-227 60l-89 14q-427 67 -427 401q0 106 45 192t122.5 140t177.5 83t213 29q148 0 276 -35.5t259 -113.5z" />
    <glyph glyph-name="T" unicode="T" horiz-adv-x="1211" 
d="M1179 1400v-261h-434v-1139h-279v1139h-434v261h1147z" />
    <glyph glyph-name="U" unicode="U" horiz-adv-x="1492" 
d="M1349 1400v-841q0 -189 -77 -322t-211.5 -197.5t-314.5 -64.5t-314.5 64.5t-211.5 197.5t-77 322v841h280v-827q0 -167 86 -249t237 -82t237 82t86 249v827h280z" />
    <glyph glyph-name="V" unicode="V" horiz-adv-x="1433" 
d="M1412 1400l-526 -1400h-339l-526 1400h297l401 -1117l403 1117h290z" />
    <glyph glyph-name="W" unicode="W" horiz-adv-x="2180" 
d="M2146 1400l-418 -1400h-338l-300 1000l-300 -1000h-338l-418 1400h290l301 -1074l313 1074h309l313 -1074l301 1074h285z" />
    <glyph glyph-name="X" unicode="X" horiz-adv-x="1356" 
d="M1312 1400l-466 -689l479 -711h-327l-322 499l-323 -499h-322l478 711l-465 689h328l308 -480l310 480h322z" />
    <glyph glyph-name="Y" unicode="Y" horiz-adv-x="1362" 
d="M1356 1400l-532 -848v-552h-279v553l-539 847h328l352 -594l352 594h318z" />
    <glyph glyph-name="Z" unicode="Z" horiz-adv-x="1288" 
d="M1193 1400v-218l-727 -925h727v-257h-1098v218l727 925h-725v257h1096z" />
    <glyph glyph-name="bracketleft" unicode="[" horiz-adv-x="766" 
d="M702 -27v-236h-543v1663h543v-236h-278v-1191h278z" />
    <glyph glyph-name="backslash" unicode="\" horiz-adv-x="1036" 
d="M800 -200l-849 1740h276l849 -1740h-276z" />
    <glyph glyph-name="bracketright" unicode="]" horiz-adv-x="766" 
d="M64 1164v236h543v-1663h-543v236h278v1191h-278z" />
    <glyph glyph-name="asciicircum" unicode="^" 
d="M382 635h-261l357 765h244l357 -765h-267l-215 506z" />
    <glyph glyph-name="underscore" unicode="_" horiz-adv-x="940" 
d="M945 -103v-212h-950v212h950z" />
    <glyph glyph-name="grave" unicode="`" horiz-adv-x="1000" 
d="M757 1108h-249l-264 315h312z" />
    <glyph glyph-name="a" unicode="a" horiz-adv-x="1228" 
d="M1091 969v-969h-255v107q-107 -132 -290 -132q-200 0 -334.5 146t-134.5 364t134.5 364t334.5 146q182 0 290 -133v107h255zM594 752q-112 0 -181 -76.5t-69 -190.5t69 -190.5t181 -76.5q111 0 180.5 75.5t69.5 191.5t-69.5 191.5t-180.5 75.5z" />
    <glyph glyph-name="b" unicode="b" horiz-adv-x="1227" 
d="M681 995q201 0 335.5 -146t134.5 -364t-134.5 -364t-334.5 -146q-183 0 -290 132v-107h-255v1440h260v-572q105 127 284 127zM633 752q-110 0 -179.5 -75.5t-69.5 -191.5t69.5 -191.5t179.5 -75.5q113 0 181.5 76.5t68.5 190.5t-68.5 190.5t-181.5 76.5z" />
    <glyph glyph-name="c" unicode="c" horiz-adv-x="1033" 
d="M593 995q121 0 221 -47.5t167 -135.5l-188 -157q-91 97 -207 97q-103 0 -173 -74t-70 -193t69.5 -193t172.5 -74q121 0 211 98l186 -159q-142 -182 -389 -182q-230 0 -373 143.5t-143 366.5q0 222 143 366t373 144z" />
    <glyph glyph-name="d" unicode="d" horiz-adv-x="1228" 
d="M546 995q180 0 285 -127v572h260v-1440h-255v107q-107 -132 -290 -132q-200 0 -334.5 146t-134.5 364t134.5 364t334.5 146zM594 752q-112 0 -181 -76.5t-69 -190.5t69 -190.5t181 -76.5q111 0 180.5 75.5t69.5 191.5t-69.5 191.5t-180.5 75.5z" />
    <glyph glyph-name="e" unicode="e" horiz-adv-x="1114" 
d="M567 995q209 0 339.5 -141t131.5 -368q0 -51 -5 -88h-687q20 -101 86 -151t163 -50q63 0 128 24.5t117 68.5l153 -168q-160 -147 -413 -147q-224 0 -363.5 139.5t-139.5 367.5q0 229 136 371t354 142zM565 770q-90 0 -145 -51t-73 -143h429q-18 93 -72.5 143.5
t-138.5 50.5z" />
    <glyph glyph-name="f" unicode="f" horiz-adv-x="849" 
d="M784 969v-232h-301v-737h-261v737h-181v232h181v120q0 174 90 275t257 101t298 -87l-104 -203q-87 47 -166 47q-114 0 -114 -136v-117h301z" />
    <glyph glyph-name="g" unicode="g" horiz-adv-x="1216" 
d="M523 995q192 0 300 -134v108h256v-889q0 -232 -141 -365.5t-382 -133.5q-118 0 -231 30.5t-193 86.5l93 213q150 -99 320 -99q125 0 200.5 67.5t75.5 189.5v68q-107 -131 -298 -131q-88 0 -169 36t-142.5 99t-98 157t-36.5 202q0 109 36.5 202.5t98 157t142.5 99.5
t169 36zM589 755q-109 0 -176.5 -73.5t-67.5 -181.5t67.5 -181t176.5 -73q107 0 175 72.5t68 181.5q0 110 -67.5 182.5t-175.5 72.5z" />
    <glyph glyph-name="h" unicode="h" horiz-adv-x="1182" 
d="M398 1441v-576q93 130 278 130q166 0 271.5 -105t105.5 -273v-617h-261v533q0 104 -49.5 160.5t-139.5 56.5q-89 0 -147 -57t-58 -162v-531h-261v1441h261z" />
    <glyph glyph-name="i" unicode="i" horiz-adv-x="535" 
d="M398 969v-969h-261v969h261zM266 1454q70 0 118.5 -48.5t48.5 -119.5q0 -70 -48 -118t-119 -48q-70 0 -118 48t-48 118q0 71 48 119.5t118 48.5z" />
    <glyph glyph-name="j" unicode="j" horiz-adv-x="539" 
d="M402 969v-1061q0 -156 -82 -242.5t-219 -86.5q-87 0 -147 26l39 229q33 -12 70 -12q78 0 78 101v1046h261zM269 1454q70 0 118.5 -48.5t48.5 -119.5q0 -70 -48 -118t-119 -48t-118.5 48t-47.5 118q0 71 48 119.5t118 48.5z" />
    <glyph glyph-name="k" unicode="k" horiz-adv-x="1095" 
d="M398 1440v-816h92l273 345h320l-382 -456l385 -513h-321l-279 392h-88v-392h-261v1440h261z" />
    <glyph glyph-name="l" unicode="l" horiz-adv-x="535" 
d="M398 1440v-1440h-261v1440h261z" />
    <glyph glyph-name="m" unicode="m" horiz-adv-x="1836" 
d="M1325 995q171 0 276.5 -104.5t105.5 -273.5v-617h-260v533q0 104 -50 160.5t-139 56.5t-147 -57t-58 -162v-531h-261v533q0 104 -49.5 160.5t-139.5 56.5q-89 0 -147 -57t-58 -162v-531h-261v969h254v-114q94 140 285 140q104 0 187.5 -44t132.5 -122q101 166 329 166z
" />
    <glyph glyph-name="n" unicode="n" horiz-adv-x="1182" 
d="M676 995q166 0 271.5 -105t105.5 -273v-617h-261v533q0 104 -49.5 160.5t-139.5 56.5q-89 0 -147 -57t-58 -162v-531h-261v969h254v-114q94 140 285 140z" />
    <glyph glyph-name="o" unicode="o" horiz-adv-x="1201" 
d="M600 995q226 0 375.5 -145.5t149.5 -364.5t-149.5 -364.5t-375.5 -145.5q-225 0 -374 145.5t-149 364.5t149 364.5t374 145.5zM600 752q-111 0 -184 -75t-73 -192t73 -192t184 -75t184.5 75t73.5 192t-73.5 192t-184.5 75z" />
    <glyph glyph-name="p" unicode="p" horiz-adv-x="1227" 
d="M681 995q201 0 335.5 -146t134.5 -364t-134.5 -364t-334.5 -146q-179 0 -285 126v-501h-260v1369h255v-107q106 133 289 133zM633 752q-110 0 -179.5 -75.5t-69.5 -191.5t69.5 -191.5t179.5 -75.5q113 0 181.5 76.5t68.5 190.5t-68.5 190.5t-181.5 76.5z" />
    <glyph glyph-name="q" unicode="q" horiz-adv-x="1228" 
d="M546 995q182 0 290 -133v107h255v-1369h-260v501q-106 -126 -285 -126q-200 0 -334.5 146t-134.5 364t134.5 364t334.5 146zM594 752q-112 0 -181 -76.5t-69 -190.5t69 -190.5t181 -76.5q111 0 180.5 75.5t69.5 191.5t-69.5 191.5t-180.5 75.5z" />
    <glyph glyph-name="r" unicode="r" horiz-adv-x="840" 
d="M663 995q78 0 136 -21l-39 -259q-70 31 -158 31q-93 0 -148.5 -56.5t-55.5 -161.5v-528h-261v969h253v-106q88 132 273 132z" />
    <glyph glyph-name="s" unicode="s" horiz-adv-x="1014" 
d="M920 902l-88 -203q-65 32 -149 55t-160 24q-73 0 -111 -23.5t-38 -64.5q0 -38 39 -54.5t119 -28.5l86 -13q327 -50 327 -290q0 -151 -118 -240t-327 -89q-270 0 -431 114l103 198q143 -95 330 -95q179 0 179 91q0 35 -38 56t-123 33l-79 11q-335 46 -335 294
q0 149 108.5 233t300.5 84q217 0 405 -92z" />
    <glyph glyph-name="t" unicode="t" horiz-adv-x="933" 
d="M840 969v-232h-351v-354q0 -86 39.5 -125.5t105.5 -39.5q78 0 182 63l96 -204q-149 -102 -321 -102q-179 0 -271 99t-92 288v375h-187v232h187v288h261v-288h351z" />
    <glyph glyph-name="u" unicode="u" horiz-adv-x="1175" 
d="M1046 969v-556q0 -111 -37 -197t-101.5 -137.5t-145.5 -77.5t-174 -26q-74 0 -141 16t-125.5 50.5t-101 85t-67 124t-24.5 162.5v556h261v-533q0 -111 54 -164.5t144 -53.5t144 53.5t54 164.5v533h260z" />
    <glyph glyph-name="v" unicode="v" horiz-adv-x="1099" 
d="M1081 969l-379 -969h-301l-383 969h284l251 -694l253 694h275z" />
    <glyph glyph-name="w" unicode="w" horiz-adv-x="1732" 
d="M1004 969l220 -680l208 680h273l-328 -969h-298l-215 655l-213 -655h-296l-328 969h278l207 -677l217 677h275z" />
    <glyph glyph-name="x" unicode="x" horiz-adv-x="1098" 
d="M1065 969l-347 -476l353 -493h-310l-218 308l-214 -308h-302l356 492l-347 477h310l209 -301l208 301h302z" />
    <glyph glyph-name="y" unicode="y" horiz-adv-x="1128" 
d="M1119 969l-741 -1373h-286l339 610l-418 763h296l266 -498l258 498h286z" />
    <glyph glyph-name="z" unicode="z" horiz-adv-x="1040" 
d="M933 969v-191l-478 -545h489v-233h-848v188l489 549h-472v232h820z" />
    <glyph glyph-name="braceleft" unicode="{" horiz-adv-x="881" 
d="M817 1168h-65q-87 0 -136.5 -48t-45.5 -135l4 -94q11 -245 -210 -322q221 -77 210 -322l-4 -94q-4 -87 45.5 -135t136.5 -48h65v-232h-86q-214 0 -324 115.5t-101 316.5l4 98q4 89 -53.5 137.5t-161.5 48.5v229q104 0 161.5 49t53.5 138l-4 98q-9 201 101 316.5
t324 115.5h86v-232z" />
    <glyph glyph-name="bar" unicode="|" horiz-adv-x="707" 
d="M484 1400v-1665h-261v1665h261z" />
    <glyph glyph-name="braceright" unicode="}" horiz-adv-x="881" 
d="M64 -30h65q87 0 136.5 48t45.5 135l-4 94q-11 245 210 322q-221 77 -210 322l4 94q4 87 -45.5 135t-136.5 48h-65v232h86q214 0 324 -115.5t101 -316.5l-4 -98q-4 -89 53.5 -137.5t161.5 -48.5v-229q-104 0 -161.5 -49t-53.5 -138l4 -98q9 -201 -101 -316.5t-324 -115.5
h-86v232z" />
    <glyph glyph-name="asciitilde" unicode="~" 
d="M957 682l126 -159q-119 -143 -297 -143q-63 0 -120.5 14t-94 30.5t-81.5 30.5t-86 14q-70 0 -160 -87l-126 159q117 143 296 143q63 0 121 -14t94.5 -30.5t81.5 -30.5t86 -14q70 0 160 87z" />
    <glyph glyph-name="uni00A0" unicode="&#xa0;" horiz-adv-x="495" 
 />
    <glyph glyph-name="exclamdown" unicode="&#xa1;" horiz-adv-x="555" 
d="M122 -430l36 919h240l36 -919h-312zM277 615q-76 0 -132.5 56.5t-56.5 132.5q0 77 56.5 134t132.5 57q77 0 134 -57.5t57 -133.5t-57 -132.5t-134 -56.5z" />
    <glyph glyph-name="cent" unicode="&#xa2;" horiz-adv-x="1400" 
d="M638 1400h222v-198q191 -31 307 -174l-178 -152q-62 60 -129 83v-518q76 26 134 84l173 -154q-118 -144 -307 -173v-198h-222v204q-184 38 -293.5 173t-109.5 323t109.5 322.5t293.5 172.5v205zM493 700q0 -85 39 -149.5t106 -96.5v492q-67 -33 -106 -97.5t-39 -148.5z
" />
    <glyph glyph-name="sterling" unicode="&#xa3;" horiz-adv-x="1400" 
d="M1223 253v-253h-1064v253h160v338h-160v218h160v64q0 135 42 242t115 174t167.5 101.5t203.5 34.5q243 0 388 -147l-180 -191q-80 80 -208 80q-117 0 -188 -76t-71 -230v-52h483v-218h-483v-338h635z" />
    <glyph glyph-name="currency" unicode="&#xa4;" horiz-adv-x="1400" 
d="M141 1111l147 148l153 -154q119 76 260 76q138 0 258 -75l152 153l147 -148l-152 -152q76 -119 76 -259q0 -141 -76 -260l153 -151l-147 -148l-153 152q-118 -75 -258 -75q-142 0 -261 76l-151 -153l-147 148l152 151q-75 117 -75 260q0 141 75 258zM701 426
q114 0 193.5 79.5t79.5 194.5q0 114 -79.5 193.5t-193.5 79.5q-115 0 -194.5 -79.5t-79.5 -193.5q0 -115 79.5 -194.5t194.5 -79.5z" />
    <glyph glyph-name="yen" unicode="&#xa5;" horiz-adv-x="1400" 
d="M1206 454v-185h-364v-269h-270v269h-365v185h365v135h-365v185h279l-424 626h315l330 -512l324 512h308l-416 -626h283v-185h-364v-135h364z" />
    <glyph glyph-name="brokenbar" unicode="&#xa6;" horiz-adv-x="707" 
d="M484 1400v-694h-261v694h261zM484 429v-694h-261v694h261z" />
    <glyph glyph-name="section" unicode="&#xa7;" horiz-adv-x="1303" 
d="M1162 1299l-118 -213q-176 101 -355 101q-107 0 -174 -35.5t-67 -97.5q0 -31 19 -53.5t58 -38t83.5 -25t110.5 -18.5l69 -10q186 -28 293.5 -109t107.5 -220q0 -166 -141 -262q117 -88 117 -233q0 -101 -43 -180t-117 -127t-166 -72.5t-196 -24.5q-149 0 -290 39.5
t-239 112.5l131 211q180 -126 401 -126q108 0 176 35.5t69 100.5q0 30 -17 51t-55 36t-82.5 25t-114.5 20l-75 11q-395 58 -395 340q0 156 140 251q-117 87 -117 244q0 178 142.5 285.5t364.5 107.5q132 0 246 -29.5t234 -96.5zM568 688q-28 4 -41 7q-102 -40 -102 -130
q0 -60 65.5 -87.5t205.5 -47.5l68 -10q36 -6 54 -10q97 41 97 133q0 58 -64.5 87t-204.5 48z" />
    <glyph glyph-name="dieresis" unicode="&#xa8;" horiz-adv-x="1070" 
d="M317 1424q71 0 119.5 -49t48.5 -119t-48.5 -118t-119.5 -48t-118.5 48t-47.5 118q0 71 48 119.5t118 48.5zM748 1424q70 0 119 -49t49 -119t-48.5 -118t-119.5 -48q-70 0 -118 48t-48 118q0 71 48 119.5t118 48.5z" />
    <glyph glyph-name="copyright" unicode="&#xa9;" horiz-adv-x="1865" 
d="M933 1519q168 0 320 -64t262 -172.5t175 -258t65 -313.5t-65 -314t-175 -258.5t-262 -173t-320 -64.5t-320.5 64.5t-262.5 173t-175 258.5t-65 314q0 131 41.5 254.5t117.5 222.5t177 174t227 116t260 41zM933 1298q-161 0 -297.5 -78.5t-216 -213.5t-79.5 -295
t79.5 -296t216 -214.5t297.5 -78.5q120 0 230 46.5t189 125.5t126 188t47 229t-47 228.5t-126 187t-189 125t-230 46.5zM1310 927l-189 -106q-60 102 -176 102q-83 0 -137.5 -59.5t-54.5 -152.5q0 -102 56.5 -157t136.5 -55q112 0 180 102l176 -125q-58 -87 -148 -135
t-206 -48q-185 0 -303 117t-118 301t118 301t303 117q117 0 213.5 -53.5t148.5 -148.5z" />
    <glyph glyph-name="ordfeminine" unicode="&#xaa;" horiz-adv-x="794" 
d="M377 1287q150 0 236.5 -77t86.5 -226v-406h-187v68q-84 -86 -208 -86q-113 0 -178.5 61t-65.5 161q0 98 77 155t212 57h154q-11 123 -148 123q-97 0 -188 -64l-75 147q115 87 284 87zM353 714q90 0 156 75v77h-130q-60 0 -88.5 -22t-28.5 -54t23 -54t68 -22z" />
    <glyph glyph-name="guillemotleft" unicode="&#xab;" horiz-adv-x="1087" 
d="M800 532l193 -390h-263l-193 390l193 390h263zM351 532l193 -390h-263l-193 390l193 390h263z" />
    <glyph glyph-name="logicalnot" unicode="&#xac;" 
d="M140 644h920v-536h-228v313h-692v223z" />
    <glyph glyph-name="uni00AD" unicode="&#xad;" horiz-adv-x="813" 
d="M702 646v-228h-591v228h591z" />
    <glyph glyph-name="registered" unicode="&#xae;" horiz-adv-x="1008" 
d="M505 1443q194 0 330 -133t136 -321q0 -123 -62 -227.5t-169.5 -165.5t-234.5 -61q-129 0 -237 61t-169.5 165.5t-61.5 227.5t61.5 227.5t169 165.5t237.5 61zM505 668q132 0 225.5 94t93.5 227t-93.5 227t-225.5 94q-135 0 -228.5 -94t-93.5 -227t93.5 -227t228.5 -94z
M329 1192h200q82 0 126.5 -37t44.5 -100q0 -49 -31 -82t-88 -43l124 -144h-138l-111 140h-10v-140h-117v406zM527 1091h-81v-71h81q54 0 54 35q0 36 -54 36z" />
    <glyph glyph-name="macron" unicode="&#xaf;" horiz-adv-x="1054" 
d="M196 1151v209h662v-209h-662z" />
    <glyph glyph-name="degree" unicode="&#xb0;" horiz-adv-x="858" 
d="M429 652q-163 0 -277.5 112.5t-114.5 272.5q0 161 114.5 274.5t277.5 113.5q162 0 277 -113.5t115 -274.5q0 -160 -115 -272.5t-277 -112.5zM429 856q72 0 124.5 53t52.5 128q0 74 -52.5 127t-124.5 53q-73 0 -125.5 -52.5t-52.5 -127.5t52.5 -128t125.5 -53z" />
    <glyph glyph-name="plusminus" unicode="&#xb1;" 
d="M714 317h-228v259h-346v223h346v322h228v-322h346v-223h-346v-259zM1060 223v-223h-920v223h920z" />
    <glyph glyph-name="twosuperior" unicode="&#xb2;" horiz-adv-x="725" 
d="M172 1140l-119 129q118 145 306 145q133 0 212 -72.5t79 -192.5q0 -71 -30.5 -128t-100.5 -124l-144 -137h294v-182h-573v154l289 275q61 58 61 120q0 44 -30.5 71.5t-77.5 27.5q-49 0 -87.5 -22.5t-78.5 -63.5z" />
    <glyph glyph-name="threesuperior" unicode="&#xb3;" horiz-adv-x="730" 
d="M333 1414q138 0 224 -65t86 -172q0 -128 -121 -185q66 -26 102.5 -74t36.5 -112q0 -116 -94.5 -179.5t-228.5 -63.5q-193 0 -297 121l110 128q73 -75 177 -75q56 0 92 22t36 64q0 41 -41 63.5t-103 22.5h-94v167h96q55 0 90.5 22.5t35.5 61.5t-31 59.5t-84 20.5
q-102 0 -171 -77l-110 127q108 124 289 124z" />
    <glyph glyph-name="acute" unicode="&#xb4;" horiz-adv-x="1000" 
d="M493 1108h-249l201 315h312z" />
    <glyph glyph-name="mu" unicode="&#xb5;" horiz-adv-x="1182" 
d="M382 -400h-253v1369h261v-533q0 -104 49.5 -160.5t139.5 -56.5q89 0 147 57t58 162v531h261v-969h-254v114q-94 -140 -285 -140q-67 0 -124 18v-392z" />
    <glyph glyph-name="paragraph" unicode="&#xb6;" horiz-adv-x="1289" 
d="M559 0v595q-216 4 -332 111.5t-116 292.5q0 183 116 289.5t332 110.5v1h202v-1400h-202zM864 0v1400h202v-1400h-202z" />
    <glyph glyph-name="periodcentered" unicode="&#xb7;" horiz-adv-x="670" 
d="M336 726q77 0 135 -57.5t58 -135.5q0 -79 -58 -137t-135 -58q-78 0 -136.5 58t-58.5 137q0 78 58.5 135.5t136.5 57.5z" />
    <glyph glyph-name="cedilla" unicode="&#xb8;" horiz-adv-x="871" 
d="M613 7l-103 -328h-252l111 328h244z" />
    <glyph glyph-name="onesuperior" unicode="&#xb9;" horiz-adv-x="553" 
d="M423 1413v-835h-197v565l-185 -68v192z" />
    <glyph glyph-name="ordmasculine" unicode="&#xba;" horiz-adv-x="869" 
d="M435 1287q161 0 267 -103.5t106 -259.5t-106 -260t-267 -104t-267.5 104t-106.5 260t106.5 259.5t267.5 103.5zM435 1106q-76 0 -126 -51t-50 -131t50 -131.5t126 -51.5t126 51.5t50 131.5t-50 131t-126 51z" />
    <glyph glyph-name="guillemotright" unicode="&#xbb;" horiz-adv-x="1087" 
d="M287 533l-193 390h263l193 -390l-193 -390h-263zM736 533l-193 390h263l193 -390l-193 -390h-263z" />
    <glyph glyph-name="onequarter" unicode="&#xbc;" horiz-adv-x="1709" 
d="M1380 1400l-883 -1400h-241l883 1400h241zM1573 536v-221h104v-177h-104v-138h-197v138h-368v138l271 545h216l-255 -506h136v101l60 120h137zM423 1413v-835h-197v565l-185 -68v192z" />
    <glyph glyph-name="onehalf" unicode="&#xbd;" horiz-adv-x="1782" 
d="M1380 1400l-883 -1400h-241l883 1400h241zM1228 562l-119 129q118 145 306 145q133 0 212 -72.5t79 -192.5q0 -71 -30.5 -128t-100.5 -124l-144 -137h294v-182h-573v154l289 275q61 58 61 120q0 44 -30.5 71.5t-77.5 27.5q-49 0 -87.5 -22.5t-78.5 -63.5zM423 1413v-835
h-197v565l-185 -68v192z" />
    <glyph glyph-name="threequarters" unicode="&#xbe;" horiz-adv-x="1859" 
d="M1530 1400l-883 -1400h-241l883 1400h241zM1723 536v-221h104v-177h-104v-138h-197v138h-368v138l271 545h216l-255 -506h136v101l60 120h137zM333 1414q138 0 224 -65t86 -172q0 -128 -121 -185q66 -26 102.5 -74t36.5 -112q0 -116 -94.5 -179.5t-228.5 -63.5
q-193 0 -297 121l110 128q73 -75 177 -75q56 0 92 22t36 64q0 41 -41 63.5t-103 22.5h-94v167h96q55 0 90.5 22.5t35.5 61.5t-31 59.5t-84 20.5q-102 0 -171 -77l-110 127q108 124 289 124z" />
    <glyph glyph-name="questiondown" unicode="&#xbf;" horiz-adv-x="891" 
d="M478 492h241v-340h-96q-145 0 -221 -45t-76 -133q0 -81 75.5 -123.5t218.5 -42.5q68 0 152 8l19 -263q-91 -13 -202 -13q-260 0 -405.5 111.5t-145.5 302.5q0 173 111 281t321 142zM598 614q-76 0 -132.5 56.5t-56.5 132.5q0 77 56.5 134.5t132.5 57.5t133.5 -57.5
t57.5 -133.5q0 -77 -57 -133.5t-134 -56.5z" />
    <glyph glyph-name="Agrave" unicode="&#xc0;" horiz-adv-x="1472" 
d="M906 1400l545 -1400h-298l-122 326h-597l-122 -326h-291l545 1400h340zM733 1124l-203 -541h405zM656 1518l-264 315h312l201 -315h-249z" />
    <glyph glyph-name="Aacute" unicode="&#xc1;" horiz-adv-x="1472" 
d="M906 1400l545 -1400h-298l-122 326h-597l-122 -326h-291l545 1400h340zM733 1124l-203 -541h405zM802 1518h-249l201 315h312z" />
    <glyph glyph-name="Acircumflex" unicode="&#xc2;" horiz-adv-x="1472" 
d="M906 1400l545 -1400h-298l-122 326h-597l-122 -326h-291l545 1400h340zM733 1124l-203 -541h405zM1112 1508h-253l-123 153l-122 -153h-253l218 315h315z" />
    <glyph glyph-name="Atilde" unicode="&#xc3;" horiz-adv-x="1472" 
d="M906 1400l545 -1400h-298l-122 326h-597l-122 -326h-291l545 1400h340zM733 1124l-203 -541h405zM482 1531l-138 149q101 131 262 131q61 0 112.5 -17.5t88 -35t59.5 -17.5q52 0 124 67l139 -149q-103 -132 -263 -132q-60 0 -111 17.5t-88 35t-61 17.5q-52 0 -124 -66z
" />
    <glyph glyph-name="Adieresis" unicode="&#xc4;" horiz-adv-x="1472" 
d="M906 1400l545 -1400h-298l-122 326h-597l-122 -326h-291l545 1400h340zM733 1124l-203 -541h405zM520 1834q70 0 119 -49t49 -119t-48.5 -118t-119.5 -48q-70 0 -118 48t-48 118q0 71 48 119.5t118 48.5zM951 1834q71 0 119.5 -49t48.5 -119t-48.5 -118t-119.5 -48
t-118.5 48t-47.5 118q0 71 48 119.5t118 48.5z" />
    <glyph glyph-name="Aring" unicode="&#xc5;" horiz-adv-x="1472" 
d="M906 1400l545 -1400h-298l-122 326h-597l-122 -326h-291l545 1400h340zM733 1124l-203 -541h405zM735 1486q-108 0 -184.5 75.5t-76.5 182.5q0 106 77 181.5t184 75.5q109 0 186 -75.5t77 -181.5q0 -107 -77 -182.5t-186 -75.5zM735 1635q44 0 75.5 31.5t31.5 77.5
q0 45 -31.5 76.5t-75.5 31.5q-42 0 -73.5 -31.5t-31.5 -76.5q0 -46 31 -77.5t74 -31.5z" />
    <glyph glyph-name="AE" unicode="&#xc6;" horiz-adv-x="2303" 
d="M2176 256v-256h-1046v294h-571l-209 -294h-333l1013 1400h1138v-256h-759v-310h724v-256h-724v-322h767zM742 551h388v543z" />
    <glyph glyph-name="Ccedilla" unicode="&#xc7;" horiz-adv-x="1510" 
d="M827 1426q194 0 354.5 -83.5t245.5 -230.5l-240 -147q-60 92 -153 142.5t-209 50.5q-192 0 -317 -128t-125 -330q1 -207 127 -332.5t315 -125.5q115 0 208 49.5t157 142.5l228 -164q-79 -115 -199.5 -190t-268.5 -97l-95 -304h-267l104 306q-269 42 -434.5 238
t-165.5 477q0 156 54.5 291t151 230.5t233.5 150t296 54.5z" />
    <glyph glyph-name="Egrave" unicode="&#xc8;" horiz-adv-x="1332" 
d="M1205 256v-256h-1046v1400h1038v-256h-759v-310h724v-256h-724v-322h767zM596 1518l-264 315h312l201 -315h-249z" />
    <glyph glyph-name="Eacute" unicode="&#xc9;" horiz-adv-x="1332" 
d="M1205 256v-256h-1046v1400h1038v-256h-759v-310h724v-256h-724v-322h767zM742 1518h-249l201 315h312z" />
    <glyph glyph-name="Ecircumflex" unicode="&#xca;" horiz-adv-x="1332" 
d="M1205 256v-256h-1046v1400h1038v-256h-759v-310h724v-256h-724v-322h767zM1052 1508h-253l-123 153l-122 -153h-253l218 315h315z" />
    <glyph glyph-name="Edieresis" unicode="&#xcb;" horiz-adv-x="1332" 
d="M1205 256v-256h-1046v1400h1038v-256h-759v-310h724v-256h-724v-322h767zM460 1834q70 0 119 -49t49 -119t-48.5 -118t-119.5 -48q-70 0 -118 48t-48 118q0 71 48 119.5t118 48.5zM891 1834q71 0 119.5 -49t48.5 -119t-48.5 -118t-119.5 -48t-118.5 48t-47.5 118
q0 71 48 119.5t118 48.5z" />
    <glyph glyph-name="Igrave" unicode="&#xcc;" horiz-adv-x="597" 
d="M438 1400v-1400h-279v1400h279zM219 1518l-264 315h312l201 -315h-249z" />
    <glyph glyph-name="Iacute" unicode="&#xcd;" horiz-adv-x="597" 
d="M438 1400v-1400h-279v1400h279zM365 1518h-249l201 315h312z" />
    <glyph glyph-name="Icircumflex" unicode="&#xce;" horiz-adv-x="597" 
d="M438 1400v-1400h-279v1400h279zM675 1508h-253l-123 153l-122 -153h-253l218 315h315z" />
    <glyph glyph-name="Idieresis" unicode="&#xcf;" horiz-adv-x="597" 
d="M438 1400v-1400h-279v1400h279zM83 1834q71 0 119.5 -49t48.5 -119t-48.5 -118t-119.5 -48t-118.5 48t-47.5 118q0 71 48 119.5t118 48.5zM514 1834q70 0 119 -49t49 -119t-48.5 -118t-119.5 -48q-70 0 -118 48t-48 118q0 71 48 119.5t118 48.5z" />
    <glyph glyph-name="Eth" unicode="&#xd0;" horiz-adv-x="1661" 
d="M265 1400h577q329 0 528 -192t199 -508t-199 -508t-528 -192h-577v581h-170v250h170v569zM892 831v-250h-348v-320h295q214 0 326 120.5t112 318.5q0 200 -112 319.5t-326 119.5h-295v-308h348z" />
    <glyph glyph-name="Ntilde" unicode="&#xd1;" horiz-adv-x="1570" 
d="M1411 1400v-1400h-262l-710 935l-1 -935h-279v1400h261l711 -935v935h280zM536 1531l-138 149q101 131 262 131q61 0 112.5 -17.5t88 -35t59.5 -17.5q52 0 124 67l139 -149q-103 -132 -263 -132q-60 0 -111 17.5t-88 35t-61 17.5q-52 0 -124 -66z" />
    <glyph glyph-name="Ograve" unicode="&#xd2;" horiz-adv-x="1655" 
d="M827 1426q212 0 380.5 -94t262 -259.5t93.5 -372.5t-93.5 -372.5t-262 -259.5t-380.5 -94q-159 0 -296 55t-233.5 151t-151 230.5t-54.5 289.5t54.5 289.5t151 230.5t233.5 151t296 55zM827 1158q-194 0 -319 -127.5t-125 -330.5t125 -330.5t319 -127.5
q195 0 319.5 127.5t124.5 330.5t-124.5 330.5t-319.5 127.5zM747 1518l-264 315h312l201 -315h-249z" />
    <glyph glyph-name="Oacute" unicode="&#xd3;" horiz-adv-x="1655" 
d="M827 1426q212 0 380.5 -94t262 -259.5t93.5 -372.5t-93.5 -372.5t-262 -259.5t-380.5 -94q-159 0 -296 55t-233.5 151t-151 230.5t-54.5 289.5t54.5 289.5t151 230.5t233.5 151t296 55zM827 1158q-194 0 -319 -127.5t-125 -330.5t125 -330.5t319 -127.5
q195 0 319.5 127.5t124.5 330.5t-124.5 330.5t-319.5 127.5zM893 1518h-249l201 315h312z" />
    <glyph glyph-name="Ocircumflex" unicode="&#xd4;" horiz-adv-x="1655" 
d="M827 1426q212 0 380.5 -94t262 -259.5t93.5 -372.5t-93.5 -372.5t-262 -259.5t-380.5 -94q-159 0 -296 55t-233.5 151t-151 230.5t-54.5 289.5t54.5 289.5t151 230.5t233.5 151t296 55zM827 1158q-194 0 -319 -127.5t-125 -330.5t125 -330.5t319 -127.5
q195 0 319.5 127.5t124.5 330.5t-124.5 330.5t-319.5 127.5zM1203 1508h-253l-123 153l-122 -153h-253l218 315h315z" />
    <glyph glyph-name="Otilde" unicode="&#xd5;" horiz-adv-x="1655" 
d="M827 1426q212 0 380.5 -94t262 -259.5t93.5 -372.5t-93.5 -372.5t-262 -259.5t-380.5 -94q-159 0 -296 55t-233.5 151t-151 230.5t-54.5 289.5t54.5 289.5t151 230.5t233.5 151t296 55zM827 1158q-194 0 -319 -127.5t-125 -330.5t125 -330.5t319 -127.5
q195 0 319.5 127.5t124.5 330.5t-124.5 330.5t-319.5 127.5zM573 1531l-138 149q101 131 262 131q61 0 112.5 -17.5t88 -35t59.5 -17.5q52 0 124 67l139 -149q-103 -132 -263 -132q-60 0 -111 17.5t-88 35t-61 17.5q-52 0 -124 -66z" />
    <glyph glyph-name="Odieresis" unicode="&#xd6;" horiz-adv-x="1655" 
d="M827 1426q212 0 380.5 -94t262 -259.5t93.5 -372.5t-93.5 -372.5t-262 -259.5t-380.5 -94q-159 0 -296 55t-233.5 151t-151 230.5t-54.5 289.5t54.5 289.5t151 230.5t233.5 151t296 55zM827 1158q-194 0 -319 -127.5t-125 -330.5t125 -330.5t319 -127.5
q195 0 319.5 127.5t124.5 330.5t-124.5 330.5t-319.5 127.5zM611 1834q71 0 119.5 -49t48.5 -119t-48.5 -118t-119.5 -48t-118.5 48t-47.5 118q0 71 48 119.5t118 48.5zM1042 1834q70 0 119 -49t49 -119t-48.5 -118t-119.5 -48q-70 0 -118 48t-48 118q0 71 48 119.5
t118 48.5z" />
    <glyph glyph-name="multiply" unicode="&#xd7;" 
d="M321 94l-159 159l277 277l-279 279l163 163l279 -279l277 277l159 -159l-277 -277l279 -279l-163 -163l-279 279z" />
    <glyph glyph-name="Oslash" unicode="&#xd8;" horiz-adv-x="1655" 
d="M827 1426q246 0 434 -128l127 127l168 -168l-125 -125q132 -187 132 -432q0 -207 -93.5 -372.5t-262 -259.5t-380.5 -94q-246 0 -430 125l-124 -124l-168 167l121 121q-134 187 -134 437q0 155 54.5 289.5t151 230.5t233.5 151t296 55zM827 1158q-194 0 -319 -127.5
t-125 -330.5q0 -129 52 -228l625 625q-103 61 -233 61zM1271 700q0 120 -49 223l-624 -623q99 -58 229 -58q195 0 319.5 127.5t124.5 330.5z" />
    <glyph glyph-name="Ugrave" unicode="&#xd9;" horiz-adv-x="1492" 
d="M1349 1400v-841q0 -189 -77 -322t-211.5 -197.5t-314.5 -64.5t-314.5 64.5t-211.5 197.5t-77 322v841h280v-827q0 -167 86 -249t237 -82t237 82t86 249v827h280zM666 1518l-264 315h312l201 -315h-249z" />
    <glyph glyph-name="Uacute" unicode="&#xda;" horiz-adv-x="1492" 
d="M1349 1400v-841q0 -189 -77 -322t-211.5 -197.5t-314.5 -64.5t-314.5 64.5t-211.5 197.5t-77 322v841h280v-827q0 -167 86 -249t237 -82t237 82t86 249v827h280zM812 1518h-249l201 315h312z" />
    <glyph glyph-name="Ucircumflex" unicode="&#xdb;" horiz-adv-x="1492" 
d="M1349 1400v-841q0 -189 -77 -322t-211.5 -197.5t-314.5 -64.5t-314.5 64.5t-211.5 197.5t-77 322v841h280v-827q0 -167 86 -249t237 -82t237 82t86 249v827h280zM1122 1508h-253l-123 153l-122 -153h-253l218 315h315z" />
    <glyph glyph-name="Udieresis" unicode="&#xdc;" horiz-adv-x="1492" 
d="M1349 1400v-841q0 -189 -77 -322t-211.5 -197.5t-314.5 -64.5t-314.5 64.5t-211.5 197.5t-77 322v841h280v-827q0 -167 86 -249t237 -82t237 82t86 249v827h280zM530 1834q70 0 119 -49t49 -119t-48.5 -118t-119.5 -48q-70 0 -118 48t-48 118q0 71 48 119.5t118 48.5z
M961 1834q71 0 119.5 -49t48.5 -119t-48.5 -118t-119.5 -48t-118.5 48t-47.5 118q0 71 48 119.5t118 48.5z" />
    <glyph glyph-name="Yacute" unicode="&#xdd;" horiz-adv-x="1362" 
d="M1356 1400l-532 -848v-552h-279v553l-539 847h328l352 -594l352 594h318zM751 1518h-249l201 315h312z" />
    <glyph glyph-name="Thorn" unicode="&#xde;" horiz-adv-x="1321" 
d="M438 1400v-240h292q246 0 379 -119.5t133 -326.5q0 -205 -132.5 -323.5t-377.5 -118.5h-294v-272h-279v1400h279zM725 902h-287v-375h287q231 0 231 187q0 188 -231 188z" />
    <glyph glyph-name="germandbls" unicode="&#xdf;" horiz-adv-x="1233" 
d="M130 0v1005q0 72 16.5 137t54 125t93.5 103t141.5 69t191.5 26q217 0 353 -116t136 -291q0 -121 -59 -209.5t-153 -122.5q107 -28 180 -121t73 -209q0 -192 -126.5 -306.5t-328.5 -114.5q-126 0 -208 26l36 225q63 -23 132 -23q108 0 168 52.5t60 150.5q0 198 -278 198
h-37v225h10q265 0 265 197q0 95 -64.5 147t-164.5 52q-110 0 -170.5 -63.5t-60.5 -168.5v-993h-260z" />
    <glyph glyph-name="agrave" unicode="&#xe0;" horiz-adv-x="1228" 
d="M1091 969v-969h-255v107q-107 -132 -290 -132q-200 0 -334.5 146t-134.5 364t134.5 364t334.5 146q182 0 290 -133v107h255zM594 752q-112 0 -181 -76.5t-69 -190.5t69 -190.5t181 -76.5q111 0 180.5 75.5t69.5 191.5t-69.5 191.5t-180.5 75.5zM538 1108l-264 315h312
l201 -315h-249z" />
    <glyph glyph-name="aacute" unicode="&#xe1;" horiz-adv-x="1228" 
d="M1091 969v-969h-255v107q-107 -132 -290 -132q-200 0 -334.5 146t-134.5 364t134.5 364t334.5 146q182 0 290 -133v107h255zM594 752q-112 0 -181 -76.5t-69 -190.5t69 -190.5t181 -76.5q111 0 180.5 75.5t69.5 191.5t-69.5 191.5t-180.5 75.5zM692 1108h-249l201 315
h312z" />
    <glyph glyph-name="acircumflex" unicode="&#xe2;" horiz-adv-x="1228" 
d="M1091 969v-969h-255v107q-107 -132 -290 -132q-200 0 -334.5 146t-134.5 364t134.5 364t334.5 146q182 0 290 -133v107h255zM594 752q-112 0 -181 -76.5t-69 -190.5t69 -190.5t181 -76.5q111 0 180.5 75.5t69.5 191.5t-69.5 191.5t-180.5 75.5zM993 1098h-253l-123 153
l-122 -153h-253l218 315h315z" />
    <glyph glyph-name="atilde" unicode="&#xe3;" horiz-adv-x="1228" 
d="M1091 969v-969h-255v107q-107 -132 -290 -132q-200 0 -334.5 146t-134.5 364t134.5 364t334.5 146q182 0 290 -133v107h255zM594 752q-112 0 -181 -76.5t-69 -190.5t69 -190.5t181 -76.5q111 0 180.5 75.5t69.5 191.5t-69.5 191.5t-180.5 75.5zM361 1121l-138 149
q101 131 262 131q61 0 112.5 -17.5t88 -35t59.5 -17.5q52 0 124 67l139 -149q-103 -132 -263 -132q-60 0 -111 17.5t-88 35t-61 17.5q-52 0 -124 -66z" />
    <glyph glyph-name="adieresis" unicode="&#xe4;" horiz-adv-x="1228" 
d="M1091 969v-969h-255v107q-107 -132 -290 -132q-200 0 -334.5 146t-134.5 364t134.5 364t334.5 146q182 0 290 -133v107h255zM594 752q-112 0 -181 -76.5t-69 -190.5t69 -190.5t181 -76.5q111 0 180.5 75.5t69.5 191.5t-69.5 191.5t-180.5 75.5zM399 1424q71 0 119.5 -49
t48.5 -119t-48.5 -118t-119.5 -48t-118.5 48t-47.5 118q0 71 48 119.5t118 48.5zM830 1424q70 0 119 -49t49 -119t-48.5 -118t-119.5 -48q-70 0 -118 48t-48 118q0 71 48 119.5t118 48.5z" />
    <glyph glyph-name="aring" unicode="&#xe5;" horiz-adv-x="1228" 
d="M1091 969v-969h-255v107q-107 -132 -290 -132q-200 0 -334.5 146t-134.5 364t134.5 364t334.5 146q182 0 290 -133v107h255zM594 752q-112 0 -181 -76.5t-69 -190.5t69 -190.5t181 -76.5q111 0 180.5 75.5t69.5 191.5t-69.5 191.5t-180.5 75.5zM616 1076
q-108 0 -184.5 75.5t-76.5 182.5q0 106 77 181.5t184 75.5q109 0 186 -75.5t77 -181.5q0 -107 -77 -182.5t-186 -75.5zM616 1225q44 0 75.5 31.5t31.5 77.5q0 45 -31.5 76.5t-75.5 31.5q-42 0 -73.5 -31.5t-31.5 -76.5q0 -46 31 -77.5t74 -31.5z" />
    <glyph glyph-name="ae" unicode="&#xe6;" horiz-adv-x="1747" 
d="M1207 995q207 0 335 -140.5t129 -368.5q0 -51 -5 -88h-687q20 -101 86 -151t162 -50q136 0 246 93l153 -168q-162 -147 -417 -147q-238 0 -375 149q-72 -68 -159.5 -108.5t-215.5 -40.5q-180 0 -281 84.5t-101 224.5q0 138 108 216t297 78h229q-14 187 -217 187
q-134 0 -267 -89l-95 204q78 55 182.5 85t214.5 30q229 0 335 -143q122 143 343 143zM499 185q65 0 129 28t110 79q-17 53 -23 110h-195q-89 0 -130.5 -30.5t-41.5 -77.5q0 -46 38.5 -77.5t112.5 -31.5zM1198 770q-90 0 -146 -50.5t-73 -146.5h431q-18 95 -72.5 146
t-139.5 51z" />
    <glyph glyph-name="ccedilla" unicode="&#xe7;" horiz-adv-x="1033" 
d="M593 995q121 0 221 -47.5t167 -135.5l-188 -157q-91 97 -207 97q-103 0 -173 -74t-70 -193t69.5 -193t172.5 -74q121 0 211 98l186 -159q-109 -139 -286 -173l-96 -305h-252l105 312q-172 41 -274 175t-102 319q0 222 143 366t373 144z" />
    <glyph glyph-name="egrave" unicode="&#xe8;" horiz-adv-x="1114" 
d="M567 995q209 0 339.5 -141t131.5 -368q0 -51 -5 -88h-687q20 -101 86 -151t163 -50q63 0 128 24.5t117 68.5l153 -168q-160 -147 -413 -147q-224 0 -363.5 139.5t-139.5 367.5q0 229 136 371t354 142zM565 770q-90 0 -145 -51t-73 -143h429q-18 93 -72.5 143.5
t-138.5 50.5zM485 1108l-264 315h312l201 -315h-249z" />
    <glyph glyph-name="eacute" unicode="&#xe9;" horiz-adv-x="1114" 
d="M567 995q209 0 339.5 -141t131.5 -368q0 -51 -5 -88h-687q20 -101 86 -151t163 -50q63 0 128 24.5t117 68.5l153 -168q-160 -147 -413 -147q-224 0 -363.5 139.5t-139.5 367.5q0 229 136 371t354 142zM565 770q-90 0 -145 -51t-73 -143h429q-18 93 -72.5 143.5
t-138.5 50.5zM639 1108h-249l201 315h312z" />
    <glyph glyph-name="ecircumflex" unicode="&#xea;" horiz-adv-x="1114" 
d="M567 995q209 0 339.5 -141t131.5 -368q0 -51 -5 -88h-687q20 -101 86 -151t163 -50q63 0 128 24.5t117 68.5l153 -168q-160 -147 -413 -147q-224 0 -363.5 139.5t-139.5 367.5q0 229 136 371t354 142zM565 770q-90 0 -145 -51t-73 -143h429q-18 93 -72.5 143.5
t-138.5 50.5zM940 1098h-253l-123 153l-122 -153h-253l218 315h315z" />
    <glyph glyph-name="edieresis" unicode="&#xeb;" horiz-adv-x="1114" 
d="M567 995q209 0 339.5 -141t131.5 -368q0 -51 -5 -88h-687q20 -101 86 -151t163 -50q63 0 128 24.5t117 68.5l153 -168q-160 -147 -413 -147q-224 0 -363.5 139.5t-139.5 367.5q0 229 136 371t354 142zM565 770q-90 0 -145 -51t-73 -143h429q-18 93 -72.5 143.5
t-138.5 50.5zM346 1424q70 0 119 -49t49 -119t-48.5 -118t-119.5 -48q-70 0 -118 48t-48 118q0 71 48 119.5t118 48.5zM777 1424q71 0 119.5 -49t48.5 -119t-48.5 -118t-119.5 -48t-118.5 48t-47.5 118q0 71 48 119.5t118 48.5z" />
    <glyph glyph-name="igrave" unicode="&#xec;" horiz-adv-x="535" 
d="M398 969v-969h-261v969h261zM188 1108l-264 315h312l201 -315h-249z" />
    <glyph glyph-name="iacute" unicode="&#xed;" horiz-adv-x="535" 
d="M398 969v-969h-261v969h261zM342 1108h-249l201 315h312z" />
    <glyph glyph-name="icircumflex" unicode="&#xee;" horiz-adv-x="535" 
d="M398 969v-969h-261v969h261zM643 1098h-253l-123 153l-122 -153h-253l218 315h315z" />
    <glyph glyph-name="idieresis" unicode="&#xef;" horiz-adv-x="535" 
d="M398 969v-969h-261v969h261zM49 1424q71 0 119.5 -49t48.5 -119t-48.5 -118t-119.5 -48t-118.5 48t-47.5 118q0 71 48 119.5t118 48.5zM480 1424q70 0 119 -49t49 -119t-48.5 -118t-119.5 -48q-70 0 -118 48t-48 118q0 71 48 119.5t118 48.5z" />
    <glyph glyph-name="eth" unicode="&#xf0;" horiz-adv-x="1194" 
d="M848 1449l88 -140l-144 -89q165 -151 245.5 -342.5t80.5 -388.5q0 -221 -147.5 -367.5t-373.5 -146.5q-223 0 -371.5 138.5t-148.5 345.5q0 208 134.5 346t332.5 138q144 0 247 -87q-70 131 -210 237l-225 -138l-87 139l158 98q-67 38 -159 78l138 185q140 -56 246 -127z
M600 713q-111 0 -184 -70.5t-73 -182.5q0 -110 73 -181t184 -71t184.5 71t73.5 181q0 112 -73.5 182.5t-184.5 70.5z" />
    <glyph glyph-name="ntilde" unicode="&#xf1;" horiz-adv-x="1182" 
d="M676 995q166 0 271.5 -105t105.5 -273v-617h-261v533q0 104 -49.5 160.5t-139.5 56.5q-89 0 -147 -57t-58 -162v-531h-261v969h254v-114q94 140 285 140zM350 1121l-138 149q101 131 262 131q61 0 112.5 -17.5t88 -35t59.5 -17.5q52 0 124 67l139 -149
q-103 -132 -263 -132q-60 0 -111 17.5t-88 35t-61 17.5q-52 0 -124 -66z" />
    <glyph glyph-name="ograve" unicode="&#xf2;" horiz-adv-x="1201" 
d="M600 995q226 0 375.5 -145.5t149.5 -364.5t-149.5 -364.5t-375.5 -145.5q-225 0 -374 145.5t-149 364.5t149 364.5t374 145.5zM600 752q-111 0 -184 -75t-73 -192t73 -192t184 -75t184.5 75t73.5 192t-73.5 192t-184.5 75zM521 1108l-264 315h312l201 -315h-249z" />
    <glyph glyph-name="oacute" unicode="&#xf3;" horiz-adv-x="1201" 
d="M600 995q226 0 375.5 -145.5t149.5 -364.5t-149.5 -364.5t-375.5 -145.5q-225 0 -374 145.5t-149 364.5t149 364.5t374 145.5zM600 752q-111 0 -184 -75t-73 -192t73 -192t184 -75t184.5 75t73.5 192t-73.5 192t-184.5 75zM675 1108h-249l201 315h312z" />
    <glyph glyph-name="ocircumflex" unicode="&#xf4;" horiz-adv-x="1201" 
d="M600 995q226 0 375.5 -145.5t149.5 -364.5t-149.5 -364.5t-375.5 -145.5q-225 0 -374 145.5t-149 364.5t149 364.5t374 145.5zM600 752q-111 0 -184 -75t-73 -192t73 -192t184 -75t184.5 75t73.5 192t-73.5 192t-184.5 75zM976 1098h-253l-123 153l-122 -153h-253
l218 315h315z" />
    <glyph glyph-name="otilde" unicode="&#xf5;" horiz-adv-x="1201" 
d="M600 995q226 0 375.5 -145.5t149.5 -364.5t-149.5 -364.5t-375.5 -145.5q-225 0 -374 145.5t-149 364.5t149 364.5t374 145.5zM600 752q-111 0 -184 -75t-73 -192t73 -192t184 -75t184.5 75t73.5 192t-73.5 192t-184.5 75zM344 1121l-138 149q101 131 262 131
q61 0 112.5 -17.5t88 -35t59.5 -17.5q52 0 124 67l139 -149q-103 -132 -263 -132q-60 0 -111 17.5t-88 35t-61 17.5q-52 0 -124 -66z" />
    <glyph glyph-name="odieresis" unicode="&#xf6;" horiz-adv-x="1201" 
d="M600 995q226 0 375.5 -145.5t149.5 -364.5t-149.5 -364.5t-375.5 -145.5q-225 0 -374 145.5t-149 364.5t149 364.5t374 145.5zM600 752q-111 0 -184 -75t-73 -192t73 -192t184 -75t184.5 75t73.5 192t-73.5 192t-184.5 75zM382 1424q70 0 119 -49t49 -119t-48.5 -118
t-119.5 -48q-70 0 -118 48t-48 118q0 71 48 119.5t118 48.5zM813 1424q71 0 119.5 -49t48.5 -119t-48.5 -118t-119.5 -48t-118.5 48t-47.5 118q0 71 48 119.5t118 48.5z" />
    <glyph glyph-name="divide" unicode="&#xf7;" 
d="M1060 654v-223h-920v223h920zM601 1058q66 0 114.5 -48t48.5 -114t-48.5 -115t-114.5 -49t-115 49t-49 115t49 114t115 48zM601 354q66 0 114.5 -48.5t48.5 -114.5t-48.5 -115t-114.5 -49t-115 49t-49 115t49 114.5t115 48.5z" />
    <glyph glyph-name="oslash" unicode="&#xf8;" horiz-adv-x="1201" 
d="M601 995q158 0 285 -77l102 101l149 -148l-98 -98q86 -127 86 -288q0 -219 -149 -364.5t-375 -145.5q-157 0 -284 75l-101 -101l-150 148l97 98q-86 127 -86 290q0 219 149 364.5t375 145.5zM601 758q-113 0 -188 -77t-75 -196q0 -57 19 -108l357 357q-54 24 -113 24z
M865 485q0 55 -19 106l-357 -356q52 -23 112 -23q113 0 188.5 77t75.5 196z" />
    <glyph glyph-name="ugrave" unicode="&#xf9;" horiz-adv-x="1175" 
d="M1046 969v-556q0 -111 -37 -197t-101.5 -137.5t-145.5 -77.5t-174 -26q-74 0 -141 16t-125.5 50.5t-101 85t-67 124t-24.5 162.5v556h261v-533q0 -111 54 -164.5t144 -53.5t144 53.5t54 164.5v533h260zM509 1108l-264 315h312l201 -315h-249z" />
    <glyph glyph-name="uacute" unicode="&#xfa;" horiz-adv-x="1175" 
d="M1046 969v-556q0 -111 -37 -197t-101.5 -137.5t-145.5 -77.5t-174 -26q-74 0 -141 16t-125.5 50.5t-101 85t-67 124t-24.5 162.5v556h261v-533q0 -111 54 -164.5t144 -53.5t144 53.5t54 164.5v533h260zM663 1108h-249l201 315h312z" />
    <glyph glyph-name="ucircumflex" unicode="&#xfb;" horiz-adv-x="1175" 
d="M1046 969v-556q0 -111 -37 -197t-101.5 -137.5t-145.5 -77.5t-174 -26q-74 0 -141 16t-125.5 50.5t-101 85t-67 124t-24.5 162.5v556h261v-533q0 -111 54 -164.5t144 -53.5t144 53.5t54 164.5v533h260zM964 1098h-253l-123 153l-122 -153h-253l218 315h315z" />
    <glyph glyph-name="udieresis" unicode="&#xfc;" horiz-adv-x="1175" 
d="M1046 969v-556q0 -111 -37 -197t-101.5 -137.5t-145.5 -77.5t-174 -26q-74 0 -141 16t-125.5 50.5t-101 85t-67 124t-24.5 162.5v556h261v-533q0 -111 54 -164.5t144 -53.5t144 53.5t54 164.5v533h260zM370 1424q70 0 119 -49t49 -119t-48.5 -118t-119.5 -48
q-70 0 -118 48t-48 118q0 71 48 119.5t118 48.5zM801 1424q71 0 119.5 -49t48.5 -119t-48.5 -118t-119.5 -48t-118.5 48t-47.5 118q0 71 48 119.5t118 48.5z" />
    <glyph glyph-name="yacute" unicode="&#xfd;" horiz-adv-x="1128" 
d="M1119 969l-741 -1373h-286l339 610l-418 763h296l266 -498l258 498h286zM646 1108h-249l201 315h312z" />
    <glyph glyph-name="thorn" unicode="&#xfe;" horiz-adv-x="1227" 
d="M681 995q201 0 335.5 -146t134.5 -364t-134.5 -364t-334.5 -146q-178 0 -284 124v-499h-261v1840h261v-570q106 125 283 125zM633 752q-110 0 -179.5 -75.5t-69.5 -191.5t69.5 -191.5t179.5 -75.5q113 0 181.5 76.5t68.5 190.5t-68.5 190.5t-181.5 76.5z" />
    <glyph glyph-name="ydieresis" unicode="&#xff;" horiz-adv-x="1128" 
d="M1119 969l-741 -1373h-286l339 610l-418 763h296l266 -498l258 498h286zM353 1424q71 0 119.5 -49t48.5 -119t-48.5 -118t-119.5 -48t-118.5 48t-47.5 118q0 71 48 119.5t118 48.5zM784 1424q70 0 119 -49t49 -119t-48.5 -118t-119.5 -48q-70 0 -118 48t-48 118
q0 71 48 119.5t118 48.5z" />
    <glyph glyph-name="Amacron" unicode="&#x100;" horiz-adv-x="1472" 
d="M906 1400l545 -1400h-298l-122 326h-597l-122 -326h-291l545 1400h340zM733 1124l-203 -541h405zM405 1561v209h661v-209h-661z" />
    <glyph glyph-name="amacron" unicode="&#x101;" horiz-adv-x="1228" 
d="M1091 969v-969h-255v107q-107 -132 -290 -132q-200 0 -334.5 146t-134.5 364t134.5 364t334.5 146q182 0 290 -133v107h255zM594 752q-112 0 -181 -76.5t-69 -190.5t69 -190.5t181 -76.5q111 0 180.5 75.5t69.5 191.5t-69.5 191.5t-180.5 75.5zM286 1151v209h661v-209
h-661z" />
    <glyph glyph-name="Abreve" unicode="&#x102;" horiz-adv-x="1472" 
d="M906 1400l545 -1400h-298l-122 326h-597l-122 -326h-291l545 1400h340zM733 1124l-203 -541h405zM353 1809l199 58q50 -164 184 -164q132 0 184 164l199 -58q-41 -153 -140 -234t-243 -81t-243 81t-140 234z" />
    <glyph glyph-name="abreve" unicode="&#x103;" horiz-adv-x="1228" 
d="M1091 969v-969h-255v107q-107 -132 -290 -132q-200 0 -334.5 146t-134.5 364t134.5 364t334.5 146q182 0 290 -133v107h255zM594 752q-112 0 -181 -76.5t-69 -190.5t69 -190.5t181 -76.5q111 0 180.5 75.5t69.5 191.5t-69.5 191.5t-180.5 75.5zM234 1399l199 58
q50 -164 184 -164q132 0 184 164l199 -58q-41 -153 -140 -234t-243 -81t-243 81t-140 234z" />
    <glyph glyph-name="Aogonek" unicode="&#x104;" horiz-adv-x="1472" 
d="M1324 -177l128 -153q-97 -89 -240 -89q-108 0 -178 54t-70 146q0 129 184 231l-117 314h-597l-122 -326h-291l545 1400h340l545 -1400h-98q-163 -78 -163 -158q0 -26 15.5 -40t42.5 -14q36 0 76 35zM733 1124l-203 -541h405z" />
    <glyph glyph-name="aogonek" unicode="&#x105;" horiz-adv-x="1228" 
d="M1030 -177l128 -153q-97 -89 -240 -89q-108 0 -178 54t-70 146q0 124 166 220v106q-107 -132 -290 -132q-200 0 -334.5 146t-134.5 364t134.5 364t334.5 146q182 0 290 -133v107h255v-969h-32q-163 -78 -163 -158q0 -26 15.5 -40t42.5 -14q36 0 76 35zM594 752
q-112 0 -181 -76.5t-69 -190.5t69 -190.5t181 -76.5q111 0 180.5 75.5t69.5 191.5t-69.5 191.5t-180.5 75.5z" />
    <glyph glyph-name="Cacute" unicode="&#x106;" horiz-adv-x="1510" 
d="M827 1426q194 0 354.5 -83.5t245.5 -230.5l-240 -147q-60 92 -153 142.5t-209 50.5q-192 0 -317 -128t-125 -330q1 -207 127 -332.5t315 -125.5q115 0 208 49.5t157 142.5l228 -164q-95 -139 -248.5 -217.5t-342.5 -78.5q-159 0 -296 54.5t-233.5 150t-151 230.5
t-54.5 291t54.5 291t151 230.5t233.5 150t296 54.5zM886 1518h-249l201 315h312z" />
    <glyph glyph-name="cacute" unicode="&#x107;" horiz-adv-x="1033" 
d="M593 995q121 0 221 -47.5t167 -135.5l-188 -157q-91 97 -207 97q-103 0 -173 -74t-70 -193t69.5 -193t172.5 -74q121 0 211 98l186 -159q-142 -182 -389 -182q-230 0 -373 143.5t-143 366.5q0 222 143 366t373 144zM657 1108h-249l201 315h312z" />
    <glyph glyph-name="Ccircumflex" unicode="&#x108;" horiz-adv-x="1510" 
d="M827 1426q194 0 354.5 -83.5t245.5 -230.5l-240 -147q-60 92 -153 142.5t-209 50.5q-192 0 -317 -128t-125 -330q1 -207 127 -332.5t315 -125.5q115 0 208 49.5t157 142.5l228 -164q-95 -139 -248.5 -217.5t-342.5 -78.5q-159 0 -296 54.5t-233.5 150t-151 230.5
t-54.5 291t54.5 291t151 230.5t233.5 150t296 54.5zM1196 1508h-253l-123 153l-122 -153h-253l218 315h315z" />
    <glyph glyph-name="ccircumflex" unicode="&#x109;" horiz-adv-x="1033" 
d="M593 995q121 0 221 -47.5t167 -135.5l-188 -157q-91 97 -207 97q-103 0 -173 -74t-70 -193t69.5 -193t172.5 -74q121 0 211 98l186 -159q-142 -182 -389 -182q-230 0 -373 143.5t-143 366.5q0 222 143 366t373 144zM958 1098h-253l-123 153l-122 -153h-253l218 315h315z
" />
    <glyph glyph-name="Cdotaccent" unicode="&#x10a;" horiz-adv-x="1510" 
d="M827 1426q194 0 354.5 -83.5t245.5 -230.5l-240 -147q-60 92 -153 142.5t-209 50.5q-192 0 -317 -128t-125 -330q1 -207 127 -332.5t315 -125.5q115 0 208 49.5t157 142.5l228 -164q-95 -139 -248.5 -217.5t-342.5 -78.5q-159 0 -296 54.5t-233.5 150t-151 230.5
t-54.5 291t54.5 291t151 230.5t233.5 150t296 54.5zM797 1849q74 0 124.5 -51.5t50.5 -125.5t-50.5 -124t-124.5 -50t-124 50t-50 124q0 75 50 126t124 51z" />
    <glyph glyph-name="cdotaccent" unicode="&#x10b;" horiz-adv-x="1033" 
d="M593 995q121 0 221 -47.5t167 -135.5l-188 -157q-91 97 -207 97q-103 0 -173 -74t-70 -193t69.5 -193t172.5 -74q121 0 211 98l186 -159q-142 -182 -389 -182q-230 0 -373 143.5t-143 366.5q0 222 143 366t373 144zM581 1454q70 0 118.5 -48.5t48.5 -119.5
q0 -70 -48 -118t-119 -48t-118.5 48t-47.5 118q0 71 48 119.5t118 48.5z" />
    <glyph glyph-name="Ccaron" unicode="&#x10c;" horiz-adv-x="1510" 
d="M827 1426q194 0 354.5 -83.5t245.5 -230.5l-240 -147q-60 92 -153 142.5t-209 50.5q-192 0 -317 -128t-125 -330q1 -207 127 -332.5t315 -125.5q115 0 208 49.5t157 142.5l228 -164q-95 -139 -248.5 -217.5t-342.5 -78.5q-159 0 -296 54.5t-233.5 150t-151 230.5
t-54.5 291t54.5 291t151 230.5t233.5 150t296 54.5zM445 1823h253l122 -153l123 153h253l-218 -315h-315z" />
    <glyph glyph-name="ccaron" unicode="&#x10d;" horiz-adv-x="1033" 
d="M593 995q121 0 221 -47.5t167 -135.5l-188 -157q-91 97 -207 97q-103 0 -173 -74t-70 -193t69.5 -193t172.5 -74q121 0 211 98l186 -159q-142 -182 -389 -182q-230 0 -373 143.5t-143 366.5q0 222 143 366t373 144zM207 1413h253l122 -153l123 153h253l-218 -315h-315z
" />
    <glyph glyph-name="Dcaron" unicode="&#x10e;" horiz-adv-x="1555" 
d="M159 1400h577q329 0 528 -192t199 -508t-199 -508t-528 -192h-577v1400zM733 1139h-295v-878h295q214 0 326 120.5t112 318.5q0 200 -112 319.5t-326 119.5zM349 1823h253l122 -153l123 153h253l-218 -315h-315z" />
    <glyph glyph-name="dcaron" unicode="&#x10f;" horiz-adv-x="1343" 
d="M546 995q180 0 285 -127v572h260v-1440h-255v107q-107 -132 -290 -132q-200 0 -334.5 146t-134.5 364t134.5 364t334.5 146zM594 752q-112 0 -181 -76.5t-69 -190.5t69 -190.5t181 -76.5q111 0 180.5 75.5t69.5 191.5t-69.5 191.5t-180.5 75.5zM1395 1012h-206v428h257z
" />
    <glyph glyph-name="Dcroat" unicode="&#x110;" horiz-adv-x="1661" 
d="M265 1400h577q329 0 528 -192t199 -508t-199 -508t-528 -192h-577v581h-170v250h170v569zM892 831v-250h-348v-320h295q214 0 326 120.5t112 318.5q0 200 -112 319.5t-326 119.5h-295v-308h348z" />
    <glyph glyph-name="dcroat" unicode="&#x111;" horiz-adv-x="1209" 
d="M1208 1306v-218h-117v-1088h-255v107q-107 -132 -290 -132q-200 0 -334.5 146t-134.5 364t134.5 364t334.5 146q180 0 285 -127v220h-363v218h363v134h260v-134h117zM594 752q-112 0 -181 -76.5t-69 -190.5t69 -190.5t181 -76.5q111 0 180.5 75.5t69.5 191.5t-69.5 191.5
t-180.5 75.5z" />
    <glyph glyph-name="Emacron" unicode="&#x112;" horiz-adv-x="1332" 
d="M1205 256v-256h-1046v1400h1038v-256h-759v-310h724v-256h-724v-322h767zM345 1561v209h661v-209h-661z" />
    <glyph glyph-name="emacron" unicode="&#x113;" horiz-adv-x="1114" 
d="M567 995q209 0 339.5 -141t131.5 -368q0 -51 -5 -88h-687q20 -101 86 -151t163 -50q63 0 128 24.5t117 68.5l153 -168q-160 -147 -413 -147q-224 0 -363.5 139.5t-139.5 367.5q0 229 136 371t354 142zM565 770q-90 0 -145 -51t-73 -143h429q-18 93 -72.5 143.5
t-138.5 50.5zM233 1151v209h661v-209h-661z" />
    <glyph glyph-name="Ebreve" unicode="&#x114;" horiz-adv-x="1332" 
d="M1205 256v-256h-1046v1400h1038v-256h-759v-310h724v-256h-724v-322h767zM293 1809l199 58q50 -164 184 -164q132 0 184 164l199 -58q-41 -153 -140 -234t-243 -81t-243 81t-140 234z" />
    <glyph glyph-name="ebreve" unicode="&#x115;" horiz-adv-x="1114" 
d="M567 995q209 0 339.5 -141t131.5 -368q0 -51 -5 -88h-687q20 -101 86 -151t163 -50q63 0 128 24.5t117 68.5l153 -168q-160 -147 -413 -147q-224 0 -363.5 139.5t-139.5 367.5q0 229 136 371t354 142zM565 770q-90 0 -145 -51t-73 -143h429q-18 93 -72.5 143.5
t-138.5 50.5zM181 1399l199 58q50 -164 184 -164q132 0 184 164l199 -58q-41 -153 -140 -234t-243 -81t-243 81t-140 234z" />
    <glyph glyph-name="Edotaccent" unicode="&#x116;" horiz-adv-x="1332" 
d="M1205 256v-256h-1046v1400h1038v-256h-759v-310h724v-256h-724v-322h767zM653 1849q74 0 124.5 -51.5t50.5 -125.5t-50.5 -124t-124.5 -50t-124 50t-50 124q0 75 50 126t124 51z" />
    <glyph glyph-name="edotaccent" unicode="&#x117;" horiz-adv-x="1114" 
d="M567 995q209 0 339.5 -141t131.5 -368q0 -51 -5 -88h-687q20 -101 86 -151t163 -50q63 0 128 24.5t117 68.5l153 -168q-160 -147 -413 -147q-224 0 -363.5 139.5t-139.5 367.5q0 229 136 371t354 142zM565 770q-90 0 -145 -51t-73 -143h429q-18 93 -72.5 143.5
t-138.5 50.5zM563 1454q70 0 118.5 -48.5t48.5 -119.5q0 -70 -48 -118t-119 -48t-118.5 48t-47.5 118q0 71 48 119.5t118 48.5z" />
    <glyph glyph-name="Eogonek" unicode="&#x118;" horiz-adv-x="1332" 
d="M1205 256v-256h-180q-123 -65 -123 -143q0 -31 22.5 -50t60.5 -19q58 0 111 45l136 -148q-112 -104 -275 -104q-130 0 -212.5 61t-82.5 158q0 121 121 200h-624v1400h1038v-256h-759v-310h724v-256h-724v-322h767z" />
    <glyph glyph-name="eogonek" unicode="&#x119;" horiz-adv-x="1114" 
d="M859 -167l136 -148q-112 -104 -275 -104q-130 0 -212.5 61t-82.5 158q0 106 90 179q-198 20 -318 156t-120 347q0 229 136 371t354 142q209 0 339.5 -141t131.5 -368q0 -51 -5 -88h-687q20 -101 86 -151t163 -50q63 0 128 24.5t117 68.5l153 -168q-79 -73 -178 -109
q-150 -71 -150 -156q0 -31 22.5 -50t60.5 -19q58 0 111 45zM565 770q-90 0 -145 -51t-73 -143h429q-18 93 -72.5 143.5t-138.5 50.5z" />
    <glyph glyph-name="Ecaron" unicode="&#x11a;" horiz-adv-x="1332" 
d="M1205 256v-256h-1046v1400h1038v-256h-759v-310h724v-256h-724v-322h767zM301 1823h253l122 -153l123 153h253l-218 -315h-315z" />
    <glyph glyph-name="ecaron" unicode="&#x11b;" horiz-adv-x="1114" 
d="M567 995q209 0 339.5 -141t131.5 -368q0 -51 -5 -88h-687q20 -101 86 -151t163 -50q63 0 128 24.5t117 68.5l153 -168q-160 -147 -413 -147q-224 0 -363.5 139.5t-139.5 367.5q0 229 136 371t354 142zM565 770q-90 0 -145 -51t-73 -143h429q-18 93 -72.5 143.5
t-138.5 50.5zM189 1413h253l122 -153l123 153h253l-218 -315h-315z" />
    <glyph glyph-name="Gcircumflex" unicode="&#x11c;" horiz-adv-x="1600" 
d="M831 1426q164 0 300.5 -56t230.5 -159l-201 -197q-128 147 -338 147q-193 0 -317.5 -128.5t-124.5 -332.5q0 -210 125.5 -337.5t311.5 -127.5q169 0 269.5 79t128.5 230h-356v233h644q4 -36 4 -79q0 -209 -88 -374.5t-244 -257t-352 -91.5q-116 0 -225 31.5t-200.5 94
t-160.5 148.5t-107.5 202.5t-38.5 248.5q0 156 55.5 291.5t152.5 230.5t234.5 149.5t296.5 54.5zM1180 1508h-253l-123 153l-122 -153h-253l218 315h315z" />
    <glyph glyph-name="gcircumflex" unicode="&#x11d;" horiz-adv-x="1216" 
d="M523 995q192 0 300 -134v108h256v-889q0 -232 -141 -365.5t-382 -133.5q-118 0 -231 30.5t-193 86.5l93 213q150 -99 320 -99q125 0 200.5 67.5t75.5 189.5v68q-107 -131 -298 -131q-88 0 -169 36t-142.5 99t-98 157t-36.5 202q0 109 36.5 202.5t98 157t142.5 99.5
t169 36zM589 755q-109 0 -176.5 -73.5t-67.5 -181.5t67.5 -181t176.5 -73q107 0 175 72.5t68 181.5q0 110 -67.5 182.5t-175.5 72.5zM968 1098h-253l-123 153l-122 -153h-253l218 315h315z" />
    <glyph glyph-name="Gbreve" unicode="&#x11e;" horiz-adv-x="1600" 
d="M831 1426q164 0 300.5 -56t230.5 -159l-201 -197q-128 147 -338 147q-193 0 -317.5 -128.5t-124.5 -332.5q0 -210 125.5 -337.5t311.5 -127.5q169 0 269.5 79t128.5 230h-356v233h644q4 -36 4 -79q0 -209 -88 -374.5t-244 -257t-352 -91.5q-116 0 -225 31.5t-200.5 94
t-160.5 148.5t-107.5 202.5t-38.5 248.5q0 156 55.5 291.5t152.5 230.5t234.5 149.5t296.5 54.5zM421 1809l199 58q50 -164 184 -164q132 0 184 164l199 -58q-41 -153 -140 -234t-243 -81t-243 81t-140 234z" />
    <glyph glyph-name="gbreve" unicode="&#x11f;" horiz-adv-x="1216" 
d="M523 995q192 0 300 -134v108h256v-889q0 -232 -141 -365.5t-382 -133.5q-118 0 -231 30.5t-193 86.5l93 213q150 -99 320 -99q125 0 200.5 67.5t75.5 189.5v68q-107 -131 -298 -131q-88 0 -169 36t-142.5 99t-98 157t-36.5 202q0 109 36.5 202.5t98 157t142.5 99.5
t169 36zM589 755q-109 0 -176.5 -73.5t-67.5 -181.5t67.5 -181t176.5 -73q107 0 175 72.5t68 181.5q0 110 -67.5 182.5t-175.5 72.5zM209 1399l199 58q50 -164 184 -164q132 0 184 164l199 -58q-41 -153 -140 -234t-243 -81t-243 81t-140 234z" />
    <glyph glyph-name="Gdotaccent" unicode="&#x120;" horiz-adv-x="1600" 
d="M831 1426q164 0 300.5 -56t230.5 -159l-201 -197q-128 147 -338 147q-193 0 -317.5 -128.5t-124.5 -332.5q0 -210 125.5 -337.5t311.5 -127.5q169 0 269.5 79t128.5 230h-356v233h644q4 -36 4 -79q0 -209 -88 -374.5t-244 -257t-352 -91.5q-116 0 -225 31.5t-200.5 94
t-160.5 148.5t-107.5 202.5t-38.5 248.5q0 156 55.5 291.5t152.5 230.5t234.5 149.5t296.5 54.5zM781 1849q74 0 124.5 -51.5t50.5 -125.5t-50.5 -124t-124.5 -50t-124 50t-50 124q0 75 50 126t124 51z" />
    <glyph glyph-name="gdotaccent" unicode="&#x121;" horiz-adv-x="1216" 
d="M523 995q192 0 300 -134v108h256v-889q0 -232 -141 -365.5t-382 -133.5q-118 0 -231 30.5t-193 86.5l93 213q150 -99 320 -99q125 0 200.5 67.5t75.5 189.5v68q-107 -131 -298 -131q-88 0 -169 36t-142.5 99t-98 157t-36.5 202q0 109 36.5 202.5t98 157t142.5 99.5
t169 36zM589 755q-109 0 -176.5 -73.5t-67.5 -181.5t67.5 -181t176.5 -73q107 0 175 72.5t68 181.5q0 110 -67.5 182.5t-175.5 72.5zM591 1454q70 0 118.5 -48.5t48.5 -119.5q0 -70 -48 -118t-119 -48t-118.5 48t-47.5 118q0 71 48 119.5t118 48.5z" />
    <glyph glyph-name="uni0122" unicode="&#x122;" horiz-adv-x="1600" 
d="M831 1426q164 0 300.5 -56t230.5 -159l-201 -197q-128 147 -338 147q-193 0 -317.5 -128.5t-124.5 -332.5q0 -210 125.5 -337.5t311.5 -127.5q169 0 269.5 79t128.5 230h-356v233h644q4 -36 4 -79q0 -209 -88 -374.5t-244 -257t-352 -91.5q-116 0 -225 31.5t-200.5 94
t-160.5 148.5t-107.5 202.5t-38.5 248.5q0 156 55.5 291.5t152.5 230.5t234.5 149.5t296.5 54.5zM685 -84h265l-92 -389h-216z" />
    <glyph glyph-name="uni0123" unicode="&#x123;" horiz-adv-x="1216" 
d="M523 995q192 0 300 -134v108h256v-889q0 -232 -141 -365.5t-382 -133.5q-118 0 -231 30.5t-193 86.5l93 213q150 -99 320 -99q125 0 200.5 67.5t75.5 189.5v68q-107 -131 -298 -131q-88 0 -169 36t-142.5 99t-98 157t-36.5 202q0 109 36.5 202.5t98 157t142.5 99.5
t169 36zM589 755q-109 0 -176.5 -73.5t-67.5 -181.5t67.5 -181t176.5 -73q107 0 175 72.5t68 181.5q0 110 -67.5 182.5t-175.5 72.5zM721 1108h-266l92 389h216z" />
    <glyph glyph-name="Hcircumflex" unicode="&#x124;" horiz-adv-x="1550" 
d="M438 1400v-564h674v564h279v-1400h-279v576h-674v-576h-279v1400h279zM1151 1508h-253l-123 153l-122 -153h-253l218 315h315z" />
    <glyph glyph-name="hcircumflex" unicode="&#x125;" horiz-adv-x="1182" 
d="M398 1441v-576q93 130 278 130q166 0 271.5 -105t105.5 -273v-617h-261v533q0 104 -49.5 160.5t-139.5 56.5q-89 0 -147 -57t-58 -162v-531h-261v1441h261zM965 1529h-253l-123 153l-122 -153h-253l218 315h315z" />
    <glyph glyph-name="Hbar" unicode="&#x126;" horiz-adv-x="1616" 
d="M1568 1210v-218h-144v-992h-279v576h-674v-576h-279v992h-144v218h144v190h279v-190h674v190h279v-190h144zM471 836h674v156h-674v-156z" />
    <glyph glyph-name="hbar" unicode="&#x127;" horiz-adv-x="1182" 
d="M739 1306v-218h-341v-223q93 130 278 130q166 0 271.5 -105t105.5 -273v-617h-261v533q0 104 -49.5 160.5t-139.5 56.5q-89 0 -147 -57t-58 -162v-531h-261v1088h-138v218h138v135h261v-135h341z" />
    <glyph glyph-name="Itilde" unicode="&#x128;" horiz-adv-x="597" 
d="M438 1400v-1400h-279v1400h279zM45 1531l-138 149q101 131 262 131q61 0 112.5 -17.5t88 -35t59.5 -17.5q52 0 124 67l139 -149q-103 -132 -263 -132q-60 0 -111 17.5t-88 35t-61 17.5q-52 0 -124 -66z" />
    <glyph glyph-name="itilde" unicode="&#x129;" horiz-adv-x="535" 
d="M398 969v-969h-261v969h261zM11 1121l-138 149q101 131 262 131q61 0 112.5 -17.5t88 -35t59.5 -17.5q52 0 124 67l139 -149q-103 -132 -263 -132q-60 0 -111 17.5t-88 35t-61 17.5q-52 0 -124 -66z" />
    <glyph glyph-name="Imacron" unicode="&#x12a;" horiz-adv-x="597" 
d="M438 1400v-1400h-279v1400h279zM-32 1561v209h661v-209h-661z" />
    <glyph glyph-name="imacron" unicode="&#x12b;" horiz-adv-x="535" 
d="M398 969v-969h-261v969h261zM-64 1151v209h661v-209h-661z" />
    <glyph glyph-name="Ibreve" unicode="&#x12c;" horiz-adv-x="597" 
d="M438 1400v-1400h-279v1400h279zM-84 1809l199 58q50 -164 184 -164q132 0 184 164l199 -58q-41 -153 -140 -234t-243 -81t-243 81t-140 234z" />
    <glyph glyph-name="ibreve" unicode="&#x12d;" horiz-adv-x="535" 
d="M398 969v-969h-261v969h261zM-116 1399l199 58q50 -164 184 -164q132 0 184 164l199 -58q-41 -153 -140 -234t-243 -81t-243 81t-140 234z" />
    <glyph glyph-name="Iogonek" unicode="&#x12e;" horiz-adv-x="597" 
d="M424 -177l128 -153q-97 -89 -240 -89q-108 0 -178 53t-70 143q0 123 142 223h-47v1400h279v-1400h-29q-119 -76 -119 -158q0 -26 16 -40t42 -14q36 0 76 35z" />
    <glyph glyph-name="iogonek" unicode="&#x12f;" horiz-adv-x="535" 
d="M398 969v-969h-26q-119 -76 -119 -158q0 -26 16 -40t42 -14q36 0 76 35l128 -153q-97 -89 -240 -89q-108 0 -178 53t-70 143q0 123 142 223h-32v969h261zM266 1454q70 0 118.5 -48.5t48.5 -119.5q0 -70 -48 -118t-119 -48q-70 0 -118 48t-48 118q0 71 48 119.5t118 48.5z
" />
    <glyph glyph-name="Idotaccent" unicode="&#x130;" horiz-adv-x="597" 
d="M438 1400v-1400h-279v1400h279zM276 1849q74 0 124.5 -51.5t50.5 -125.5t-50.5 -124t-124.5 -50t-124 50t-50 124q0 75 50 126t124 51z" />
    <glyph glyph-name="dotlessi" unicode="&#x131;" horiz-adv-x="535" 
d="M398 969v-969h-261v969h261z" />
    <glyph glyph-name="IJ" unicode="&#x132;" horiz-adv-x="1726" 
d="M438 1400v-1400h-279v1400h279zM1575 1400v-890q0 -256 -138 -395.5t-364 -139.5q-288 0 -447 194l162 203q106 -130 272 -130q114 0 175 73t61 221v864h279z" />
    <glyph glyph-name="ij" unicode="&#x133;" horiz-adv-x="1074" 
d="M937 969v-1061q0 -156 -82 -242.5t-219 -86.5q-87 0 -147 26l39 229q33 -12 70 -12q78 0 78 101v1046h261zM804 1454q70 0 118.5 -48.5t48.5 -119.5q0 -70 -48 -118t-119 -48q-70 0 -118 48t-48 118q0 71 48 119.5t118 48.5zM398 969v-969h-261v969h261zM266 1454
q70 0 118.5 -48.5t48.5 -119.5q0 -70 -48 -118t-119 -48q-70 0 -118 48t-48 118q0 71 48 119.5t118 48.5z" />
    <glyph glyph-name="Jcircumflex" unicode="&#x134;" horiz-adv-x="1129" 
d="M978 1400v-890q0 -256 -138 -395.5t-364 -139.5q-288 0 -447 194l162 203q106 -130 272 -130q114 0 175 73t61 221v864h279zM1215 1508h-253l-123 153l-122 -153h-253l218 315h315z" />
    <glyph glyph-name="jcircumflex" unicode="&#x135;" horiz-adv-x="539" 
d="M402 969v-1061q0 -156 -82 -242.5t-219 -86.5q-87 0 -147 26l39 229q33 -12 70 -12q78 0 78 101v1046h261zM646 1098h-253l-123 153l-122 -153h-253l218 315h315z" />
    <glyph glyph-name="uni0136" unicode="&#x136;" horiz-adv-x="1424" 
d="M1065 0l-498 576h-129v-576h-279v1400h279v-567h132l463 567h350l-587 -683l631 -717h-362zM597 -84h265l-92 -389h-216z" />
    <glyph glyph-name="uni0137" unicode="&#x137;" horiz-adv-x="1095" 
d="M398 1440v-816h92l273 345h320l-382 -456l385 -513h-321l-279 392h-88v-392h-261v1440h261zM451 -84h265l-92 -389h-216z" />
    <glyph glyph-name="kgreenlandic" unicode="&#x138;" horiz-adv-x="1101" 
d="M398 969v-345h94l278 345h319l-384 -456l387 -513h-320l-285 392h-89v-392h-261v969h261z" />
    <glyph glyph-name="Lacute" unicode="&#x139;" horiz-adv-x="1210" 
d="M1178 261v-261h-1019v1400h279v-1139h740zM365 1518h-249l201 315h312z" />
    <glyph glyph-name="lacute" unicode="&#x13a;" horiz-adv-x="535" 
d="M398 1440v-1440h-261v1440h261zM319 1538h-249l201 315h312z" />
    <glyph glyph-name="uni013B" unicode="&#x13b;" horiz-adv-x="1210" 
d="M1178 261v-261h-1019v1400h279v-1139h740zM551 -84h265l-92 -389h-216z" />
    <glyph glyph-name="uni013C" unicode="&#x13c;" horiz-adv-x="535" 
d="M398 1440v-1440h-261v1440h261zM149 -84h265l-92 -389h-216z" />
    <glyph glyph-name="Lcaron" unicode="&#x13d;" horiz-adv-x="1210" 
d="M1178 261v-261h-1019v1400h279v-1139h740zM813 972h-206v428h257z" />
    <glyph glyph-name="lcaron" unicode="&#x13e;" horiz-adv-x="639" 
d="M398 1440v-1440h-261v1440h261zM691 1012h-206v428h257z" />
    <glyph glyph-name="Ldot" unicode="&#x13f;" horiz-adv-x="1210" 
d="M1178 261v-261h-1019v1400h279v-1139h740zM864 890q74 0 124.5 -51.5t50.5 -125.5t-50.5 -124t-124.5 -50t-124 50t-50 124q0 75 50 126t124 51z" />
    <glyph glyph-name="ldot" unicode="&#x140;" horiz-adv-x="737" 
d="M398 1440v-1440h-261v1440h261zM652 892q68 0 114.5 -47t46.5 -115t-46.5 -114.5t-114.5 -46.5t-114 46.5t-46 114.5t46 115t114 47z" />
    <glyph glyph-name="Lslash" unicode="&#x141;" horiz-adv-x="1316" 
d="M1284 261v-261h-1019v425l-170 -94v281l170 94v694h279v-538l449 250v-281l-449 -250v-320h740z" />
    <glyph glyph-name="lslash" unicode="&#x142;" horiz-adv-x="717" 
d="M489 1440v-486l187 118v-261l-187 -118v-693h-261v529l-187 -118v261l187 118v650h261z" />
    <glyph glyph-name="Nacute" unicode="&#x143;" horiz-adv-x="1570" 
d="M1411 1400v-1400h-262l-710 935l-1 -935h-279v1400h261l711 -935v935h280zM856 1518h-249l201 315h312z" />
    <glyph glyph-name="nacute" unicode="&#x144;" horiz-adv-x="1182" 
d="M676 995q166 0 271.5 -105t105.5 -273v-617h-261v533q0 104 -49.5 160.5t-139.5 56.5q-89 0 -147 -57t-58 -162v-531h-261v969h254v-114q94 140 285 140zM681 1108h-249l201 315h312z" />
    <glyph glyph-name="uni0145" unicode="&#x145;" horiz-adv-x="1570" 
d="M1411 1400v-1400h-262l-710 935l-1 -935h-279v1400h261l711 -935v935h280zM670 -84h265l-92 -389h-216z" />
    <glyph glyph-name="uni0146" unicode="&#x146;" horiz-adv-x="1182" 
d="M676 995q166 0 271.5 -105t105.5 -273v-617h-261v533q0 104 -49.5 160.5t-139.5 56.5q-89 0 -147 -57t-58 -162v-531h-261v969h254v-114q94 140 285 140zM476 -84h265l-92 -389h-216z" />
    <glyph glyph-name="Ncaron" unicode="&#x147;" horiz-adv-x="1570" 
d="M1411 1400v-1400h-262l-710 935l-1 -935h-279v1400h261l711 -935v935h280zM415 1823h253l122 -153l123 153h253l-218 -315h-315z" />
    <glyph glyph-name="ncaron" unicode="&#x148;" horiz-adv-x="1182" 
d="M676 995q166 0 271.5 -105t105.5 -273v-617h-261v533q0 104 -49.5 160.5t-139.5 56.5q-89 0 -147 -57t-58 -162v-531h-261v969h254v-114q94 140 285 140zM231 1413h253l122 -153l123 153h253l-218 -315h-315z" />
    <glyph glyph-name="napostrophe" unicode="&#x149;" horiz-adv-x="1489" 
d="M151 1440h293l-140 -596h-220zM983 995q166 0 271.5 -105t105.5 -273v-617h-261v533q0 104 -49.5 160.5t-139.5 56.5q-89 0 -147 -57t-58 -162v-531h-261v969h254v-114q94 140 285 140z" />
    <glyph glyph-name="Eng" unicode="&#x14a;" horiz-adv-x="1570" 
d="M1411 1400v-1419q0 -186 -98 -294t-279 -108q-173 0 -298 72l101 236q83 -45 158 -45q68 0 102.5 40.5t34.5 115.5v24l-693 913l-1 -935h-279v1400h261l711 -935v935h280z" />
    <glyph glyph-name="eng" unicode="&#x14b;" horiz-adv-x="1182" 
d="M676 995q166 0 271.5 -105t105.5 -273v-646q0 -156 -82 -242.5t-219 -86.5q-84 0 -140 24l32 231q32 -12 70 -12q78 0 78 101v547q0 104 -49.5 160.5t-139.5 56.5q-89 0 -147 -57t-58 -162v-531h-261v969h254v-114q94 140 285 140z" />
    <glyph glyph-name="Omacron" unicode="&#x14c;" horiz-adv-x="1655" 
d="M827 1426q212 0 380.5 -94t262 -259.5t93.5 -372.5t-93.5 -372.5t-262 -259.5t-380.5 -94q-159 0 -296 55t-233.5 151t-151 230.5t-54.5 289.5t54.5 289.5t151 230.5t233.5 151t296 55zM827 1158q-194 0 -319 -127.5t-125 -330.5t125 -330.5t319 -127.5
q195 0 319.5 127.5t124.5 330.5t-124.5 330.5t-319.5 127.5zM496 1561v209h661v-209h-661z" />
    <glyph glyph-name="omacron" unicode="&#x14d;" horiz-adv-x="1201" 
d="M600 995q226 0 375.5 -145.5t149.5 -364.5t-149.5 -364.5t-375.5 -145.5q-225 0 -374 145.5t-149 364.5t149 364.5t374 145.5zM600 752q-111 0 -184 -75t-73 -192t73 -192t184 -75t184.5 75t73.5 192t-73.5 192t-184.5 75zM269 1151v209h661v-209h-661z" />
    <glyph glyph-name="Obreve" unicode="&#x14e;" horiz-adv-x="1655" 
d="M827 1426q212 0 380.5 -94t262 -259.5t93.5 -372.5t-93.5 -372.5t-262 -259.5t-380.5 -94q-159 0 -296 55t-233.5 151t-151 230.5t-54.5 289.5t54.5 289.5t151 230.5t233.5 151t296 55zM827 1158q-194 0 -319 -127.5t-125 -330.5t125 -330.5t319 -127.5
q195 0 319.5 127.5t124.5 330.5t-124.5 330.5t-319.5 127.5zM444 1809l199 58q50 -164 184 -164q132 0 184 164l199 -58q-41 -153 -140 -234t-243 -81t-243 81t-140 234z" />
    <glyph glyph-name="obreve" unicode="&#x14f;" horiz-adv-x="1201" 
d="M600 995q226 0 375.5 -145.5t149.5 -364.5t-149.5 -364.5t-375.5 -145.5q-225 0 -374 145.5t-149 364.5t149 364.5t374 145.5zM600 752q-111 0 -184 -75t-73 -192t73 -192t184 -75t184.5 75t73.5 192t-73.5 192t-184.5 75zM217 1399l199 58q50 -164 184 -164
q132 0 184 164l199 -58q-41 -153 -140 -234t-243 -81t-243 81t-140 234z" />
    <glyph glyph-name="Ohungarumlaut" unicode="&#x150;" horiz-adv-x="1655" 
d="M827 1426q212 0 380.5 -94t262 -259.5t93.5 -372.5t-93.5 -372.5t-262 -259.5t-380.5 -94q-159 0 -296 55t-233.5 151t-151 230.5t-54.5 289.5t54.5 289.5t151 230.5t233.5 151t296 55zM827 1158q-194 0 -319 -127.5t-125 -330.5t125 -330.5t319 -127.5
q195 0 319.5 127.5t124.5 330.5t-124.5 330.5t-319.5 127.5zM1126 1518h-254l217 315h284zM749 1518h-252l193 315h277z" />
    <glyph glyph-name="ohungarumlaut" unicode="&#x151;" horiz-adv-x="1201" 
d="M600 995q226 0 375.5 -145.5t149.5 -364.5t-149.5 -364.5t-375.5 -145.5q-225 0 -374 145.5t-149 364.5t149 364.5t374 145.5zM600 752q-111 0 -184 -75t-73 -192t73 -192t184 -75t184.5 75t73.5 192t-73.5 192t-184.5 75zM908 1108h-254l217 315h284zM531 1108h-252
l193 315h277z" />
    <glyph glyph-name="OE" unicode="&#x152;" horiz-adv-x="2219" 
d="M2092 256v-256h-1273q-329 0 -528 192t-199 508t199 508t528 192h1265v-256h-759v-310h724v-256h-724v-322h767zM383 700q0 -200 112 -319.5t327 -119.5h224v878h-224q-214 0 -326.5 -120.5t-112.5 -318.5z" />
    <glyph glyph-name="oe" unicode="&#x153;" horiz-adv-x="1895" 
d="M1348 995q209 0 339.5 -141t131.5 -368q0 -51 -5 -88h-687q20 -101 86 -151t162 -50q136 0 246 93l153 -168q-162 -147 -417 -147q-119 0 -215.5 44.5t-160.5 127.5q-69 -81 -167.5 -126.5t-213.5 -45.5q-225 0 -374 145.5t-149 364.5t149 364.5t374 145.5
q116 0 214 -45.5t167 -127.5q63 83 157.5 128t209.5 45zM600 752q-111 0 -184 -75t-73 -192t73 -192t184 -75t184.5 75t73.5 192t-73.5 192t-184.5 75zM1346 770q-90 0 -145 -51t-73 -143h429q-19 93 -73 143.5t-138 50.5z" />
    <glyph glyph-name="Racute" unicode="&#x154;" horiz-adv-x="1360" 
d="M159 1400h592q248 0 380.5 -111.5t132.5 -314.5q0 -173 -114 -283.5t-315 -129.5l431 -561h-338l-408 557h-82v-557h-279v1400zM746 1143h-308v-343h308q231 0 231 174q0 169 -231 169zM726 1518h-249l201 315h312z" />
    <glyph glyph-name="racute" unicode="&#x155;" horiz-adv-x="840" 
d="M663 995q78 0 136 -21l-39 -259q-70 31 -158 31q-93 0 -148.5 -56.5t-55.5 -161.5v-528h-261v969h253v-106q88 132 273 132zM544 1108h-249l201 315h312z" />
    <glyph glyph-name="uni0156" unicode="&#x156;" horiz-adv-x="1360" 
d="M159 1400h592q248 0 380.5 -111.5t132.5 -314.5q0 -173 -114 -283.5t-315 -129.5l431 -561h-338l-408 557h-82v-557h-279v1400zM746 1143h-308v-343h308q231 0 231 174q0 169 -231 169zM552 -84h265l-92 -389h-216z" />
    <glyph glyph-name="uni0157" unicode="&#x157;" horiz-adv-x="840" 
d="M663 995q78 0 136 -21l-39 -259q-70 31 -158 31q-93 0 -148.5 -56.5t-55.5 -161.5v-528h-261v969h253v-106q88 132 273 132zM149 -84h265l-92 -389h-216z" />
    <glyph glyph-name="Rcaron" unicode="&#x158;" horiz-adv-x="1360" 
d="M159 1400h592q248 0 380.5 -111.5t132.5 -314.5q0 -173 -114 -283.5t-315 -129.5l431 -561h-338l-408 557h-82v-557h-279v1400zM746 1143h-308v-343h308q231 0 231 174q0 169 -231 169zM285 1823h253l122 -153l123 153h253l-218 -315h-315z" />
    <glyph glyph-name="rcaron" unicode="&#x159;" horiz-adv-x="840" 
d="M663 995q78 0 136 -21l-39 -259q-70 31 -158 31q-93 0 -148.5 -56.5t-55.5 -161.5v-528h-261v969h253v-106q88 132 273 132zM94 1413h253l122 -153l123 153h253l-218 -315h-315z" />
    <glyph glyph-name="Sacute" unicode="&#x15a;" horiz-adv-x="1353" 
d="M1241 1275l-132 -228q-193 119 -397 119q-120 0 -194 -45t-74 -123q0 -37 20 -64t63 -45.5t88.5 -29.5t117.5 -23l79 -13q446 -73 446 -392q0 -112 -47 -201t-127 -143.5t-182 -83t-217 -28.5q-164 0 -322.5 47.5t-267.5 135.5l145 225q82 -65 200 -108t246 -43
q120 0 197.5 45t77.5 124q0 69 -70 104t-227 60l-89 14q-427 67 -427 401q0 106 45 192t122.5 140t177.5 83t213 29q148 0 276 -35.5t259 -113.5zM789 1518h-249l201 315h312z" />
    <glyph glyph-name="sacute" unicode="&#x15b;" horiz-adv-x="1014" 
d="M920 902l-88 -203q-65 32 -149 55t-160 24q-73 0 -111 -23.5t-38 -64.5q0 -38 39 -54.5t119 -28.5l86 -13q327 -50 327 -290q0 -151 -118 -240t-327 -89q-270 0 -431 114l103 198q143 -95 330 -95q179 0 179 91q0 35 -38 56t-123 33l-79 11q-335 46 -335 294
q0 149 108.5 233t300.5 84q217 0 405 -92zM606 1108h-249l201 315h312z" />
    <glyph glyph-name="Scircumflex" unicode="&#x15c;" horiz-adv-x="1353" 
d="M1241 1275l-132 -228q-193 119 -397 119q-120 0 -194 -45t-74 -123q0 -37 20 -64t63 -45.5t88.5 -29.5t117.5 -23l79 -13q446 -73 446 -392q0 -112 -47 -201t-127 -143.5t-182 -83t-217 -28.5q-164 0 -322.5 47.5t-267.5 135.5l145 225q82 -65 200 -108t246 -43
q120 0 197.5 45t77.5 124q0 69 -70 104t-227 60l-89 14q-427 67 -427 401q0 106 45 192t122.5 140t177.5 83t213 29q148 0 276 -35.5t259 -113.5zM1099 1508h-253l-123 153l-122 -153h-253l218 315h315z" />
    <glyph glyph-name="scircumflex" unicode="&#x15d;" horiz-adv-x="1014" 
d="M920 902l-88 -203q-65 32 -149 55t-160 24q-73 0 -111 -23.5t-38 -64.5q0 -38 39 -54.5t119 -28.5l86 -13q327 -50 327 -290q0 -151 -118 -240t-327 -89q-270 0 -431 114l103 198q143 -95 330 -95q179 0 179 91q0 35 -38 56t-123 33l-79 11q-335 46 -335 294
q0 149 108.5 233t300.5 84q217 0 405 -92zM907 1098h-253l-123 153l-122 -153h-253l218 315h315z" />
    <glyph glyph-name="Scedilla" unicode="&#x15e;" horiz-adv-x="1353" 
d="M1241 1275l-132 -228q-193 119 -397 119q-120 0 -194 -45t-74 -123q0 -37 20 -64t63 -45.5t88.5 -29.5t117.5 -23l79 -13q446 -73 446 -392q0 -95 -33.5 -173t-93.5 -132t-137 -89t-169 -50l-96 -308h-267l103 303q-290 30 -470 176l145 225q82 -65 200 -108t246 -43
q120 0 197.5 45t77.5 124q0 69 -70 104t-227 60l-89 14q-427 67 -427 401q0 106 45 192t122.5 140t177.5 83t213 29q148 0 276 -35.5t259 -113.5z" />
    <glyph glyph-name="scedilla" unicode="&#x15f;" horiz-adv-x="1014" 
d="M920 902l-88 -203q-65 32 -149 55t-160 24q-73 0 -111 -23.5t-38 -64.5q0 -38 39 -54.5t119 -28.5l86 -13q327 -50 327 -290q0 -122 -78 -204.5t-220 -110.5l-97 -310h-252l101 301q-205 20 -330 109l103 198q143 -95 330 -95q179 0 179 91q0 35 -38 56t-123 33l-79 11
q-335 46 -335 294q0 149 108.5 233t300.5 84q217 0 405 -92z" />
    <glyph glyph-name="Scaron" unicode="&#x160;" horiz-adv-x="1353" 
d="M1241 1275l-132 -228q-193 119 -397 119q-120 0 -194 -45t-74 -123q0 -37 20 -64t63 -45.5t88.5 -29.5t117.5 -23l79 -13q446 -73 446 -392q0 -112 -47 -201t-127 -143.5t-182 -83t-217 -28.5q-164 0 -322.5 47.5t-267.5 135.5l145 225q82 -65 200 -108t246 -43
q120 0 197.5 45t77.5 124q0 69 -70 104t-227 60l-89 14q-427 67 -427 401q0 106 45 192t122.5 140t177.5 83t213 29q148 0 276 -35.5t259 -113.5zM348 1823h253l122 -153l123 153h253l-218 -315h-315z" />
    <glyph glyph-name="scaron" unicode="&#x161;" horiz-adv-x="1014" 
d="M920 902l-88 -203q-65 32 -149 55t-160 24q-73 0 -111 -23.5t-38 -64.5q0 -38 39 -54.5t119 -28.5l86 -13q327 -50 327 -290q0 -151 -118 -240t-327 -89q-270 0 -431 114l103 198q143 -95 330 -95q179 0 179 91q0 35 -38 56t-123 33l-79 11q-335 46 -335 294
q0 149 108.5 233t300.5 84q217 0 405 -92zM156 1413h253l122 -153l123 153h253l-218 -315h-315z" />
    <glyph glyph-name="uni0162" unicode="&#x162;" horiz-adv-x="1211" 
d="M1179 1400v-261h-434v-1139h-9l-101 -321h-267l109 321h-11v1139h-434v261h1147z" />
    <glyph glyph-name="uni0163" unicode="&#x163;" horiz-adv-x="933" 
d="M840 969v-232h-351v-354q0 -86 39.5 -125.5t105.5 -39.5q78 0 182 63l96 -204q-113 -78 -238 -96l-95 -302h-252l108 320q-207 74 -207 363v375h-187v232h187v288h261v-288h351z" />
    <glyph glyph-name="Tcaron" unicode="&#x164;" horiz-adv-x="1211" 
d="M1179 1400v-261h-434v-1139h-279v1139h-434v261h1147zM236 1823h253l122 -153l123 153h253l-218 -315h-315z" />
    <glyph glyph-name="tcaron" unicode="&#x165;" horiz-adv-x="933" 
d="M840 969v-232h-351v-354q0 -86 39.5 -125.5t105.5 -39.5q78 0 182 63l96 -204q-149 -102 -321 -102q-179 0 -271 99t-92 288v375h-187v232h187v288h261v-288h351zM772 1047h-206v428h257z" />
    <glyph glyph-name="Tbar" unicode="&#x166;" horiz-adv-x="1211" 
d="M1004 831v-250h-259v-581h-279v581h-259v250h259v308h-434v261h1147v-261h-434v-308h259z" />
    <glyph glyph-name="tbar" unicode="&#x167;" horiz-adv-x="933" 
d="M840 969v-232h-351v-126h251v-203h-251v-25q0 -86 39.5 -125.5t105.5 -39.5q78 0 182 63l96 -204q-149 -102 -321 -102q-179 0 -271 99t-92 288v46h-175v203h175v126h-187v232h187v288h261v-288h351z" />
    <glyph glyph-name="Utilde" unicode="&#x168;" horiz-adv-x="1492" 
d="M1349 1400v-841q0 -189 -77 -322t-211.5 -197.5t-314.5 -64.5t-314.5 64.5t-211.5 197.5t-77 322v841h280v-827q0 -167 86 -249t237 -82t237 82t86 249v827h280zM492 1531l-138 149q101 131 262 131q61 0 112.5 -17.5t88 -35t59.5 -17.5q52 0 124 67l139 -149
q-103 -132 -263 -132q-60 0 -111 17.5t-88 35t-61 17.5q-52 0 -124 -66z" />
    <glyph glyph-name="utilde" unicode="&#x169;" horiz-adv-x="1175" 
d="M1046 969v-556q0 -111 -37 -197t-101.5 -137.5t-145.5 -77.5t-174 -26q-74 0 -141 16t-125.5 50.5t-101 85t-67 124t-24.5 162.5v556h261v-533q0 -111 54 -164.5t144 -53.5t144 53.5t54 164.5v533h260zM332 1121l-138 149q101 131 262 131q61 0 112.5 -17.5t88 -35
t59.5 -17.5q52 0 124 67l139 -149q-103 -132 -263 -132q-60 0 -111 17.5t-88 35t-61 17.5q-52 0 -124 -66z" />
    <glyph glyph-name="Umacron" unicode="&#x16a;" horiz-adv-x="1492" 
d="M1349 1400v-841q0 -189 -77 -322t-211.5 -197.5t-314.5 -64.5t-314.5 64.5t-211.5 197.5t-77 322v841h280v-827q0 -167 86 -249t237 -82t237 82t86 249v827h280zM415 1561v209h661v-209h-661z" />
    <glyph glyph-name="umacron" unicode="&#x16b;" horiz-adv-x="1175" 
d="M1046 969v-556q0 -111 -37 -197t-101.5 -137.5t-145.5 -77.5t-174 -26q-74 0 -141 16t-125.5 50.5t-101 85t-67 124t-24.5 162.5v556h261v-533q0 -111 54 -164.5t144 -53.5t144 53.5t54 164.5v533h260zM257 1151v209h661v-209h-661z" />
    <glyph glyph-name="Ubreve" unicode="&#x16c;" horiz-adv-x="1492" 
d="M1349 1400v-841q0 -189 -77 -322t-211.5 -197.5t-314.5 -64.5t-314.5 64.5t-211.5 197.5t-77 322v841h280v-827q0 -167 86 -249t237 -82t237 82t86 249v827h280zM363 1809l199 58q50 -164 184 -164q132 0 184 164l199 -58q-41 -153 -140 -234t-243 -81t-243 81t-140 234z
" />
    <glyph glyph-name="ubreve" unicode="&#x16d;" horiz-adv-x="1175" 
d="M1046 969v-556q0 -111 -37 -197t-101.5 -137.5t-145.5 -77.5t-174 -26q-74 0 -141 16t-125.5 50.5t-101 85t-67 124t-24.5 162.5v556h261v-533q0 -111 54 -164.5t144 -53.5t144 53.5t54 164.5v533h260zM205 1399l199 58q50 -164 184 -164q132 0 184 164l199 -58
q-41 -153 -140 -234t-243 -81t-243 81t-140 234z" />
    <glyph glyph-name="Uring" unicode="&#x16e;" horiz-adv-x="1492" 
d="M1349 1400v-841q0 -189 -77 -322t-211.5 -197.5t-314.5 -64.5t-314.5 64.5t-211.5 197.5t-77 322v841h280v-827q0 -167 86 -249t237 -82t237 82t86 249v827h280zM745 1486q-108 0 -184.5 75.5t-76.5 182.5q0 106 77 181.5t184 75.5q109 0 186 -75.5t77 -181.5
q0 -107 -77 -182.5t-186 -75.5zM745 1635q44 0 75.5 31.5t31.5 77.5q0 45 -31.5 76.5t-75.5 31.5q-42 0 -73.5 -31.5t-31.5 -76.5q0 -46 31 -77.5t74 -31.5z" />
    <glyph glyph-name="uring" unicode="&#x16f;" horiz-adv-x="1175" 
d="M1046 969v-556q0 -111 -37 -197t-101.5 -137.5t-145.5 -77.5t-174 -26q-74 0 -141 16t-125.5 50.5t-101 85t-67 124t-24.5 162.5v556h261v-533q0 -111 54 -164.5t144 -53.5t144 53.5t54 164.5v533h260zM587 1076q-108 0 -184.5 75.5t-76.5 182.5q0 106 77 181.5t184 75.5
q109 0 186 -75.5t77 -181.5q0 -107 -77 -182.5t-186 -75.5zM587 1225q44 0 75.5 31.5t31.5 77.5q0 45 -31.5 76.5t-75.5 31.5q-42 0 -73.5 -31.5t-31.5 -76.5q0 -46 31 -77.5t74 -31.5z" />
    <glyph glyph-name="Uhungarumlaut" unicode="&#x170;" horiz-adv-x="1492" 
d="M1349 1400v-841q0 -189 -77 -322t-211.5 -197.5t-314.5 -64.5t-314.5 64.5t-211.5 197.5t-77 322v841h280v-827q0 -167 86 -249t237 -82t237 82t86 249v827h280zM1045 1518h-254l217 315h284zM668 1518h-252l193 315h277z" />
    <glyph glyph-name="uhungarumlaut" unicode="&#x171;" horiz-adv-x="1175" 
d="M1046 969v-556q0 -111 -37 -197t-101.5 -137.5t-145.5 -77.5t-174 -26q-74 0 -141 16t-125.5 50.5t-101 85t-67 124t-24.5 162.5v556h261v-533q0 -111 54 -164.5t144 -53.5t144 53.5t54 164.5v533h260zM896 1108h-254l217 315h284zM519 1108h-252l193 315h277z" />
    <glyph glyph-name="Uogonek" unicode="&#x172;" horiz-adv-x="1492" 
d="M1094 -167l136 -148q-112 -104 -275 -104q-130 0 -212.5 61t-82.5 158q0 103 86 175q-180 0 -314.5 64.5t-211.5 197.5t-77 322v841h280v-827q0 -167 86 -249t237 -82t237 82t86 249v827h280v-841q0 -377 -295 -524q-154 -77 -154 -178q0 -31 22.5 -50t60.5 -19
q58 0 111 45z" />
    <glyph glyph-name="uogonek" unicode="&#x173;" horiz-adv-x="1175" 
d="M886 -167l136 -148q-112 -104 -275 -104q-130 0 -212.5 61t-82.5 158q0 103 88 177q-86 6 -158.5 35t-130 81t-90 134t-32.5 186v556h261v-533q0 -111 54 -164.5t144 -53.5t144 53.5t54 164.5v533h260v-556q0 -271 -216 -387q-138 -73 -138 -169q0 -31 22.5 -50t60.5 -19
q58 0 111 45z" />
    <glyph glyph-name="Wcircumflex" unicode="&#x174;" horiz-adv-x="2180" 
d="M2146 1400l-418 -1400h-338l-300 1000l-300 -1000h-338l-418 1400h290l301 -1074l313 1074h309l313 -1074l301 1074h285zM1466 1508h-253l-123 153l-122 -153h-253l218 315h315z" />
    <glyph glyph-name="wcircumflex" unicode="&#x175;" horiz-adv-x="1732" 
d="M1004 969l220 -680l208 680h273l-328 -969h-298l-215 655l-213 -655h-296l-328 969h278l207 -677l217 677h275zM1241 1098h-253l-123 153l-122 -153h-253l218 315h315z" />
    <glyph glyph-name="Ycircumflex" unicode="&#x176;" horiz-adv-x="1362" 
d="M1356 1400l-532 -848v-552h-279v553l-539 847h328l352 -594l352 594h318zM1061 1508h-253l-123 153l-122 -153h-253l218 315h315z" />
    <glyph glyph-name="ycircumflex" unicode="&#x177;" horiz-adv-x="1128" 
d="M1119 969l-741 -1373h-286l339 610l-418 763h296l266 -498l258 498h286zM947 1098h-253l-123 153l-122 -153h-253l218 315h315z" />
    <glyph glyph-name="Ydieresis" unicode="&#x178;" horiz-adv-x="1362" 
d="M1356 1400l-532 -848v-552h-279v553l-539 847h328l352 -594l352 594h318zM469 1834q71 0 119.5 -49t48.5 -119t-48.5 -118t-119.5 -48t-118.5 48t-47.5 118q0 71 48 119.5t118 48.5zM900 1834q70 0 119 -49t49 -119t-48.5 -118t-119.5 -48q-70 0 -118 48t-48 118
q0 71 48 119.5t118 48.5z" />
    <glyph glyph-name="Zacute" unicode="&#x179;" horiz-adv-x="1288" 
d="M1193 1400v-218l-727 -925h727v-257h-1098v218l727 925h-725v257h1096zM711 1518h-249l201 315h312z" />
    <glyph glyph-name="zacute" unicode="&#x17a;" horiz-adv-x="1040" 
d="M933 969v-191l-478 -545h489v-233h-848v188l489 549h-472v232h820zM598 1108h-249l201 315h312z" />
    <glyph glyph-name="Zdotaccent" unicode="&#x17b;" horiz-adv-x="1288" 
d="M1193 1400v-218l-727 -925h727v-257h-1098v218l727 925h-725v257h1096zM622 1849q74 0 124.5 -51.5t50.5 -125.5t-50.5 -124t-124.5 -50t-124 50t-50 124q0 75 50 126t124 51z" />
    <glyph glyph-name="zdotaccent" unicode="&#x17c;" horiz-adv-x="1040" 
d="M933 969v-191l-478 -545h489v-233h-848v188l489 549h-472v232h820zM522 1454q70 0 118.5 -48.5t48.5 -119.5q0 -70 -48 -118t-119 -48q-70 0 -118 48t-48 118q0 71 48 119.5t118 48.5z" />
    <glyph glyph-name="Zcaron" unicode="&#x17d;" horiz-adv-x="1288" 
d="M1193 1400v-218l-727 -925h727v-257h-1098v218l727 925h-725v257h1096zM270 1823h253l122 -153l123 153h253l-218 -315h-315z" />
    <glyph glyph-name="zcaron" unicode="&#x17e;" horiz-adv-x="1040" 
d="M933 969v-191l-478 -545h489v-233h-848v188l489 549h-472v232h820zM148 1413h253l122 -153l123 153h253l-218 -315h-315z" />
    <glyph glyph-name="longs" unicode="&#x17f;" horiz-adv-x="656" 
d="M476 1465q168 0 299 -87l-105 -203q-85 47 -166 47q-114 0 -114 -136v-1086h-260v1089q0 174 90 275t256 101z" />
    <glyph glyph-name="uni018F" unicode="&#x18f;" horiz-adv-x="1578" 
d="M763 1425q205 0 370.5 -93.5t259 -259.5t93.5 -372t-91 -372t-251.5 -259.5t-359.5 -93.5q-145 0 -272.5 51t-220 142t-146 224t-53.5 291q0 56 5 128h1090q-32 156 -146 253t-269 97q-224 0 -383 -184l-196 193q231 255 570 255zM785 236q146 0 256.5 93t144.5 248h-795
q19 -152 127 -246.5t267 -94.5z" />
    <glyph glyph-name="florin" unicode="&#x192;" horiz-adv-x="1400" 
d="M1088 835v-220h-269l-27 -278q-17 -178 -98 -270t-240 -92q-154 0 -276 76l101 197q76 -38 149 -38q55 0 79 34t31 107l26 264h-228v220h250l23 231q18 177 98.5 268t238.5 91q154 0 276 -76l-101 -197q-76 38 -149 38q-55 0 -79 -34t-31 -107l-21 -214h247z" />
    <glyph glyph-name="uni01B5" unicode="&#x1b5;" horiz-adv-x="1288" 
d="M1075 822v-246h-359l-250 -319h727v-257h-1098v218l296 366h-178v246h363l246 313h-725v257h1096v-218l-289 -360h171z" />
    <glyph glyph-name="uni01B6" unicode="&#x1b6;" horiz-adv-x="1040" 
d="M875 575v-176h-275l-145 -166h489v-233h-848v188l205 219h-135v176h283l136 154h-472v232h821v-191l-185 -203h126z" />
    <glyph glyph-name="uni01CD" unicode="&#x1cd;" horiz-adv-x="1472" 
d="M906 1400l545 -1400h-298l-122 326h-597l-122 -326h-291l545 1400h340zM733 1124l-203 -541h405zM361 1823h253l122 -153l123 153h253l-218 -315h-315z" />
    <glyph glyph-name="uni01CE" unicode="&#x1ce;" horiz-adv-x="1228" 
d="M1091 969v-969h-255v107q-107 -132 -290 -132q-200 0 -334.5 146t-134.5 364t134.5 364t334.5 146q182 0 290 -133v107h255zM594 752q-112 0 -181 -76.5t-69 -190.5t69 -190.5t181 -76.5q111 0 180.5 75.5t69.5 191.5t-69.5 191.5t-180.5 75.5zM242 1413h253l122 -153
l123 153h253l-218 -315h-315z" />
    <glyph glyph-name="uni01CF" unicode="&#x1cf;" horiz-adv-x="597" 
d="M438 1400v-1400h-279v1400h279zM-76 1823h253l122 -153l123 153h253l-218 -315h-315z" />
    <glyph glyph-name="uni01D0" unicode="&#x1d0;" horiz-adv-x="535" 
d="M398 969v-969h-261v969h261zM-108 1413h253l122 -153l123 153h253l-218 -315h-315z" />
    <glyph glyph-name="uni01D1" unicode="&#x1d1;" horiz-adv-x="1655" 
d="M827 1426q212 0 380.5 -94t262 -259.5t93.5 -372.5t-93.5 -372.5t-262 -259.5t-380.5 -94q-159 0 -296 55t-233.5 151t-151 230.5t-54.5 289.5t54.5 289.5t151 230.5t233.5 151t296 55zM827 1158q-194 0 -319 -127.5t-125 -330.5t125 -330.5t319 -127.5
q195 0 319.5 127.5t124.5 330.5t-124.5 330.5t-319.5 127.5zM452 1823h253l122 -153l123 153h253l-218 -315h-315z" />
    <glyph glyph-name="uni01D2" unicode="&#x1d2;" horiz-adv-x="1201" 
d="M600 995q226 0 375.5 -145.5t149.5 -364.5t-149.5 -364.5t-375.5 -145.5q-225 0 -374 145.5t-149 364.5t149 364.5t374 145.5zM600 752q-111 0 -184 -75t-73 -192t73 -192t184 -75t184.5 75t73.5 192t-73.5 192t-184.5 75zM225 1413h253l122 -153l123 153h253l-218 -315
h-315z" />
    <glyph glyph-name="uni01D3" unicode="&#x1d3;" horiz-adv-x="1492" 
d="M1349 1400v-841q0 -189 -77 -322t-211.5 -197.5t-314.5 -64.5t-314.5 64.5t-211.5 197.5t-77 322v841h280v-827q0 -167 86 -249t237 -82t237 82t86 249v827h280zM371 1823h253l122 -153l123 153h253l-218 -315h-315z" />
    <glyph glyph-name="uni01D4" unicode="&#x1d4;" horiz-adv-x="1175" 
d="M1046 969v-556q0 -111 -37 -197t-101.5 -137.5t-145.5 -77.5t-174 -26q-74 0 -141 16t-125.5 50.5t-101 85t-67 124t-24.5 162.5v556h261v-533q0 -111 54 -164.5t144 -53.5t144 53.5t54 164.5v533h260zM213 1413h253l122 -153l123 153h253l-218 -315h-315z" />
    <glyph glyph-name="uni01D5" unicode="&#x1d5;" horiz-adv-x="1492" 
d="M1349 1400v-841q0 -189 -77 -322t-211.5 -197.5t-314.5 -64.5t-314.5 64.5t-211.5 197.5t-77 322v841h280v-827q0 -167 86 -249t237 -82t237 82t86 249v827h280zM415 1913v209h661v-209h-661zM530 1834q70 0 119 -49t49 -119t-48.5 -118t-119.5 -48q-70 0 -118 48
t-48 118q0 71 48 119.5t118 48.5zM961 1834q71 0 119.5 -49t48.5 -119t-48.5 -118t-119.5 -48t-118.5 48t-47.5 118q0 71 48 119.5t118 48.5z" />
    <glyph glyph-name="uni01D6" unicode="&#x1d6;" horiz-adv-x="1175" 
d="M1046 969v-556q0 -111 -37 -197t-101.5 -137.5t-145.5 -77.5t-174 -26q-74 0 -141 16t-125.5 50.5t-101 85t-67 124t-24.5 162.5v556h261v-533q0 -111 54 -164.5t144 -53.5t144 53.5t54 164.5v533h260zM370 1424q70 0 119 -49t49 -119t-48.5 -118t-119.5 -48
q-70 0 -118 48t-48 118q0 71 48 119.5t118 48.5zM801 1424q71 0 119.5 -49t48.5 -119t-48.5 -118t-119.5 -48t-118.5 48t-47.5 118q0 71 48 119.5t118 48.5zM255 1514v209h661v-209h-661z" />
    <glyph glyph-name="uni01D7" unicode="&#x1d7;" horiz-adv-x="1492" 
d="M1349 1400v-841q0 -189 -77 -322t-211.5 -197.5t-314.5 -64.5t-314.5 64.5t-211.5 197.5t-77 322v841h280v-827q0 -167 86 -249t237 -82t237 82t86 249v827h280zM812 1912h-249l201 315h312zM530 1834q70 0 119 -49t49 -119t-48.5 -118t-119.5 -48q-70 0 -118 48t-48 118
q0 71 48 119.5t118 48.5zM961 1834q71 0 119.5 -49t48.5 -119t-48.5 -118t-119.5 -48t-118.5 48t-47.5 118q0 71 48 119.5t118 48.5z" />
    <glyph glyph-name="uni01D8" unicode="&#x1d8;" horiz-adv-x="1175" 
d="M1046 969v-556q0 -111 -37 -197t-101.5 -137.5t-145.5 -77.5t-174 -26q-74 0 -141 16t-125.5 50.5t-101 85t-67 124t-24.5 162.5v556h261v-533q0 -111 54 -164.5t144 -53.5t144 53.5t54 164.5v533h260zM370 1424q70 0 119 -49t49 -119t-48.5 -118t-119.5 -48
q-70 0 -118 48t-48 118q0 71 48 119.5t118 48.5zM801 1424q71 0 119.5 -49t48.5 -119t-48.5 -118t-119.5 -48t-118.5 48t-47.5 118q0 71 48 119.5t118 48.5zM652 1513h-249l201 315h312z" />
    <glyph glyph-name="uni01D9" unicode="&#x1d9;" horiz-adv-x="1492" 
d="M1349 1400v-841q0 -189 -77 -322t-211.5 -197.5t-314.5 -64.5t-314.5 64.5t-211.5 197.5t-77 322v841h280v-827q0 -167 86 -249t237 -82t237 82t86 249v827h280zM371 2217h253l122 -153l123 153h253l-218 -315h-315zM530 1834q70 0 119 -49t49 -119t-48.5 -118
t-119.5 -48q-70 0 -118 48t-48 118q0 71 48 119.5t118 48.5zM961 1834q71 0 119.5 -49t48.5 -119t-48.5 -118t-119.5 -48t-118.5 48t-47.5 118q0 71 48 119.5t118 48.5z" />
    <glyph glyph-name="uni01DA" unicode="&#x1da;" horiz-adv-x="1175" 
d="M1046 969v-556q0 -111 -37 -197t-101.5 -137.5t-145.5 -77.5t-174 -26q-74 0 -141 16t-125.5 50.5t-101 85t-67 124t-24.5 162.5v556h261v-533q0 -111 54 -164.5t144 -53.5t144 53.5t54 164.5v533h260zM370 1424q70 0 119 -49t49 -119t-48.5 -118t-119.5 -48
q-70 0 -118 48t-48 118q0 71 48 119.5t118 48.5zM801 1424q71 0 119.5 -49t48.5 -119t-48.5 -118t-119.5 -48t-118.5 48t-47.5 118q0 71 48 119.5t118 48.5zM211 1818h253l122 -153l123 153h253l-218 -315h-315z" />
    <glyph glyph-name="uni01DB" unicode="&#x1db;" horiz-adv-x="1492" 
d="M1349 1400v-841q0 -189 -77 -322t-211.5 -197.5t-314.5 -64.5t-314.5 64.5t-211.5 197.5t-77 322v841h280v-827q0 -167 86 -249t237 -82t237 82t86 249v827h280zM666 1912l-264 315h312l201 -315h-249zM530 1834q70 0 119 -49t49 -119t-48.5 -118t-119.5 -48
q-70 0 -118 48t-48 118q0 71 48 119.5t118 48.5zM961 1834q71 0 119.5 -49t48.5 -119t-48.5 -118t-119.5 -48t-118.5 48t-47.5 118q0 71 48 119.5t118 48.5z" />
    <glyph glyph-name="uni01DC" unicode="&#x1dc;" horiz-adv-x="1175" 
d="M1046 969v-556q0 -111 -37 -197t-101.5 -137.5t-145.5 -77.5t-174 -26q-74 0 -141 16t-125.5 50.5t-101 85t-67 124t-24.5 162.5v556h261v-533q0 -111 54 -164.5t144 -53.5t144 53.5t54 164.5v533h260zM370 1424q70 0 119 -49t49 -119t-48.5 -118t-119.5 -48
q-70 0 -118 48t-48 118q0 71 48 119.5t118 48.5zM801 1424q71 0 119.5 -49t48.5 -119t-48.5 -118t-119.5 -48t-118.5 48t-47.5 118q0 71 48 119.5t118 48.5zM506 1513l-264 315h312l201 -315h-249z" />
    <glyph glyph-name="uni01E2" unicode="&#x1e2;" horiz-adv-x="2303" 
d="M2176 256v-256h-1046v294h-571l-209 -294h-333l1013 1400h1138v-256h-759v-310h724v-256h-724v-322h767zM742 551h388v543zM1208 1561v209h661v-209h-661z" />
    <glyph glyph-name="uni01E3" unicode="&#x1e3;" horiz-adv-x="1747" 
d="M1207 995q207 0 335 -140.5t129 -368.5q0 -51 -5 -88h-687q20 -101 86 -151t162 -50q136 0 246 93l153 -168q-162 -147 -417 -147q-238 0 -375 149q-72 -68 -159.5 -108.5t-215.5 -40.5q-180 0 -281 84.5t-101 224.5q0 138 108 216t297 78h229q-14 187 -217 187
q-134 0 -267 -89l-95 204q78 55 182.5 85t214.5 30q229 0 335 -143q122 143 343 143zM499 185q65 0 129 28t110 79q-17 53 -23 110h-195q-89 0 -130.5 -30.5t-41.5 -77.5q0 -46 38.5 -77.5t112.5 -31.5zM1198 770q-90 0 -146 -50.5t-73 -146.5h431q-18 95 -72.5 146
t-139.5 51zM546 1151v209h661v-209h-661z" />
    <glyph glyph-name="Gcaron" unicode="&#x1e6;" horiz-adv-x="1600" 
d="M831 1426q164 0 300.5 -56t230.5 -159l-201 -197q-128 147 -338 147q-193 0 -317.5 -128.5t-124.5 -332.5q0 -210 125.5 -337.5t311.5 -127.5q169 0 269.5 79t128.5 230h-356v233h644q4 -36 4 -79q0 -209 -88 -374.5t-244 -257t-352 -91.5q-116 0 -225 31.5t-200.5 94
t-160.5 148.5t-107.5 202.5t-38.5 248.5q0 156 55.5 291.5t152.5 230.5t234.5 149.5t296.5 54.5zM429 1823h253l122 -153l123 153h253l-218 -315h-315z" />
    <glyph glyph-name="gcaron" unicode="&#x1e7;" horiz-adv-x="1216" 
d="M523 995q192 0 300 -134v108h256v-889q0 -232 -141 -365.5t-382 -133.5q-118 0 -231 30.5t-193 86.5l93 213q150 -99 320 -99q125 0 200.5 67.5t75.5 189.5v68q-107 -131 -298 -131q-88 0 -169 36t-142.5 99t-98 157t-36.5 202q0 109 36.5 202.5t98 157t142.5 99.5
t169 36zM589 755q-109 0 -176.5 -73.5t-67.5 -181.5t67.5 -181t176.5 -73q107 0 175 72.5t68 181.5q0 110 -67.5 182.5t-175.5 72.5zM217 1413h253l122 -153l123 153h253l-218 -315h-315z" />
    <glyph glyph-name="Aringacute" unicode="&#x1fa;" horiz-adv-x="1472" 
d="M312 0h-291l521 1339q-72 75 -72 178q0 106 77 181.5t184 75.5q109 0 186 -75.5t77 -181.5q0 -99 -67 -172l524 -1345h-298l-122 326h-597zM733 1124l-203 -541h405zM798 1842h-249l201 315h312zM731 1408q44 0 75.5 31.5t31.5 77.5q0 45 -31.5 76.5t-75.5 31.5
q-42 0 -73.5 -31.5t-31.5 -76.5q0 -46 31 -77.5t74 -31.5z" />
    <glyph glyph-name="aringacute" unicode="&#x1fb;" horiz-adv-x="1228" 
d="M1091 969v-969h-255v107q-107 -132 -290 -132q-200 0 -334.5 146t-134.5 364t134.5 364t334.5 146q182 0 290 -133v107h255zM594 752q-112 0 -181 -76.5t-69 -190.5t69 -190.5t181 -76.5q111 0 180.5 75.5t69.5 191.5t-69.5 191.5t-180.5 75.5zM611 1043
q-108 0 -184.5 75.5t-76.5 182.5q0 106 77 181.5t184 75.5q109 0 186 -75.5t77 -181.5q0 -107 -77 -182.5t-186 -75.5zM611 1192q44 0 75.5 31.5t31.5 77.5q0 45 -31.5 76.5t-75.5 31.5q-42 0 -73.5 -31.5t-31.5 -76.5q0 -46 31 -77.5t74 -31.5zM678 1605h-249l201 315h312z
" />
    <glyph glyph-name="AEacute" unicode="&#x1fc;" horiz-adv-x="2303" 
d="M2176 256v-256h-1046v294h-571l-209 -294h-333l1013 1400h1138v-256h-759v-310h724v-256h-724v-322h767zM742 551h388v543zM1605 1518h-249l201 315h312z" />
    <glyph glyph-name="aeacute" unicode="&#x1fd;" horiz-adv-x="1747" 
d="M1207 995q207 0 335 -140.5t129 -368.5q0 -51 -5 -88h-687q20 -101 86 -151t162 -50q136 0 246 93l153 -168q-162 -147 -417 -147q-238 0 -375 149q-72 -68 -159.5 -108.5t-215.5 -40.5q-180 0 -281 84.5t-101 224.5q0 138 108 216t297 78h229q-14 187 -217 187
q-134 0 -267 -89l-95 204q78 55 182.5 85t214.5 30q229 0 335 -143q122 143 343 143zM499 185q65 0 129 28t110 79q-17 53 -23 110h-195q-89 0 -130.5 -30.5t-41.5 -77.5q0 -46 38.5 -77.5t112.5 -31.5zM1198 770q-90 0 -146 -50.5t-73 -146.5h431q-18 95 -72.5 146
t-139.5 51zM952 1108h-249l201 315h312z" />
    <glyph glyph-name="Oslashacute" unicode="&#x1fe;" horiz-adv-x="1655" 
d="M827 1426q246 0 434 -128l127 127l168 -168l-125 -125q132 -187 132 -432q0 -207 -93.5 -372.5t-262 -259.5t-380.5 -94q-246 0 -430 125l-124 -124l-168 167l121 121q-134 187 -134 437q0 155 54.5 289.5t151 230.5t233.5 151t296 55zM827 1158q-194 0 -319 -127.5
t-125 -330.5q0 -129 52 -228l625 625q-103 61 -233 61zM1271 700q0 120 -49 223l-624 -623q99 -58 229 -58q195 0 319.5 127.5t124.5 330.5zM897 1518h-249l201 315h312z" />
    <glyph glyph-name="oslashacute" unicode="&#x1ff;" horiz-adv-x="1201" 
d="M601 995q158 0 285 -77l102 101l149 -148l-98 -98q86 -127 86 -288q0 -219 -149 -364.5t-375 -145.5q-157 0 -284 75l-101 -101l-150 148l97 98q-86 127 -86 290q0 219 149 364.5t375 145.5zM601 758q-113 0 -188 -77t-75 -196q0 -57 19 -108l357 357q-54 24 -113 24z
M865 485q0 55 -19 106l-357 -356q52 -23 112 -23q113 0 188.5 77t75.5 196zM675 1108h-249l201 315h312z" />
    <glyph glyph-name="uni0218" unicode="&#x218;" horiz-adv-x="1353" 
d="M1241 1275l-132 -228q-193 119 -397 119q-120 0 -194 -45t-74 -123q0 -37 20 -64t63 -45.5t88.5 -29.5t117.5 -23l79 -13q446 -73 446 -392q0 -112 -47 -201t-127 -143.5t-182 -83t-217 -28.5q-164 0 -322.5 47.5t-267.5 135.5l145 225q82 -65 200 -108t246 -43
q120 0 197.5 45t77.5 124q0 69 -70 104t-227 60l-89 14q-427 67 -427 401q0 106 45 192t122.5 140t177.5 83t213 29q148 0 276 -35.5t259 -113.5zM584 -84h265l-92 -389h-216z" />
    <glyph glyph-name="uni0219" unicode="&#x219;" horiz-adv-x="1014" 
d="M920 902l-88 -203q-65 32 -149 55t-160 24q-73 0 -111 -23.5t-38 -64.5q0 -38 39 -54.5t119 -28.5l86 -13q327 -50 327 -290q0 -151 -118 -240t-327 -89q-270 0 -431 114l103 198q143 -95 330 -95q179 0 179 91q0 35 -38 56t-123 33l-79 11q-335 46 -335 294
q0 149 108.5 233t300.5 84q217 0 405 -92zM401 -84h265l-92 -389h-216z" />
    <glyph glyph-name="uni021A" unicode="&#x21a;" horiz-adv-x="1211" 
d="M1179 1400v-261h-434v-1139h-279v1139h-434v261h1147zM490 -84h265l-92 -389h-216z" />
    <glyph glyph-name="uni021B" unicode="&#x21b;" horiz-adv-x="933" 
d="M840 969v-232h-351v-354q0 -86 39.5 -125.5t105.5 -39.5q78 0 182 63l96 -204q-149 -102 -321 -102q-179 0 -271 99t-92 288v375h-187v232h187v288h261v-288h351zM430 -84h265l-92 -389h-216z" />
    <glyph glyph-name="uni0232" unicode="&#x232;" horiz-adv-x="1362" 
d="M1356 1400l-532 -848v-552h-279v553l-539 847h328l352 -594l352 594h318zM354 1561v209h661v-209h-661z" />
    <glyph glyph-name="uni0233" unicode="&#x233;" horiz-adv-x="1128" 
d="M1119 969l-741 -1373h-286l339 610l-418 763h296l266 -498l258 498h286zM240 1151v209h661v-209h-661z" />
    <glyph glyph-name="uni0237" unicode="&#x237;" horiz-adv-x="539" 
d="M402 969v-1061q0 -156 -82 -242.5t-219 -86.5q-87 0 -147 26l39 229q33 -12 70 -12q78 0 78 101v1046h261z" />
    <glyph glyph-name="uni0259" unicode="&#x259;" horiz-adv-x="1114" 
d="M547 -26q-209 0 -339.5 141t-131.5 368q0 51 5 88h687q-20 101 -86 151t-163 50q-63 0 -128 -24.5t-117 -68.5l-153 168q160 147 413 147q224 0 363.5 -139.5t139.5 -367.5q0 -229 -136 -371t-354 -142zM549 199q90 0 145 51t73 143h-429q18 -93 72.5 -143.5t138.5 -50.5
z" />
    <glyph glyph-name="uni02BB" unicode="&#x2bb;" horiz-adv-x="534" 
d="M383 844h-293l140 596h220z" />
    <glyph glyph-name="uni02BC" unicode="&#x2bc;" horiz-adv-x="534" 
d="M151 1440h293l-140 -596h-220z" />
    <glyph glyph-name="uni02BE" unicode="&#x2be;" horiz-adv-x="543" 
d="M112 667v223q67 0 115.5 51t48.5 121q0 72 -48.5 123t-115.5 51v220q164 0 279 -115t115 -279t-115.5 -279.5t-278.5 -115.5z" />
    <glyph glyph-name="uni02BF" unicode="&#x2bf;" horiz-adv-x="543" 
d="M431 1455v-223q-67 0 -115.5 -51t-48.5 -121q0 -72 48.5 -123t115.5 -51v-220q-163 0 -278.5 115t-115.5 279t115.5 279.5t278.5 115.5z" />
    <glyph glyph-name="circumflex" unicode="&#x2c6;" horiz-adv-x="1069" 
d="M911 1098h-252l-123 153l-122 -153h-253l218 315h315z" />
    <glyph glyph-name="caron" unicode="&#x2c7;" horiz-adv-x="1069" 
d="M161 1413h252l123 -153l122 153h253l-218 -315h-315z" />
    <glyph glyph-name="breve" unicode="&#x2d8;" horiz-adv-x="1069" 
d="M152 1399l199 58q50 -164 184 -164q133 0 183 164l199 -58q-40 -153 -139 -234t-243 -81t-243 81t-140 234z" />
    <glyph glyph-name="dotaccent" unicode="&#x2d9;" horiz-adv-x="607" 
d="M303 1454q70 0 118.5 -48.5t48.5 -119.5q0 -70 -48 -118t-119 -48t-118.5 48t-47.5 118q0 71 48 119.5t118 48.5z" />
    <glyph glyph-name="ring" unicode="&#x2da;" horiz-adv-x="1000" 
d="M500 1076q-108 0 -184.5 75.5t-76.5 182.5q0 106 76.5 181.5t184.5 75.5q109 0 185.5 -75.5t76.5 -181.5q0 -107 -76.5 -182.5t-185.5 -75.5zM500 1225q44 0 75.5 31.5t31.5 77.5q0 45 -31.5 76.5t-75.5 31.5q-43 0 -74.5 -31.5t-31.5 -76.5q0 -46 31.5 -77.5t74.5 -31.5
z" />
    <glyph glyph-name="ogonek" unicode="&#x2db;" horiz-adv-x="1105" 
d="M810 -167l136 -148q-112 -104 -274 -104q-128 0 -208 65t-80 173q0 101 73 170t213 122l147 -99q-109 -40 -155 -77t-46 -80q0 -30 22 -48.5t60 -18.5q59 0 112 45z" />
    <glyph glyph-name="tilde" unicode="&#x2dc;" horiz-adv-x="1069" 
d="M281 1121l-138 149q101 131 262 131q61 0 112.5 -17.5t88 -35t59.5 -17.5q52 0 124 67l139 -149q-103 -132 -263 -132q-60 0 -111 17.5t-88 35t-61 17.5q-52 0 -124 -66z" />
    <glyph glyph-name="hungarumlaut" unicode="&#x2dd;" horiz-adv-x="1069" 
d="M739 1108h-249l201 315h312zM315 1108h-249l201 315h312z" />
    <glyph glyph-name="gravecomb" unicode="&#x300;" horiz-adv-x="1" 
d="M-680 1108l-264 315h312l201 -315h-249z" />
    <glyph glyph-name="acutecomb" unicode="&#x301;" horiz-adv-x="1" 
d="M-526 1108h-249l201 315h312z" />
    <glyph glyph-name="uni0302" unicode="&#x302;" horiz-adv-x="1" 
d="M-225 1098h-253l-123 153l-122 -153h-253l218 315h315z" />
    <glyph glyph-name="tildecomb" unicode="&#x303;" horiz-adv-x="1" 
d="M-857 1121l-138 149q101 131 262 131q61 0 112.5 -17.5t88 -35t59.5 -17.5q52 0 124 67l139 -149q-103 -132 -263 -132q-60 0 -111 17.5t-88 35t-61 17.5q-52 0 -124 -66z" />
    <glyph glyph-name="uni0304" unicode="&#x304;" horiz-adv-x="1" 
d="M-932 1151v209h661v-209h-661z" />
    <glyph glyph-name="uni0306" unicode="&#x306;" horiz-adv-x="1" 
d="M-984 1399l199 58q50 -164 184 -164q132 0 184 164l199 -58q-41 -153 -140 -234t-243 -81t-243 81t-140 234z" />
    <glyph glyph-name="uni0307" unicode="&#x307;" horiz-adv-x="1" 
d="M-602 1454q70 0 118.5 -48.5t48.5 -119.5q0 -70 -48 -118t-119 -48q-70 0 -118 48t-48 118q0 71 48 119.5t118 48.5z" />
    <glyph glyph-name="uni0308" unicode="&#x308;" horiz-adv-x="1" 
d="M-819 1424q71 0 119.5 -49t48.5 -119t-48.5 -118t-119.5 -48t-118.5 48t-47.5 118q0 71 48 119.5t118 48.5zM-388 1424q70 0 119 -49t49 -119t-48.5 -118t-119.5 -48q-70 0 -118 48t-48 118q0 71 48 119.5t118 48.5z" />
    <glyph glyph-name="uni030A" unicode="&#x30a;" horiz-adv-x="1" 
d="M-602 1076q-108 0 -184.5 75.5t-76.5 182.5q0 106 77 181.5t184 75.5q109 0 186 -75.5t77 -181.5q0 -107 -77 -182.5t-186 -75.5zM-602 1225q44 0 75.5 31.5t31.5 77.5q0 45 -31.5 76.5t-75.5 31.5q-42 0 -73.5 -31.5t-31.5 -76.5q0 -46 31 -77.5t74 -31.5z" />
    <glyph glyph-name="uni030B" unicode="&#x30b;" horiz-adv-x="1" 
d="M-293 1108h-254l217 315h284zM-670 1108h-252l193 315h277z" />
    <glyph glyph-name="uni030C" unicode="&#x30c;" horiz-adv-x="1" 
d="M-976 1413h253l122 -153l123 153h253l-218 -315h-315z" />
    <glyph glyph-name="uni0312" unicode="&#x312;" horiz-adv-x="1" 
d="M-472 1108h-266l92 389h216z" />
    <glyph glyph-name="dotbelowcomb" unicode="&#x323;" horiz-adv-x="1" 
d="M-600 -103q70 0 118.5 -48.5t48.5 -119.5q0 -70 -48 -118t-119 -48q-70 0 -118 47.5t-48 118.5t48 119.5t118 48.5z" />
    <glyph glyph-name="uni0326" unicode="&#x326;" horiz-adv-x="1" 
d="M-719 -84h265l-92 -389h-216z" />
    <glyph glyph-name="uni0327" unicode="&#x327;" horiz-adv-x="1" 
d="M-422 7l-103 -328h-252l111 328h244z" />
    <glyph glyph-name="uni0328" unicode="&#x328;" horiz-adv-x="1" 
d="M-451 -167l136 -148q-112 -104 -275 -104q-130 0 -212.5 61t-82.5 158q0 105 84 172.5t250 122.5l65 -55q-89 -47 -124 -91.5t-35 -91.5q0 -31 22.5 -50t60.5 -19q58 0 111 45z" />
    <glyph glyph-name="uni032E" unicode="&#x32e;" horiz-adv-x="1" 
d="M-983 -133l199 58q50 -164 184 -164q132 0 184 164l199 -58q-41 -153 -140 -234t-243 -81t-243 81t-140 234z" />
    <glyph glyph-name="uni0331" unicode="&#x331;" horiz-adv-x="1" 
d="M-931 -367v210h662v-210h-662z" />
    <glyph glyph-name="uni0335" unicode="&#x335;" horiz-adv-x="1" 
d="M-231 636v-218h-740v218h740z" />
    <glyph glyph-name="uni0336" unicode="&#x336;" horiz-adv-x="1" 
d="M159 636v-218h-1520v218h1520z" />
    <glyph glyph-name="uni0394" unicode="&#x394;" horiz-adv-x="1387" 
d="M863 1400l460 -1182v-218h-1259v218l460 1182h339zM693 1125l-324 -864h648z" />
    <glyph glyph-name="uni03A9" unicode="&#x3a9;" horiz-adv-x="1702" 
d="M64 254h252q-96 90 -148 210t-52 259q0 200 93 360.5t261.5 251.5t380.5 91t380.5 -91t261.5 -251.5t93 -360.5q0 -139 -52 -259t-148 -210h252v-254h-645v226q138 44 220 166t82 292q0 210 -124.5 342t-319.5 132t-319.5 -132t-124.5 -342q0 -170 82 -292t220 -166v-226
h-645v254z" />
    <glyph glyph-name="uni03BC" unicode="&#x3bc;" horiz-adv-x="1182" 
d="M382 -400h-253v1369h261v-533q0 -104 49.5 -160.5t139.5 -56.5q89 0 147 57t58 162v531h261v-969h-254v114q-94 -140 -285 -140q-67 0 -124 18v-392z" />
    <glyph glyph-name="pi" unicode="&#x3c0;" horiz-adv-x="1184" 
d="M1055 969v-969h-260v737h-397v-737h-261v969h918z" />
    <glyph glyph-name="uni1E0C" unicode="&#x1e0c;" horiz-adv-x="1555" 
d="M159 1400h577q329 0 528 -192t199 -508t-199 -508t-528 -192h-577v1400zM733 1139h-295v-878h295q214 0 326 120.5t112 318.5q0 200 -112 319.5t-326 119.5zM749 -103q70 0 118.5 -48.5t48.5 -119.5q0 -70 -48 -118t-119 -48t-118.5 47.5t-47.5 118.5t48 119.5t118 48.5z
" />
    <glyph glyph-name="uni1E0D" unicode="&#x1e0d;" horiz-adv-x="1228" 
d="M546 995q180 0 285 -127v572h260v-1440h-255v107q-107 -132 -290 -132q-200 0 -334.5 146t-134.5 364t134.5 364t334.5 146zM594 752q-112 0 -181 -76.5t-69 -190.5t69 -190.5t181 -76.5q111 0 180.5 75.5t69.5 191.5t-69.5 191.5t-180.5 75.5zM619 -103
q70 0 118.5 -48.5t48.5 -119.5q0 -70 -48 -118t-119 -48t-118.5 47.5t-47.5 118.5t48 119.5t118 48.5z" />
    <glyph glyph-name="uni1E0E" unicode="&#x1e0e;" horiz-adv-x="1555" 
d="M159 1400h577q329 0 528 -192t199 -508t-199 -508t-528 -192h-577v1400zM733 1139h-295v-878h295q214 0 326 120.5t112 318.5q0 200 -112 319.5t-326 119.5zM419 -367v210h662v-210h-662z" />
    <glyph glyph-name="uni1E0F" unicode="&#x1e0f;" horiz-adv-x="1228" 
d="M546 995q180 0 285 -127v572h260v-1440h-255v107q-107 -132 -290 -132q-200 0 -334.5 146t-134.5 364t134.5 364t334.5 146zM594 752q-112 0 -181 -76.5t-69 -190.5t69 -190.5t181 -76.5q111 0 180.5 75.5t69.5 191.5t-69.5 191.5t-180.5 75.5zM288 -367v210h662v-210
h-662z" />
    <glyph glyph-name="uni1E24" unicode="&#x1e24;" horiz-adv-x="1550" 
d="M438 1400v-564h674v564h279v-1400h-279v576h-674v-576h-279v1400h279zM774 -103q70 0 118.5 -48.5t48.5 -119.5q0 -70 -48 -118t-119 -48q-70 0 -118 47.5t-48 118.5t48 119.5t118 48.5z" />
    <glyph glyph-name="uni1E25" unicode="&#x1e25;" horiz-adv-x="1182" 
d="M398 1441v-576q93 130 278 130q166 0 271.5 -105t105.5 -273v-617h-261v533q0 104 -49.5 160.5t-139.5 56.5q-89 0 -147 -57t-58 -162v-531h-261v1441h261zM595 -103q70 0 118.5 -48.5t48.5 -119.5q0 -70 -48 -118t-119 -48t-118.5 47.5t-47.5 118.5t48 119.5t118 48.5z
" />
    <glyph glyph-name="uni1E28" unicode="&#x1e28;" horiz-adv-x="1550" 
d="M438 1400v-564h674v564h279v-1400h-279v576h-674v-576h-10l-101 -321h-267l109 321h-10v1400h279z" />
    <glyph glyph-name="uni1E29" unicode="&#x1e29;" horiz-adv-x="1182" 
d="M398 1441v-576q93 130 278 130q166 0 271.5 -105t105.5 -273v-617h-261v533q0 104 -49.5 160.5t-139.5 56.5q-89 0 -147 -57t-58 -162v-531h-9l-101 -321h-252l108 321h-7v1441h261z" />
    <glyph glyph-name="uni1E2A" unicode="&#x1e2a;" horiz-adv-x="1550" 
d="M438 1400v-564h674v564h279v-1400h-279v576h-674v-576h-279v1400h279zM392 -133l199 58q50 -164 184 -164q132 0 184 164l199 -58q-41 -153 -140 -234t-243 -81t-243 81t-140 234z" />
    <glyph glyph-name="uni1E2B" unicode="&#x1e2b;" horiz-adv-x="1182" 
d="M398 1441v-576q93 130 278 130q166 0 271.5 -105t105.5 -273v-617h-261v533q0 104 -49.5 160.5t-139.5 56.5q-89 0 -147 -57t-58 -162v-531h-261v1441h261zM212 -133l199 58q50 -164 184 -164q132 0 184 164l199 -58q-41 -153 -140 -234t-243 -81t-243 81t-140 234z" />
    <glyph glyph-name="uni1E32" unicode="&#x1e32;" horiz-adv-x="1424" 
d="M1065 0l-498 576h-129v-576h-279v1400h279v-567h132l463 567h350l-587 -683l631 -717h-362zM711 -103q70 0 118.5 -48.5t48.5 -119.5q0 -70 -48 -118t-119 -48t-118.5 47.5t-47.5 118.5t48 119.5t118 48.5z" />
    <glyph glyph-name="uni1E33" unicode="&#x1e33;" horiz-adv-x="1095" 
d="M398 1440v-816h92l273 345h320l-382 -456l385 -513h-321l-279 392h-88v-392h-261v1440h261zM570 -103q70 0 118.5 -48.5t48.5 -119.5q0 -70 -48 -118t-119 -48q-70 0 -118 47.5t-48 118.5t48 119.5t118 48.5z" />
    <glyph glyph-name="uni1E36" unicode="&#x1e36;" horiz-adv-x="1210" 
d="M1178 261v-261h-1019v1400h279v-1139h740zM665 -103q70 0 118.5 -48.5t48.5 -119.5q0 -70 -48 -118t-119 -48t-118.5 47.5t-47.5 118.5t48 119.5t118 48.5z" />
    <glyph glyph-name="uni1E37" unicode="&#x1e37;" horiz-adv-x="535" 
d="M398 1440v-1440h-261v1440h261zM268 -103q70 0 118.5 -48.5t48.5 -119.5q0 -70 -48 -118t-119 -48q-70 0 -118 47.5t-48 118.5t48 119.5t118 48.5z" />
    <glyph glyph-name="uni1E38" unicode="&#x1e38;" horiz-adv-x="1210" 
d="M1178 261v-261h-1019v1400h279v-1139h740zM665 -103q70 0 118.5 -48.5t48.5 -119.5q0 -70 -48 -118t-119 -48t-118.5 47.5t-47.5 118.5t48 119.5t118 48.5zM-32 1561v209h661v-209h-661z" />
    <glyph glyph-name="uni1E39" unicode="&#x1e39;" horiz-adv-x="535" 
d="M398 1440v-1440h-261v1440h261zM-76 1587v209h661v-209h-661zM268 -103q70 0 118.5 -48.5t48.5 -119.5q0 -70 -48 -118t-119 -48q-70 0 -118 47.5t-48 118.5t48 119.5t118 48.5z" />
    <glyph glyph-name="uni1E3A" unicode="&#x1e3a;" horiz-adv-x="1210" 
d="M1178 261v-261h-1019v1400h279v-1139h740zM335 -367v210h662v-210h-662z" />
    <glyph glyph-name="uni1E3B" unicode="&#x1e3b;" horiz-adv-x="535" 
d="M398 1440v-1440h-261v1440h261zM-63 -367v210h662v-210h-662z" />
    <glyph glyph-name="uni1E40" unicode="&#x1e40;" horiz-adv-x="1863" 
d="M1704 1400v-1400h-279v1057l-346 -922h-295l-346 914v-1049h-279v1400h409l364 -945l363 945h409zM909 1849q74 0 124.5 -51.5t50.5 -125.5t-50.5 -124t-124.5 -50t-124 50t-50 124q0 75 50 126t124 51z" />
    <glyph glyph-name="uni1E41" unicode="&#x1e41;" horiz-adv-x="1836" 
d="M1325 995q171 0 276.5 -104.5t105.5 -273.5v-617h-260v533q0 104 -50 160.5t-139 56.5t-147 -57t-58 -162v-531h-261v533q0 104 -49.5 160.5t-139.5 56.5q-89 0 -147 -57t-58 -162v-531h-261v969h254v-114q94 140 285 140q104 0 187.5 -44t132.5 -122q101 166 329 166z
M932 1443q70 0 118.5 -48.5t48.5 -119.5q0 -70 -48 -118t-119 -48q-70 0 -118 47.5t-48 118.5t48 119.5t118 48.5z" />
    <glyph glyph-name="uni1E42" unicode="&#x1e42;" horiz-adv-x="1863" 
d="M1704 1400v-1400h-279v1057l-346 -922h-295l-346 914v-1049h-279v1400h409l364 -945l363 945h409zM931 -103q70 0 118.5 -48.5t48.5 -119.5q0 -70 -48 -118t-119 -48t-118.5 47.5t-47.5 118.5t48 119.5t118 48.5z" />
    <glyph glyph-name="uni1E43" unicode="&#x1e43;" horiz-adv-x="1836" 
d="M1325 995q171 0 276.5 -104.5t105.5 -273.5v-617h-260v533q0 104 -50 160.5t-139 56.5t-147 -57t-58 -162v-531h-261v533q0 104 -49.5 160.5t-139.5 56.5q-89 0 -147 -57t-58 -162v-531h-261v969h254v-114q94 140 285 140q104 0 187.5 -44t132.5 -122q101 166 329 166z
M922 -103q70 0 118.5 -48.5t48.5 -119.5q0 -70 -48 -118t-119 -48q-70 0 -118 47.5t-48 118.5t48 119.5t118 48.5z" />
    <glyph glyph-name="uni1E44" unicode="&#x1e44;" horiz-adv-x="1570" 
d="M1411 1400v-1400h-262l-710 935l-1 -935h-279v1400h261l711 -935v935h280zM767 1849q74 0 124.5 -51.5t50.5 -125.5t-50.5 -124t-124.5 -50t-124 50t-50 124q0 75 50 126t124 51z" />
    <glyph glyph-name="uni1E45" unicode="&#x1e45;" horiz-adv-x="1182" 
d="M676 995q166 0 271.5 -105t105.5 -273v-617h-261v533q0 104 -49.5 160.5t-139.5 56.5q-89 0 -147 -57t-58 -162v-531h-261v969h254v-114q94 140 285 140zM605 1454q70 0 118.5 -48.5t48.5 -119.5q0 -70 -48 -118t-119 -48t-118.5 48t-47.5 118q0 71 48 119.5t118 48.5z
" />
    <glyph glyph-name="uni1E46" unicode="&#x1e46;" horiz-adv-x="1570" 
d="M1411 1400v-1400h-262l-710 935l-1 -935h-279v1400h261l711 -935v935h280zM784 -103q70 0 118.5 -48.5t48.5 -119.5q0 -70 -48 -118t-119 -48q-70 0 -118 47.5t-48 118.5t48 119.5t118 48.5z" />
    <glyph glyph-name="uni1E47" unicode="&#x1e47;" horiz-adv-x="1182" 
d="M676 995q166 0 271.5 -105t105.5 -273v-617h-261v533q0 104 -49.5 160.5t-139.5 56.5q-89 0 -147 -57t-58 -162v-531h-261v969h254v-114q94 140 285 140zM595 -103q70 0 118.5 -48.5t48.5 -119.5q0 -70 -48 -118t-119 -48t-118.5 47.5t-47.5 118.5t48 119.5t118 48.5z
" />
    <glyph glyph-name="uni1E48" unicode="&#x1e48;" horiz-adv-x="1570" 
d="M1411 1400v-1400h-262l-710 935l-1 -935h-279v1400h261l711 -935v935h280zM454 -367v210h662v-210h-662z" />
    <glyph glyph-name="uni1E49" unicode="&#x1e49;" horiz-adv-x="1182" 
d="M676 995q166 0 271.5 -105t105.5 -273v-617h-261v533q0 104 -49.5 160.5t-139.5 56.5q-89 0 -147 -57t-58 -162v-531h-261v969h254v-114q94 140 285 140zM264 -367v210h662v-210h-662z" />
    <glyph glyph-name="uni1E58" unicode="&#x1e58;" horiz-adv-x="1360" 
d="M159 1400h592q248 0 380.5 -111.5t132.5 -314.5q0 -173 -114 -283.5t-315 -129.5l431 -561h-338l-408 557h-82v-557h-279v1400zM746 1143h-308v-343h308q231 0 231 174q0 169 -231 169zM637 1849q74 0 124.5 -51.5t50.5 -125.5t-50.5 -124t-124.5 -50t-124 50t-50 124
q0 75 50 126t124 51z" />
    <glyph glyph-name="uni1E59" unicode="&#x1e59;" horiz-adv-x="840" 
d="M663 995q78 0 136 -21l-39 -259q-70 31 -158 31q-93 0 -148.5 -56.5t-55.5 -161.5v-528h-261v969h253v-106q88 132 273 132zM468 1454q70 0 118.5 -48.5t48.5 -119.5q0 -70 -48 -118t-119 -48q-70 0 -118 48t-48 118q0 71 48 119.5t118 48.5z" />
    <glyph glyph-name="uni1E5A" unicode="&#x1e5a;" horiz-adv-x="1360" 
d="M159 1400h592q248 0 380.5 -111.5t132.5 -314.5q0 -173 -114 -283.5t-315 -129.5l431 -561h-338l-408 557h-82v-557h-279v1400zM746 1143h-308v-343h308q231 0 231 174q0 169 -231 169zM666 -103q70 0 118.5 -48.5t48.5 -119.5q0 -70 -48 -118t-119 -48q-70 0 -118 47.5
t-48 118.5t48 119.5t118 48.5z" />
    <glyph glyph-name="uni1E5B" unicode="&#x1e5b;" horiz-adv-x="840" 
d="M663 995q78 0 136 -21l-39 -259q-70 31 -158 31q-93 0 -148.5 -56.5t-55.5 -161.5v-528h-261v969h253v-106q88 132 273 132zM268 -103q70 0 118.5 -48.5t48.5 -119.5q0 -70 -48 -118t-119 -48q-70 0 -118 47.5t-48 118.5t48 119.5t118 48.5z" />
    <glyph glyph-name="uni1E5C" unicode="&#x1e5c;" horiz-adv-x="1360" 
d="M159 1400h592q248 0 380.5 -111.5t132.5 -314.5q0 -173 -114 -283.5t-315 -129.5l431 -561h-338l-408 557h-82v-557h-279v1400zM746 1143h-308v-343h308q231 0 231 174q0 169 -231 169zM666 -103q70 0 118.5 -48.5t48.5 -119.5q0 -70 -48 -118t-119 -48q-70 0 -118 47.5
t-48 118.5t48 119.5t118 48.5zM329 1561v209h661v-209h-661z" />
    <glyph glyph-name="uni1E5D" unicode="&#x1e5d;" horiz-adv-x="840" 
d="M663 995q78 0 136 -21l-39 -259q-70 31 -158 31q-93 0 -148.5 -56.5t-55.5 -161.5v-528h-261v969h253v-106q88 132 273 132zM138 1151v209h661v-209h-661zM268 -103q70 0 118.5 -48.5t48.5 -119.5q0 -70 -48 -118t-119 -48q-70 0 -118 47.5t-48 118.5t48 119.5t118 48.5z
" />
    <glyph glyph-name="uni1E5E" unicode="&#x1e5e;" horiz-adv-x="1360" 
d="M159 1400h592q248 0 380.5 -111.5t132.5 -314.5q0 -173 -114 -283.5t-315 -129.5l431 -561h-338l-408 557h-82v-557h-279v1400zM746 1143h-308v-343h308q231 0 231 174q0 169 -231 169zM336 -367v210h662v-210h-662z" />
    <glyph glyph-name="uni1E5F" unicode="&#x1e5f;" horiz-adv-x="840" 
d="M663 995q78 0 136 -21l-39 -259q-70 31 -158 31q-93 0 -148.5 -56.5t-55.5 -161.5v-528h-261v969h253v-106q88 132 273 132zM-63 -367v210h662v-210h-662z" />
    <glyph glyph-name="uni1E62" unicode="&#x1e62;" horiz-adv-x="1353" 
d="M1241 1275l-132 -228q-193 119 -397 119q-120 0 -194 -45t-74 -123q0 -37 20 -64t63 -45.5t88.5 -29.5t117.5 -23l79 -13q446 -73 446 -392q0 -112 -47 -201t-127 -143.5t-182 -83t-217 -28.5q-164 0 -322.5 47.5t-267.5 135.5l145 225q82 -65 200 -108t246 -43
q120 0 197.5 45t77.5 124q0 69 -70 104t-227 60l-89 14q-427 67 -427 401q0 106 45 192t122.5 140t177.5 83t213 29q148 0 276 -35.5t259 -113.5zM698 -103q70 0 118.5 -48.5t48.5 -119.5q0 -70 -48 -118t-119 -48q-70 0 -118 47.5t-48 118.5t48 119.5t118 48.5z" />
    <glyph glyph-name="uni1E63" unicode="&#x1e63;" horiz-adv-x="1014" 
d="M920 902l-88 -203q-65 32 -149 55t-160 24q-73 0 -111 -23.5t-38 -64.5q0 -38 39 -54.5t119 -28.5l86 -13q327 -50 327 -290q0 -151 -118 -240t-327 -89q-270 0 -431 114l103 198q143 -95 330 -95q179 0 179 91q0 35 -38 56t-123 33l-79 11q-335 46 -335 294
q0 149 108.5 233t300.5 84q217 0 405 -92zM520 -103q70 0 118.5 -48.5t48.5 -119.5q0 -70 -48 -118t-119 -48q-70 0 -118 47.5t-48 118.5t48 119.5t118 48.5z" />
    <glyph glyph-name="uni1E6C" unicode="&#x1e6c;" horiz-adv-x="1211" 
d="M1179 1400v-261h-434v-1139h-279v1139h-434v261h1147zM604 -103q70 0 118.5 -48.5t48.5 -119.5q0 -70 -48 -118t-119 -48q-70 0 -118 47.5t-48 118.5t48 119.5t118 48.5z" />
    <glyph glyph-name="uni1E6D" unicode="&#x1e6d;" horiz-adv-x="933" 
d="M840 969v-232h-351v-354q0 -86 39.5 -125.5t105.5 -39.5q78 0 182 63l96 -204q-149 -102 -321 -102q-179 0 -271 99t-92 288v375h-187v232h187v288h261v-288h351zM549 -103q70 0 118.5 -48.5t48.5 -119.5q0 -70 -48 -118t-119 -48t-118.5 47.5t-47.5 118.5t48 119.5
t118 48.5z" />
    <glyph glyph-name="uni1E6E" unicode="&#x1e6e;" horiz-adv-x="1211" 
d="M1179 1400v-261h-434v-1139h-279v1139h-434v261h1147zM274 -367v210h662v-210h-662z" />
    <glyph glyph-name="uni1E6F" unicode="&#x1e6f;" horiz-adv-x="933" 
d="M840 969v-232h-351v-354q0 -86 39.5 -125.5t105.5 -39.5q78 0 182 63l96 -204q-149 -102 -321 -102q-179 0 -271 99t-92 288v375h-187v232h187v288h261v-288h351zM218 -367v210h662v-210h-662z" />
    <glyph glyph-name="Wgrave" unicode="&#x1e80;" horiz-adv-x="2180" 
d="M2146 1400l-418 -1400h-338l-300 1000l-300 -1000h-338l-418 1400h290l301 -1074l313 1074h309l313 -1074l301 1074h285zM1010 1518l-264 315h312l201 -315h-249z" />
    <glyph glyph-name="wgrave" unicode="&#x1e81;" horiz-adv-x="1732" 
d="M1004 969l220 -680l208 680h273l-328 -969h-298l-215 655l-213 -655h-296l-328 969h278l207 -677l217 677h275zM786 1108l-264 315h312l201 -315h-249z" />
    <glyph glyph-name="Wacute" unicode="&#x1e82;" horiz-adv-x="2180" 
d="M2146 1400l-418 -1400h-338l-300 1000l-300 -1000h-338l-418 1400h290l301 -1074l313 1074h309l313 -1074l301 1074h285zM1156 1518h-249l201 315h312z" />
    <glyph glyph-name="wacute" unicode="&#x1e83;" horiz-adv-x="1732" 
d="M1004 969l220 -680l208 680h273l-328 -969h-298l-215 655l-213 -655h-296l-328 969h278l207 -677l217 677h275zM940 1108h-249l201 315h312z" />
    <glyph glyph-name="Wdieresis" unicode="&#x1e84;" horiz-adv-x="2180" 
d="M2146 1400l-418 -1400h-338l-300 1000l-300 -1000h-338l-418 1400h290l301 -1074l313 1074h309l313 -1074l301 1074h285zM874 1834q70 0 119 -49t49 -119t-48.5 -118t-119.5 -48q-70 0 -118 48t-48 118q0 71 48 119.5t118 48.5zM1305 1834q71 0 119.5 -49t48.5 -119
t-48.5 -118t-119.5 -48t-118.5 48t-47.5 118q0 71 48 119.5t118 48.5z" />
    <glyph glyph-name="wdieresis" unicode="&#x1e85;" horiz-adv-x="1732" 
d="M1004 969l220 -680l208 680h273l-328 -969h-298l-215 655l-213 -655h-296l-328 969h278l207 -677l217 677h275zM647 1424q71 0 119.5 -49t48.5 -119t-48.5 -118t-119.5 -48t-118.5 48t-47.5 118q0 71 48 119.5t118 48.5zM1078 1424q70 0 119 -49t49 -119t-48.5 -118
t-119.5 -48q-70 0 -118 48t-48 118q0 71 48 119.5t118 48.5z" />
    <glyph glyph-name="uni1E88" unicode="&#x1e88;" horiz-adv-x="2180" 
d="M2146 1400l-418 -1400h-338l-300 1000l-300 -1000h-338l-418 1400h290l301 -1074l313 1074h309l313 -1074l301 1074h285zM1089 -103q70 0 118.5 -48.5t48.5 -119.5q0 -70 -48 -118t-119 -48t-118.5 47.5t-47.5 118.5t48 119.5t118 48.5z" />
    <glyph glyph-name="uni1E89" unicode="&#x1e89;" horiz-adv-x="1732" 
d="M1004 969l220 -680l208 680h273l-328 -969h-298l-215 655l-213 -655h-296l-328 969h278l207 -677l217 677h275zM865 -103q70 0 118.5 -48.5t48.5 -119.5q0 -70 -48 -118t-119 -48t-118.5 47.5t-47.5 118.5t48 119.5t118 48.5z" />
    <glyph glyph-name="uni1E92" unicode="&#x1e92;" horiz-adv-x="1288" 
d="M1193 1400v-218l-727 -925h727v-257h-1098v218l727 925h-725v257h1096zM643 -103q70 0 118.5 -48.5t48.5 -119.5q0 -70 -48 -118t-119 -48t-118.5 47.5t-47.5 118.5t48 119.5t118 48.5z" />
    <glyph glyph-name="uni1E93" unicode="&#x1e93;" horiz-adv-x="1040" 
d="M933 969v-191l-478 -545h489v-233h-848v188l489 549h-472v232h820zM520 -103q70 0 118.5 -48.5t48.5 -119.5q0 -70 -48 -118t-119 -48q-70 0 -118 47.5t-48 118.5t48 119.5t118 48.5z" />
    <glyph glyph-name="uni1E94" unicode="&#x1e94;" horiz-adv-x="1288" 
d="M1193 1400v-218l-727 -925h727v-257h-1098v218l727 925h-725v257h1096zM313 -367v210h662v-210h-662z" />
    <glyph glyph-name="uni1E95" unicode="&#x1e95;" horiz-adv-x="1040" 
d="M933 969v-191l-478 -545h489v-233h-848v188l489 549h-472v232h820zM189 -367v210h662v-210h-662z" />
    <glyph glyph-name="uni1E96" unicode="&#x1e96;" horiz-adv-x="1182" 
d="M398 1441v-576q93 130 278 130q166 0 271.5 -105t105.5 -273v-617h-261v533q0 104 -49.5 160.5t-139.5 56.5q-89 0 -147 -57t-58 -162v-531h-261v1441h261zM264 -367v210h662v-210h-662z" />
    <glyph glyph-name="uni1E9E" unicode="&#x1e9e;" horiz-adv-x="1447" 
d="M662 572v198l280 339q-76 57 -218 57q-144 0 -222.5 -74t-78.5 -197v-895h-280v906q0 81 20 155t65 141t112 116t166.5 78t222.5 29q201 0 339.5 -67.5t236.5 -192.5l-315 -374q167 -37 266 -139t99 -251q0 -194 -151.5 -310t-387.5 -116q-154 0 -258 25l50 254
q78 -21 165 -21q142 0 216 42.5t74 125.5q0 84 -76.5 127.5t-220.5 43.5h-104z" />
    <glyph glyph-name="Ygrave" unicode="&#x1ef2;" horiz-adv-x="1362" 
d="M1356 1400l-532 -848v-552h-279v553l-539 847h328l352 -594l352 594h318zM605 1518l-264 315h312l201 -315h-249z" />
    <glyph glyph-name="ygrave" unicode="&#x1ef3;" horiz-adv-x="1128" 
d="M1119 969l-741 -1373h-286l339 610l-418 763h296l266 -498l258 498h286zM492 1108l-264 315h312l201 -315h-249z" />
    <glyph glyph-name="uni1EF4" unicode="&#x1ef4;" horiz-adv-x="1362" 
d="M1356 1400l-532 -848v-552h-279v553l-539 847h328l352 -594l352 594h318zM683 -103q70 0 118.5 -48.5t48.5 -119.5q0 -70 -48 -118t-119 -48t-118.5 47.5t-47.5 118.5t48 119.5t118 48.5z" />
    <glyph glyph-name="uni1EF5" unicode="&#x1ef5;" horiz-adv-x="1128" 
d="M1119 969l-741 -1373h-286l339 610l-418 763h296l266 -498l258 498h286zM845 -103q70 0 118.5 -48.5t48.5 -119.5q0 -70 -48 -118t-119 -48t-118.5 47.5t-47.5 118.5t48 119.5t118 48.5z" />
    <glyph glyph-name="uni2007" unicode="&#x2007;" horiz-adv-x="1412" 
 />
    <glyph glyph-name="uni2008" unicode="&#x2008;" horiz-adv-x="554" 
 />
    <glyph glyph-name="uni2009" unicode="&#x2009;" horiz-adv-x="165" 
 />
    <glyph glyph-name="uni200B" unicode="&#x200b;" horiz-adv-x="0" 
 />
    <glyph glyph-name="uni2010" unicode="&#x2010;" horiz-adv-x="813" 
d="M702 646v-228h-591v228h591z" />
    <glyph glyph-name="uni2011" unicode="&#x2011;" horiz-adv-x="813" 
d="M702 646v-228h-591v228h591z" />
    <glyph glyph-name="figuredash" unicode="&#x2012;" 
d="M1084 644v-223h-968v223h968z" />
    <glyph glyph-name="endash" unicode="&#x2013;" horiz-adv-x="1158" 
d="M1063 644v-223h-968v223h968z" />
    <glyph glyph-name="emdash" unicode="&#x2014;" horiz-adv-x="1596" 
d="M1548 644v-223h-1500v223h1500z" />
    <glyph glyph-name="quoteleft" unicode="&#x2018;" horiz-adv-x="534" 
d="M383 844h-293l140 596h220z" />
    <glyph glyph-name="quoteright" unicode="&#x2019;" horiz-adv-x="534" 
d="M151 1440h293l-140 -596h-220z" />
    <glyph glyph-name="quotesinglbase" unicode="&#x201a;" horiz-adv-x="534" 
d="M151 316h293l-140 -596h-220z" />
    <glyph glyph-name="quotedblleft" unicode="&#x201c;" horiz-adv-x="968" 
d="M383 844h-293l140 596h220zM817 844h-293l140 596h220z" />
    <glyph glyph-name="quotedblright" unicode="&#x201d;" horiz-adv-x="967" 
d="M584 1440h293l-140 -596h-220zM151 1440h293l-140 -596h-220z" />
    <glyph glyph-name="quotedblbase" unicode="&#x201e;" horiz-adv-x="967" 
d="M584 316h293l-140 -596h-220zM151 316h293l-140 -596h-220z" />
    <glyph glyph-name="dagger" unicode="&#x2020;" horiz-adv-x="796" 
d="M500 602h-204v422h-216v199h216v217h204v-217h216v-199h-216v-422z" />
    <glyph glyph-name="daggerdbl" unicode="&#x2021;" horiz-adv-x="796" 
d="M500 1440v-166h216v-191h-216v-131h216v-191h-216v-166h-204v166h-216v191h216v131h-216v191h216v166h204z" />
    <glyph glyph-name="bullet" unicode="&#x2022;" horiz-adv-x="883" 
d="M442 849q131 0 224 -92.5t93 -224.5t-93 -224.5t-224 -92.5q-132 0 -224.5 92.5t-92.5 224.5t92.5 224.5t224.5 92.5z" />
    <glyph glyph-name="uni2023" unicode="&#x2023;" horiz-adv-x="1005" 
d="M923 533l-744 -432v862z" />
    <glyph glyph-name="ellipsis" unicode="&#x2026;" horiz-adv-x="1661" 
d="M278 363q77 0 135 -57.5t58 -135.5q0 -79 -58 -137t-135 -58q-78 0 -136.5 58t-58.5 137q0 78 58.5 135.5t136.5 57.5zM831 363q77 0 135 -57.5t58 -135.5q0 -79 -58 -137t-135 -58q-78 0 -136.5 58t-58.5 137q0 78 58.5 135.5t136.5 57.5zM1385 363q77 0 135 -57.5
t58 -135.5q0 -79 -58 -137t-135 -58q-79 0 -137 58t-58 137q0 78 58 135.5t137 57.5z" />
    <glyph glyph-name="perthousand" unicode="&#x2030;" horiz-adv-x="2835" 
d="M464 1425q168 0 279.5 -108.5t111.5 -272.5q0 -165 -111.5 -274t-279.5 -109q-167 0 -278.5 109t-111.5 274q0 163 111.5 272t278.5 109zM464 1216q-72 0 -120 -48.5t-48 -123.5q0 -76 48 -125t120 -49q74 0 121.5 49t47.5 125q0 75 -47.5 123.5t-121.5 48.5zM1588 1400
l-938 -1400h-262l939 1400h261zM1515 739q167 0 279 -110t112 -272q0 -164 -111.5 -273t-279.5 -109q-167 0 -278.5 109t-111.5 273q0 162 111.5 272t278.5 110zM1515 530q-73 0 -120.5 -48.5t-47.5 -124.5t47.5 -124.5t120.5 -48.5q74 0 121.5 48.5t47.5 124.5t-47.5 124.5
t-121.5 48.5zM2370 739q169 0 280.5 -109t111.5 -273t-111.5 -273t-280.5 -109q-167 0 -278 109t-111 273q0 163 111 272.5t278 109.5zM2370 530q-72 0 -119.5 -49t-47.5 -124t47.5 -124t119.5 -49q74 0 122 48.5t48 124.5t-48 124.5t-122 48.5z" />
    <glyph glyph-name="minute" unicode="&#x2032;" horiz-adv-x="566" 
d="M229 1400h247l-145 -681h-247z" />
    <glyph glyph-name="second" unicode="&#x2033;" horiz-adv-x="944" 
d="M607 1400h247l-145 -681h-247zM229 1400h247l-145 -681h-247z" />
    <glyph glyph-name="uni2034" unicode="&#x2034;" horiz-adv-x="1282" 
d="M587 1400h247l-145 -681h-247zM945 1400h247l-145 -681h-247zM229 1400h247l-145 -681h-247z" />
    <glyph glyph-name="guilsinglleft" unicode="&#x2039;" horiz-adv-x="638" 
d="M351 532l193 -390h-263l-193 390l193 390h263z" />
    <glyph glyph-name="guilsinglright" unicode="&#x203a;" horiz-adv-x="638" 
d="M287 533l-193 390h263l193 -390l-193 -390h-263z" />
    <glyph glyph-name="fraction" unicode="&#x2044;" horiz-adv-x="476" 
d="M800 1400l-883 -1400h-241l883 1400h241z" />
    <glyph glyph-name="uni2070" unicode="&#x2070;" horiz-adv-x="901" 
d="M450 1414q159 0 264.5 -115.5t105.5 -309.5q0 -195 -105.5 -310.5t-264.5 -115.5t-264 115.5t-105 310.5q0 194 105.5 309.5t263.5 115.5zM450 1226q-72 0 -118 -62t-46 -175t46 -175.5t118 -62.5q73 0 119 62.5t46 175.5t-46 175t-119 62z" />
    <glyph glyph-name="uni2071" unicode="&#x2071;" horiz-adv-x="393" 
d="M293 1268v-690h-193v690h193zM196 1613q52 0 87 -34.5t35 -86.5t-35 -87t-87 -35t-86.5 35t-34.5 87t34.5 86.5t86.5 34.5z" />
    <glyph glyph-name="uni2074" unicode="&#x2074;" horiz-adv-x="733" 
d="M597 1114v-221h104v-177h-104v-138h-197v138h-368v138l271 545h216l-255 -506h136v101l60 120h137z" />
    <glyph glyph-name="uni2075" unicode="&#x2075;" horiz-adv-x="747" 
d="M623 1400v-180h-326l-3 -125h71q147 0 228 -67t81 -178q0 -130 -89.5 -208.5t-229.5 -78.5q-93 0 -171 30.5t-131 81.5l103 140q35 -29 89.5 -51t108.5 -22q56 0 86 25t30 68q0 90 -146 90h-207l11 475h495z" />
    <glyph glyph-name="uni2076" unicode="&#x2076;" horiz-adv-x="754" 
d="M590 1400l-201 -276h12q138 0 219 -78t81 -195q0 -125 -93 -206.5t-233 -81.5q-139 0 -232.5 80t-93.5 202q0 110 84 231l221 324h236zM375 961q-52 0 -86 -31.5t-34 -80.5t34 -81t86 -32t86 32t34 81t-34 80.5t-86 31.5z" />
    <glyph glyph-name="uni2077" unicode="&#x2077;" horiz-adv-x="696" 
d="M655 1400v-154l-328 -668h-234l329 639h-373v183h606z" />
    <glyph glyph-name="uni2078" unicode="&#x2078;" horiz-adv-x="810" 
d="M404 1414q135 0 225 -64t90 -173q0 -126 -126 -184q147 -57 147 -191q0 -109 -96.5 -174t-239.5 -65t-239 65t-96 174q0 134 146 191q-125 58 -125 184q0 109 90 173t224 64zM404 918q-52 0 -86 -25t-34 -68q0 -45 34 -70.5t86 -25.5q53 0 87.5 25.5t34.5 70.5
q0 43 -34.5 68t-87.5 25zM404 1246q-46 0 -75.5 -23t-29.5 -64q0 -40 29.5 -63t75.5 -23t76 23t30 63q0 41 -29.5 64t-76.5 23z" />
    <glyph glyph-name="uni2079" unicode="&#x2079;" horiz-adv-x="754" 
d="M163 578l200 276h-11q-138 0 -219 77.5t-81 195.5q0 124 93 205.5t233 81.5q139 0 232.5 -79.5t93.5 -201.5q0 -112 -83 -232l-222 -323h-236zM378 1017q52 0 86 31.5t34 80.5t-34 80.5t-86 31.5t-86 -31.5t-34 -80.5t34 -80.5t86 -31.5z" />
    <glyph glyph-name="uni207F" unicode="&#x207f;" horiz-adv-x="848" 
d="M488 1287q117 0 191.5 -74.5t74.5 -193.5v-441h-195v379q0 72 -33.5 110t-94.5 38q-60 0 -99 -38.5t-39 -110.5v-378h-194v690h188v-80q66 99 201 99z" />
    <glyph glyph-name="uni2080" unicode="&#x2080;" horiz-adv-x="901" 
d="M450 451q159 0 264.5 -115.5t105.5 -309.5q0 -195 -105.5 -310.5t-264.5 -115.5t-264 115.5t-105 310.5q0 194 105.5 309.5t263.5 115.5zM450 263q-72 0 -118 -62t-46 -175t46 -175.5t118 -62.5q73 0 119 62.5t46 175.5t-46 175t-119 62z" />
    <glyph glyph-name="uni2081" unicode="&#x2081;" horiz-adv-x="553" 
d="M423 450v-835h-197v565l-185 -68v192z" />
    <glyph glyph-name="uni2082" unicode="&#x2082;" horiz-adv-x="725" 
d="M172 177l-119 129q118 145 306 145q133 0 212 -72.5t79 -192.5q0 -71 -30.5 -128t-100.5 -124l-144 -137h294v-182h-573v154l289 275q61 58 61 120q0 44 -30.5 71.5t-77.5 27.5q-49 0 -87.5 -22.5t-78.5 -63.5z" />
    <glyph glyph-name="uni2083" unicode="&#x2083;" horiz-adv-x="730" 
d="M333 451q138 0 224 -65t86 -172q0 -128 -121 -185q66 -26 102.5 -74t36.5 -112q0 -116 -94.5 -179.5t-228.5 -63.5q-193 0 -297 121l110 128q73 -75 177 -75q56 0 92 22t36 64q0 41 -41 63.5t-103 22.5h-94v167h96q55 0 90.5 22.5t35.5 61.5t-31 59.5t-84 20.5
q-102 0 -171 -77l-110 127q108 124 289 124z" />
    <glyph glyph-name="uni2084" unicode="&#x2084;" horiz-adv-x="733" 
d="M597 151v-221h104v-177h-104v-138h-197v138h-368v138l271 545h216l-255 -506h136v101l60 120h137z" />
    <glyph glyph-name="uni2085" unicode="&#x2085;" horiz-adv-x="747" 
d="M623 437v-180h-326l-3 -125h71q147 0 228 -67t81 -178q0 -130 -89.5 -208.5t-229.5 -78.5q-93 0 -171 30.5t-131 81.5l103 140q35 -29 89.5 -51t108.5 -22q56 0 86 25t30 68q0 90 -146 90h-207l11 475h495z" />
    <glyph glyph-name="uni2086" unicode="&#x2086;" horiz-adv-x="754" 
d="M590 437l-201 -276h12q138 0 219 -78t81 -195q0 -125 -93 -206.5t-233 -81.5q-139 0 -232.5 80t-93.5 202q0 110 84 231l221 324h236zM375 -2q-52 0 -86 -31.5t-34 -80.5t34 -81t86 -32t86 32t34 81t-34 80.5t-86 31.5z" />
    <glyph glyph-name="uni2087" unicode="&#x2087;" horiz-adv-x="696" 
d="M655 437v-154l-328 -668h-234l329 639h-373v183h606z" />
    <glyph glyph-name="uni2088" unicode="&#x2088;" horiz-adv-x="810" 
d="M404 451q135 0 225 -64t90 -173q0 -126 -126 -184q147 -57 147 -191q0 -109 -96.5 -174t-239.5 -65t-239 65t-96 174q0 134 146 191q-125 58 -125 184q0 109 90 173t224 64zM404 -45q-52 0 -86 -25t-34 -68q0 -45 34 -70.5t86 -25.5q53 0 87.5 25.5t34.5 70.5
q0 43 -34.5 68t-87.5 25zM404 283q-46 0 -75.5 -23t-29.5 -64q0 -40 29.5 -63t75.5 -23t76 23t30 63q0 41 -29.5 64t-76.5 23z" />
    <glyph glyph-name="uni2089" unicode="&#x2089;" horiz-adv-x="754" 
d="M163 -385l200 276h-11q-138 0 -219 77.5t-81 195.5q0 124 93 205.5t233 81.5q139 0 232.5 -79.5t93.5 -201.5q0 -112 -83 -232l-222 -323h-236zM378 54q52 0 86 31.5t34 80.5t-34 80.5t-86 31.5t-86 -31.5t-34 -80.5t34 -80.5t86 -31.5z" />
    <glyph glyph-name="Euro" unicode="&#x20ac;" horiz-adv-x="1400" 
d="M1043 633v-185h-507q47 -109 134.5 -168.5t200.5 -59.5q177 0 304 142l148 -194q-183 -193 -450 -193q-232 0 -397 126t-227 347h-174v185h144q-2 22 -2 67t2 67h-144v185h174q62 221 227 347t397 126q270 0 454 -190l-154 -198q-126 143 -303 143q-114 0 -201 -60
t-134 -168h508v-185h-552q-3 -33 -3 -67q0 -36 3 -67h552z" />
    <glyph glyph-name="uni20BA" unicode="&#x20ba;" horiz-adv-x="1400" 
d="M1001 859v-197l-421 -190v-216h164q111 0 194.5 55t150.5 175l219 -130q-101 -181 -241 -268.5t-342 -87.5h-415v350l-168 -75v197l168 75v131l-168 -75v197l168 75v527h270v-405l421 190v-197l-421 -190v-131z" />
    <glyph glyph-name="uni2100" unicode="&#x2100;" horiz-adv-x="2000" 
d="M505 1425q150 0 236.5 -77t86.5 -226v-406h-187v68q-84 -86 -208 -86q-113 0 -178.5 61t-65.5 161q0 98 77 155t212 57h154q-11 123 -148 123q-97 0 -188 -64l-75 147q115 87 284 87zM481 852q90 0 156 75v77h-130q-60 0 -88.5 -22t-28.5 -54t23 -54t68 -22zM1601 1400
l-883 -1400h-241l883 1400h241zM1530 702q88 0 160.5 -35t120.5 -100l-144 -114q-59 68 -142 68q-71 0 -118.5 -50.5t-47.5 -131.5q0 -82 47 -132.5t118 -50.5q84 0 145 69l142 -115q-103 -135 -281 -135q-164 0 -266.5 102.5t-102.5 261.5t102.5 261t266.5 102z" />
    <glyph glyph-name="uni2101" unicode="&#x2101;" horiz-adv-x="2000" 
d="M510 1425q150 0 236.5 -77t86.5 -226v-406h-187v68q-84 -86 -208 -86q-113 0 -178.5 61t-65.5 161q0 98 77 155t212 57h154q-11 123 -148 123q-97 0 -188 -64l-75 147q115 87 284 87zM486 852q90 0 156 75v77h-130q-60 0 -88.5 -22t-28.5 -54t23 -54t68 -22zM1606 1400
l-883 -1400h-241l883 1400h241zM1782 636l-62 -150q-120 55 -222 55q-100 0 -100 -58q0 -26 27 -37t85 -19l59 -9q231 -36 231 -207q0 -110 -84 -173t-234 -63q-196 0 -310 79l75 148q102 -67 237 -67q120 0 120 60q0 24 -26.5 37.5t-87.5 22.5l-52 7q-240 34 -240 211
q0 108 78 168t216 60q150 0 290 -65z" />
    <glyph glyph-name="uni2105" unicode="&#x2105;" horiz-adv-x="2000" 
d="M524 1425q88 0 160.5 -35t120.5 -100l-144 -114q-59 68 -142 68q-71 0 -118.5 -50.5t-47.5 -131.5q0 -82 47 -132.5t118 -50.5q84 0 145 69l142 -115q-103 -135 -281 -135q-164 0 -266.5 102.5t-102.5 261.5t102.5 261t266.5 102zM1547 1400l-883 -1400h-241l883 1400
h241zM1473 702q161 0 267 -103.5t106 -259.5t-106 -260t-267 -104t-267.5 104t-106.5 260t106.5 259.5t267.5 103.5zM1473 521q-76 0 -126 -51t-50 -131t50 -131.5t126 -51.5t126 51.5t50 131.5t-50 131t-126 51z" />
    <glyph glyph-name="uni2106" unicode="&#x2106;" horiz-adv-x="2000" 
d="M515 1425q88 0 160.5 -35t120.5 -100l-144 -114q-59 68 -142 68q-71 0 -118.5 -50.5t-47.5 -131.5q0 -82 47 -132.5t118 -50.5q84 0 145 69l142 -115q-103 -135 -281 -135q-164 0 -266.5 102.5t-102.5 261.5t102.5 261t266.5 102zM1539 1400l-883 -1400h-241l883 1400
h241zM1854 683v-395q0 -155 -93 -234t-235 -79q-67 0 -125 18.5t-104 55.5t-72.5 98.5t-26.5 140.5v395h194v-378q0 -75 36.5 -112t97.5 -37q62 0 98.5 37t36.5 112v378h193z" />
    <glyph glyph-name="uni2113" unicode="&#x2113;" horiz-adv-x="1045" 
d="M178 366l-77 219q74 26 154 62l2 426q1 174 98 283t258 109q147 0 242 -93.5t95 -240.5q-1 -366 -450 -619v-151q0 -72 37 -108.5t97 -36.5q86 0 186 64l102 -198q-141 -99 -307 -99q-172 0 -266 93.5t-94 275.5v43q-61 -23 -77 -29zM501 1063l-1 -273q205 155 205 330
q0 55 -24 86t-68 31q-50 0 -81 -45t-31 -129z" />
    <glyph glyph-name="uni2116" unicode="&#x2116;" horiz-adv-x="2441" 
d="M2360 582v-217h-707v217h707zM2006 1419q161 0 267.5 -104t106.5 -260t-106.5 -259.5t-267.5 -103.5q-160 0 -266 103.5t-106 259.5t106 260t266 104zM2006 1233q-73 0 -122 -50t-49 -128q0 -77 49 -127.5t122 -50.5q74 0 123 50t49 128t-49 128t-123 50zM1411 1400
v-1400h-262l-710 935l-1 -935h-279v1400h261l711 -935v935h280z" />
    <glyph glyph-name="uni2117" unicode="&#x2117;" horiz-adv-x="1865" 
d="M933 1519q168 0 320 -64t262 -172.5t175 -258t65 -313.5t-65 -314t-175 -258.5t-262 -173t-320 -64.5t-320.5 64.5t-262.5 173t-175 258.5t-65 314q0 131 41.5 254.5t117.5 222.5t177 174t227 116t260 41zM933 1298q-161 0 -297.5 -78.5t-216 -213.5t-79.5 -295
t79.5 -296t216 -214.5t297.5 -78.5q120 0 230 46.5t189 125.5t126 188t47 229t-47 228.5t-126 187t-189 125t-230 46.5zM624 1117h375q167 0 258 -75.5t91 -203.5q0 -125 -90.5 -199t-256.5 -74h-162v-272h-215v824zM995 929h-156v-181h156q134 0 134 90q0 44 -34 67.5
t-100 23.5z" />
    <glyph glyph-name="uni2120" unicode="&#x2120;" horiz-adv-x="1643" 
d="M657 1350l-71 -135q-109 50 -193 50q-52 0 -84 -14t-32 -40q0 -14 10 -24t34.5 -16.5t41.5 -9.5t56 -8l31 -4q105 -12 165 -59t60 -123q0 -114 -86 -171t-211 -57q-183 0 -298 74l80 135q106 -61 219 -61q118 0 118 55q0 27 -31.5 38.5t-107.5 19.5l-36 4
q-108 11 -166 59.5t-58 131.5q0 97 80.5 157t207.5 60q145 0 271 -62zM1579 753h-178v419l-131 -359h-178l-133 360v-420h-177v647h249l150 -388l149 388h249v-647z" />
    <glyph glyph-name="trademark" unicode="&#x2122;" horiz-adv-x="1620" 
d="M1556 753h-178v419l-131 -359h-178l-134 360v-420h-176v647h249l150 -388l149 388h249v-647zM445 753h-177v485h-204v162h585v-162h-204v-485z" />
    <glyph glyph-name="Omega" unicode="&#x2126;" horiz-adv-x="1702" 
d="M64 254h252q-96 90 -148 210t-52 259q0 200 93 360.5t261.5 251.5t380.5 91t380.5 -91t261.5 -251.5t93 -360.5q0 -139 -52 -259t-148 -210h252v-254h-645v226q138 44 220 166t82 292q0 210 -124.5 342t-319.5 132t-319.5 -132t-124.5 -342q0 -170 82 -292t220 -166v-226
h-645v254z" />
    <glyph glyph-name="estimated" unicode="&#x212e;" horiz-adv-x="2000" 
d="M503 650v-306q0 -93 31 -158.5t105 -107.5q166 -95 361 -95q185 0 340 80t251 224l81 -62q-110 -162 -287 -252.5t-385 -90.5q-166 0 -315 59.5t-258.5 165t-174 259.5t-64.5 334t64.5 334t174 259.5t258.5 165t315 59.5t315 -59.5t258.5 -165t174 -259.5t64.5 -334
q0 -34 -2 -50h-1307zM503 750h1006v296q0 92 -30 157t-102 109q-173 105 -377 105q-195 0 -361 -95q-74 -42 -105 -107.5t-31 -158.5v-306z" />
    <glyph glyph-name="uni214D" unicode="&#x214d;" horiz-adv-x="2053" 
d="M635 1400l265 -743h-205l-42 133h-269l-41 -133h-203l265 743h230zM1874 686l-80 -158q-106 57 -213 57q-54 0 -87.5 -15t-33.5 -43q0 -8 2.5 -14t8.5 -11t11.5 -9t16.5 -7.5t19 -5.5t23 -4.5l24 -4t26.5 -4.5t27.5 -4l30 -5q246 -38 246 -211q0 -89 -49 -149.5
t-120.5 -85.5t-159.5 -25q-203 0 -330 85l90 156q123 -71 243 -71q55 0 88 15.5t33 46.5q0 29 -32.5 41t-117.5 23l-37 5q-247 30 -247 221q0 111 87.5 179t227.5 68q95 0 162.5 -17t140.5 -53zM519 1218l-80 -254h160zM1659 1400l-883 -1400h-241l883 1400h241z" />
    <glyph glyph-name="uni2150" unicode="&#x2150;" horiz-adv-x="1786" 
d="M1380 1400l-883 -1400h-241l883 1400h241zM1745 822v-154l-328 -668h-234l329 639h-373v183h606zM423 1413v-835h-197v565l-185 -68v192z" />
    <glyph glyph-name="uni2151" unicode="&#x2151;" horiz-adv-x="1810" 
d="M1380 1400l-883 -1400h-241l883 1400h241zM1219 0l200 276h-11q-138 0 -219 77.5t-81 195.5q0 124 93 205.5t233 81.5q139 0 232.5 -79.5t93.5 -201.5q0 -112 -83 -232l-222 -323h-236zM1434 439q52 0 86 31.5t34 80.5t-34 80.5t-86 31.5t-86 -31.5t-34 -80.5t34 -80.5
t86 -31.5zM423 1413v-835h-197v565l-185 -68v192z" />
    <glyph glyph-name="uni2152" unicode="&#x2152;" horiz-adv-x="2530" 
d="M1380 1400l-883 -1400h-241l883 1400h241zM1499 835v-835h-197v565l-185 -68v192zM2079 836q159 0 264.5 -115.5t105.5 -309.5q0 -195 -105.5 -310.5t-264.5 -115.5t-264 115.5t-105 310.5q0 194 105.5 309.5t263.5 115.5zM2079 648q-72 0 -118 -62t-46 -175t46 -175.5
t118 -62.5q73 0 119 62.5t46 175.5t-46 175t-119 62zM423 1413v-835h-197v565l-185 -68v192z" />
    <glyph glyph-name="onethird" unicode="&#x2153;" horiz-adv-x="1786" 
d="M1380 1400l-883 -1400h-241l883 1400h241zM1389 836q138 0 224 -65t86 -172q0 -128 -121 -185q66 -26 102.5 -74t36.5 -112q0 -116 -94.5 -179.5t-228.5 -63.5q-193 0 -297 121l110 128q73 -75 177 -75q56 0 92 22t36 64q0 41 -41 63.5t-103 22.5h-94v167h96
q55 0 90.5 22.5t35.5 61.5t-31 59.5t-84 20.5q-102 0 -171 -77l-110 127q108 124 289 124zM423 1413v-835h-197v565l-185 -68v192z" />
    <glyph glyph-name="twothirds" unicode="&#x2154;" horiz-adv-x="1962" 
d="M1555 1400l-883 -1400h-241l883 1400h241zM1564 836q138 0 224 -65t86 -172q0 -128 -121 -185q66 -26 102.5 -74t36.5 -112q0 -116 -94.5 -179.5t-228.5 -63.5q-193 0 -297 121l110 128q73 -75 177 -75q56 0 92 22t36 64q0 41 -41 63.5t-103 22.5h-94v167h96
q55 0 90.5 22.5t35.5 61.5t-31 59.5t-84 20.5q-102 0 -171 -77l-110 127q109 124 289 124zM172 1140l-119 129q118 145 306 145q133 0 212 -72.5t79 -192.5q0 -71 -30.5 -128t-100.5 -124l-144 -137h294v-182h-573v154l289 275q61 58 61 120q0 44 -30.5 71.5t-77.5 27.5
q-49 0 -87.5 -22.5t-78.5 -63.5z" />
    <glyph glyph-name="uni2155" unicode="&#x2155;" horiz-adv-x="1803" 
d="M1380 1400l-883 -1400h-241l883 1400h241zM1679 822v-180h-326l-3 -125h71q147 0 228 -67t81 -178q0 -130 -89.5 -208.5t-229.5 -78.5q-93 0 -171 30.5t-131 81.5l103 140q35 -29 89.5 -51t108.5 -22q56 0 86 25t30 68q0 90 -146 90h-207l11 475h495zM423 1413v-835h-197
v565l-185 -68v192z" />
    <glyph glyph-name="uni2156" unicode="&#x2156;" horiz-adv-x="1978" 
d="M1555 1400l-883 -1400h-241l883 1400h241zM1854 822v-180h-326l-3 -125h71q147 0 228 -67t81 -178q0 -130 -89.5 -208.5t-229.5 -78.5q-93 0 -171 30.5t-131 81.5l103 140q35 -29 89.5 -51t108.5 -22q56 0 86 25t30 68q0 90 -146 90h-207l11 475h495zM172 1140l-119 129
q118 145 306 145q133 0 212 -72.5t79 -192.5q0 -71 -30.5 -128t-100.5 -124l-144 -137h294v-182h-573v154l289 275q61 58 61 120q0 44 -30.5 71.5t-77.5 27.5q-49 0 -87.5 -22.5t-78.5 -63.5z" />
    <glyph glyph-name="uni2157" unicode="&#x2157;" horiz-adv-x="1953" 
d="M1530 1400l-883 -1400h-241l883 1400h241zM1829 822v-180h-326l-3 -125h71q147 0 228 -67t81 -178q0 -130 -89.5 -208.5t-229.5 -78.5q-93 0 -171 30.5t-131 81.5l103 140q35 -29 89.5 -51t108.5 -22q56 0 86 25t30 68q0 90 -146 90h-207l11 475h495zM333 1414
q138 0 224 -65t86 -172q0 -128 -121 -185q66 -26 102.5 -74t36.5 -112q0 -116 -94.5 -179.5t-228.5 -63.5q-193 0 -297 121l110 128q73 -75 177 -75q56 0 92 22t36 64q0 41 -41 63.5t-103 22.5h-94v167h96q55 0 90.5 22.5t35.5 61.5t-31 59.5t-84 20.5q-102 0 -171 -77
l-110 127q108 124 289 124z" />
    <glyph glyph-name="uni2158" unicode="&#x2158;" horiz-adv-x="1958" 
d="M1536 1400l-883 -1400h-241l883 1400h241zM1835 822v-180h-326l-3 -125h71q147 0 228 -67t81 -178q0 -130 -89.5 -208.5t-229.5 -78.5q-93 0 -171 30.5t-131 81.5l103 140q35 -29 89.5 -51t108.5 -22q56 0 86 25t30 68q0 90 -146 90h-207l11 475h495zM597 1114v-221h104
v-177h-104v-138h-197v138h-368v138l271 545h216l-255 -506h136v101l60 120h137z" />
    <glyph glyph-name="uni2159" unicode="&#x2159;" horiz-adv-x="1723" 
d="M1380 1400l-883 -1400h-241l883 1400h241zM1559 822l-201 -276h12q138 0 219 -78t81 -195q0 -125 -93 -206.5t-233 -81.5q-139 0 -232.5 80t-93.5 202q0 110 84 231l221 324h236zM1344 383q-52 0 -86 -31.5t-34 -80.5t34 -81t86 -32t86 32t34 81t-34 80.5t-86 31.5z
M423 1413v-835h-197v565l-185 -68v192z" />
    <glyph glyph-name="uni215A" unicode="&#x215a;" horiz-adv-x="1883" 
d="M1540 1400l-883 -1400h-241l883 1400h241zM1718 822l-201 -276h12q138 0 219 -78t81 -195q0 -125 -93 -206.5t-233 -81.5q-139 0 -232.5 80t-93.5 202q0 110 84 231l221 324h236zM1503 383q-52 0 -86 -31.5t-34 -80.5t34 -81t86 -32t86 32t34 81t-34 80.5t-86 31.5z
M623 1400v-180h-326l-3 -125h71q147 0 228 -67t81 -178q0 -130 -89.5 -208.5t-229.5 -78.5q-93 0 -171 30.5t-131 81.5l103 140q35 -29 89.5 -51t108.5 -22q56 0 86 25t30 68q0 90 -146 90h-207l11 475h495z" />
    <glyph glyph-name="oneeighth" unicode="&#x215b;" horiz-adv-x="1846" 
d="M1380 1400l-883 -1400h-241l883 1400h241zM1440 836q135 0 225 -64t90 -173q0 -126 -126 -184q147 -57 147 -191q0 -109 -96.5 -174t-239.5 -65t-239 65t-96 174q0 134 146 191q-125 58 -125 184q0 109 90 173t224 64zM1440 340q-52 0 -86 -25t-34 -68q0 -45 34 -70.5
t86 -25.5q53 0 87.5 25.5t34.5 70.5q0 43 -34.5 68t-87.5 25zM1440 668q-46 0 -75.5 -23t-29.5 -64q0 -40 29.5 -63t75.5 -23t76 23t30 63q0 41 -29.5 64t-76.5 23zM423 1413v-835h-197v565l-185 -68v192z" />
    <glyph glyph-name="threeeighths" unicode="&#x215c;" horiz-adv-x="1996" 
d="M1530 1400l-883 -1400h-241l883 1400h241zM1590 836q135 0 225 -64t90 -173q0 -126 -126 -184q147 -57 147 -191q0 -109 -96.5 -174t-239.5 -65t-239 65t-96 174q0 134 146 191q-125 58 -125 184q0 109 90 173t224 64zM1590 340q-52 0 -86 -25t-34 -68q0 -45 34 -70.5
t86 -25.5q53 0 87.5 25.5t34.5 70.5q0 43 -34.5 68t-87.5 25zM1590 668q-46 0 -75.5 -23t-29.5 -64q0 -40 29.5 -63t75.5 -23t76 23t30 63q0 41 -29.5 64t-76.5 23zM333 1414q138 0 224 -65t86 -172q0 -128 -121 -185q66 -26 102.5 -74t36.5 -112q0 -116 -94.5 -179.5
t-228.5 -63.5q-193 0 -297 121l110 128q73 -75 177 -75q56 0 92 22t36 64q0 41 -41 63.5t-103 22.5h-94v167h96q55 0 90.5 22.5t35.5 61.5t-31 59.5t-84 20.5q-102 0 -171 -77l-110 127q108 124 289 124z" />
    <glyph glyph-name="fiveeighths" unicode="&#x215d;" horiz-adv-x="2005" 
d="M1540 1400l-883 -1400h-241l883 1400h241zM1599 836q135 0 225 -64t90 -173q0 -126 -126 -184q147 -57 147 -191q0 -109 -96.5 -174t-239.5 -65t-239 65t-96 174q0 134 146 191q-125 58 -125 184q0 109 90 173t224 64zM1599 340q-52 0 -86 -25t-34 -68q0 -45 34 -70.5
t86 -25.5q53 0 87.5 25.5t34.5 70.5q0 43 -34.5 68t-87.5 25zM1599 668q-46 0 -75.5 -23t-29.5 -64q0 -40 29.5 -63t75.5 -23t76 23t30 63q0 41 -29.5 64t-76.5 23zM623 1400v-180h-326l-3 -125h71q147 0 228 -67t81 -178q0 -130 -89.5 -208.5t-229.5 -78.5q-93 0 -171 30.5
t-131 81.5l103 140q35 -29 89.5 -51t108.5 -22q56 0 86 25t30 68q0 90 -146 90h-207l11 475h495z" />
    <glyph glyph-name="seveneighths" unicode="&#x215e;" horiz-adv-x="1841" 
d="M1376 1400l-883 -1400h-241l883 1400h241zM1436 836q135 0 225 -64t90 -173q0 -126 -126 -184q147 -57 147 -191q0 -109 -96.5 -174t-239.5 -65t-239 65t-96 174q0 134 146 191q-125 58 -125 184q0 109 90 173t224 64zM1436 340q-52 0 -86 -25t-34 -68q0 -45 34 -70.5
t86 -25.5q53 0 87.5 25.5t34.5 70.5q0 43 -34.5 68t-87.5 25zM1436 668q-46 0 -75.5 -23t-29.5 -64q0 -40 29.5 -63t75.5 -23t76 23t30 63q0 41 -29.5 64t-76.5 23zM655 1400v-154l-328 -668h-234l329 639h-373v183h606z" />
    <glyph glyph-name="uni215F" unicode="&#x215f;" horiz-adv-x="1056" 
d="M1380 1400l-883 -1400h-241l883 1400h241zM423 1413v-835h-197v565l-185 -68v192z" />
    <glyph glyph-name="uni2189" unicode="&#x2189;" horiz-adv-x="2051" 
d="M1645 1400l-883 -1400h-241l883 1400h241zM1654 836q138 0 224 -65t86 -172q0 -128 -121 -185q66 -26 102.5 -74t36.5 -112q0 -116 -94.5 -179.5t-228.5 -63.5q-193 0 -297 121l110 128q73 -75 177 -75q56 0 92 22t36 64q0 41 -41 63.5t-103 22.5h-94v167h96
q55 0 90.5 22.5t35.5 61.5t-31 59.5t-84 20.5q-102 0 -171 -77l-110 127q109 124 289 124zM450 1414q159 0 264.5 -115.5t105.5 -309.5q0 -195 -105.5 -310.5t-264.5 -115.5t-264 115.5t-105 310.5q0 194 105.5 309.5t263.5 115.5zM450 1226q-72 0 -118 -62t-46 -175
t46 -175.5t118 -62.5q73 0 119 62.5t46 175.5t-46 175t-119 62z" />
    <glyph glyph-name="arrowleft" unicode="&#x2190;" horiz-adv-x="2000" 
d="M1829 548h-970q-165 0 -284 8q95 -77 264 -242l147 -146l-161 -161l-654 655l654 654l161 -161l-147 -145q-157 -155 -264 -243q119 9 284 9h970v-228z" />
    <glyph glyph-name="arrowup" unicode="&#x2191;" horiz-adv-x="2000" 
d="M886 -124v970q0 165 8 284q-86 -106 -242 -264l-146 -147l-160 161l654 654l654 -654l-160 -161l-146 147q-156 158 -242 264q8 -119 8 -284v-970h-228z" />
    <glyph glyph-name="arrowright" unicode="&#x2192;" horiz-adv-x="2000" 
d="M171 776h970q165 0 284 -9q-107 88 -264 243l-147 145l161 161l654 -654l-654 -655l-161 161l147 146q169 165 264 242q-119 -8 -284 -8h-970v228z" />
    <glyph glyph-name="arrowdown" unicode="&#x2193;" horiz-adv-x="2000" 
d="M1114 1534v-970q0 -165 -8 -284q86 106 242 264l146 147l160 -161l-654 -654l-654 654l160 161l146 -147q156 -158 242 -264q-8 119 -8 284v970h228z" />
    <glyph glyph-name="uni2196" unicode="&#x2196;" horiz-adv-x="2000" 
d="M1465 11l-686 687q-138 140 -195 206q13 -133 15 -358l1 -207h-227v926h925v-228l-207 1q-225 2 -358 16q104 -91 206 -195l687 -687z" />
    <glyph glyph-name="uni2197" unicode="&#x2197;" horiz-adv-x="2000" 
d="M333 156l686 686q103 105 206 195q-132 -13 -357 -15l-207 -1v227h926v-925h-228l1 207q0 206 15 358q-78 -90 -194 -206l-687 -687z" />
    <glyph glyph-name="uni2198" unicode="&#x2198;" horiz-adv-x="2000" 
d="M495 1329l686 -687q117 -117 195 -206q-14 131 -16 358l-1 207h228v-926h-926v228l207 -1q225 -2 358 -16q-104 91 -206 195l-687 687z" />
    <glyph glyph-name="uni2199" unicode="&#x2199;" horiz-adv-x="2000" 
d="M1627 1150l-686 -686q-103 -105 -206 -195q151 15 358 15l206 1v-227h-926v925h228l-1 -206q0 -205 -15 -358q64 74 194 206l687 687z" />
    <glyph glyph-name="partialdiff" unicode="&#x2202;" horiz-adv-x="1191" 
d="M263 1270l138 185q150 -59 271.5 -143.5t203 -179.5t136 -204.5t79 -218t24.5 -220.5q0 -222 -147.5 -368t-377.5 -146q-222 0 -370 137.5t-148 343.5q0 209 134.5 348t334.5 139q139 0 243 -85q-133 243 -521 412zM596 713q-111 0 -184 -70.5t-73 -182.5q0 -110 73 -181
t184 -71t184 71t73 181q0 112 -73 182.5t-184 70.5z" />
    <glyph glyph-name="uni2300" unicode="&#x2205;" horiz-adv-x="1403" 
d="M1086 1062l158 -157l-115 -114q79 -125 79 -271q0 -137 -68 -253.5t-184.5 -184.5t-254.5 -68q-146 0 -270 78l-115 -114l-157 157l114 114q-79 123 -79 271q0 137 68 254t184.5 185t254.5 68q146 0 271 -79zM417 520q0 -63 27 -122l378 378q-58 28 -121 28
q-118 0 -201 -83.5t-83 -200.5zM701 237q117 0 200.5 83t83.5 200q0 62 -27 119l-375 -376q55 -26 118 -26z" />
    <glyph glyph-name="uni2300" unicode="&#x2300;" horiz-adv-x="1403" 
d="M1086 1062l158 -157l-115 -114q79 -125 79 -271q0 -137 -68 -253.5t-184.5 -184.5t-254.5 -68q-146 0 -270 78l-115 -114l-157 157l114 114q-79 123 -79 271q0 137 68 254t184.5 185t254.5 68q146 0 271 -79zM417 520q0 -63 27 -122l378 378q-58 28 -121 28
q-118 0 -201 -83.5t-83 -200.5zM701 237q117 0 200.5 83t83.5 200q0 62 -27 119l-375 -376q55 -26 118 -26z" />
    <glyph glyph-name="Delta" unicode="&#x2206;" horiz-adv-x="1387" 
d="M863 1400l460 -1182v-218h-1259v218l460 1182h339zM693 1125l-324 -864h648z" />
    <glyph glyph-name="product" unicode="&#x220f;" horiz-adv-x="1474" 
d="M1315 1400v-1665h-279v1404h-598v-1404h-279v1665h1156z" />
    <glyph glyph-name="summation" unicode="&#x2211;" horiz-adv-x="1273" 
d="M1175 1400v-261h-673l443 -482v-162l-450 -499h683v-261h-1083v218l560 618l-556 611v218h1076z" />
    <glyph glyph-name="minus" unicode="&#x2212;" 
d="M1060 644v-223h-920v223h920z" />
    <glyph glyph-name="uni2219" unicode="&#x2219;" 
d="M600 849q131 0 224 -92.5t93 -224.5t-93 -224.5t-224 -92.5q-132 0 -224.5 92.5t-92.5 224.5t92.5 224.5t224.5 92.5z" />
    <glyph glyph-name="radical" unicode="&#x221a;" horiz-adv-x="1308" 
d="M1287 1440l-553 -1705h-340l-376 1000h302l244 -680l432 1385h291z" />
    <glyph glyph-name="infinity" unicode="&#x221e;" horiz-adv-x="1720" 
d="M41 524q0 188 120.5 304.5t291.5 116.5q48 0 93 -13.5t81.5 -33.5t79 -56t75 -69t78.5 -84q60 65 99.5 103.5t91.5 78t105 57t112 17.5q111 0 204 -50.5t150 -148t57 -222.5q0 -126 -57 -223.5t-150 -148t-204 -50.5q-59 0 -112 17.5t-105 57t-91.5 78t-99.5 103.5
q-46 -51 -78.5 -84t-75 -69t-79 -56t-81.5 -33.5t-93 -13.5q-171 0 -291.5 116.5t-120.5 305.5zM278 524q0 -94 49.5 -146.5t125.5 -52.5q50 0 99 40.5t156 157.5v1q-107 117 -156 157.5t-99 40.5q-76 0 -125.5 -52.5t-49.5 -145.5zM1443 524q0 93 -49.5 145.5t-125.5 52.5
q-50 0 -99 -40.5t-157 -157.5h1l-1 -1q108 -117 157 -157.5t99 -40.5q76 0 125.5 52.5t49.5 146.5z" />
    <glyph glyph-name="integral" unicode="&#x222b;" horiz-adv-x="656" 
d="M670 1409l-60 -233q-26 6 -52 6q-114 0 -114 -136v-960q0 -174 -90 -275t-257 -101q-79 0 -139 16l59 233q25 -6 52 -6q114 0 114 136v960q0 174 90 275t257 101q79 0 140 -16z" />
    <glyph glyph-name="congruent" unicode="&#x2245;" 
d="M1060 432v-223h-920v223h920zM1060 856v-223h-920v223h920zM957 1321l126 -159q-119 -143 -297 -143q-79 0 -148.5 22.5t-126.5 44.5t-107 22q-70 0 -160 -87l-126 159q117 143 296 143q80 0 149.5 -22.5t126.5 -44.5t107 -22q70 0 160 87z" />
    <glyph glyph-name="approxequal" unicode="&#x2248;" 
d="M957 890l126 -159q-119 -143 -297 -143q-63 0 -120.5 14t-94 30.5t-81.5 30.5t-86 14q-70 0 -160 -87l-126 159q117 143 296 143q63 0 121 -14t94.5 -30.5t81.5 -30.5t86 -14q70 0 160 87zM957 470l126 -159q-119 -143 -297 -143q-63 0 -120.5 14t-94 30.5t-81.5 30.5
t-86 14q-70 0 -160 -87l-126 159q117 143 296 143q63 0 121 -14t94.5 -30.5t81.5 -30.5t86 -14q70 0 160 87z" />
    <glyph glyph-name="uni2259" unicode="&#x2259;" 
d="M1060 432v-223h-920v223h920zM1060 856v-223h-920v223h920zM976 1019h-253l-123 153l-122 -153h-253l218 315h315z" />
    <glyph glyph-name="notequal" unicode="&#x2260;" 
d="M1060 432v-223h-492l-96 -209h-233l96 209h-195v223h298l93 201h-391v223h494l97 209h233l-97 -209h193v-223h-296l-93 -201h389z" />
    <glyph glyph-name="lessequal" unicode="&#x2264;" 
d="M1010 1167v-258l-545 -195l545 -194v-258l-819 330v244zM191 0v223h819v-223h-819z" />
    <glyph glyph-name="greaterequal" unicode="&#x2265;" 
d="M191 909v258l819 -331v-244l-819 -330v258l545 194zM1010 223v-223h-819v223h819z" />
    <glyph glyph-name="dotmath" unicode="&#x22c5;" 
d="M601 726q77 0 135 -57.5t58 -135.5q0 -79 -58 -137t-135 -58q-78 0 -136.5 58t-58.5 137q0 78 58.5 135.5t136.5 57.5z" />
    <glyph glyph-name="uni2460" unicode="&#x2460;" horiz-adv-x="2050" 
d="M1025 1604q187 0 357 -71.5t293 -192.5t195.5 -288t72.5 -351t-72.5 -351.5t-195.5 -288.5t-293 -193t-357 -72t-357 72t-293 193t-195.5 288.5t-72.5 351.5t72.5 351t195.5 288t293 192.5t357 71.5zM1025 1368q-137 0 -261 -52.5t-214 -142t-143 -213t-53 -259.5
t53 -260t143 -213.5t214 -142.5t261 -53q183 0 337.5 89.5t244.5 243.5t90 336q0 136 -53 259.5t-143 213t-214.5 142t-261.5 52.5zM1164 1147v-863h-205v581l-208 -74v201z" />
    <glyph glyph-name="uni2461" unicode="&#x2461;" horiz-adv-x="2050" 
d="M1025 1604q187 0 357 -71.5t293 -192.5t195.5 -288t72.5 -351t-72.5 -351.5t-195.5 -288.5t-293 -193t-357 -72t-357 72t-293 193t-195.5 288.5t-72.5 351.5t72.5 351t195.5 288t293 192.5t357 71.5zM1025 1368q-137 0 -261 -52.5t-214 -142t-143 -213t-53 -259.5
t53 -260t143 -213.5t214 -142.5t261 -53q183 0 337.5 89.5t244.5 243.5t90 336q0 136 -53 259.5t-143 213t-214.5 142t-261.5 52.5zM830 864l-127 134q126 151 321 151q139 0 222.5 -76t83.5 -201q0 -74 -34 -133.5t-106 -126.5l-149 -137h307v-191h-600v162l303 282
q65 62 65 123q0 45 -32 73t-82 28q-51 0 -90.5 -23t-81.5 -65z" />
    <glyph glyph-name="uni2462" unicode="&#x2462;" horiz-adv-x="2050" 
d="M1025 1604q187 0 357 -71.5t293 -192.5t195.5 -288t72.5 -351t-72.5 -351.5t-195.5 -288.5t-293 -193t-357 -72t-357 72t-293 193t-195.5 288.5t-72.5 351.5t72.5 351t195.5 288t293 192.5t357 71.5zM1025 1368q-137 0 -261 -52.5t-214 -142t-143 -213t-53 -259.5
t53 -260t143 -213.5t214 -142.5t261 -53q183 0 337.5 89.5t244.5 243.5t90 336q0 136 -53 259.5t-143 213t-214.5 142t-261.5 52.5zM1016 1149q144 0 234 -67.5t90 -178.5q0 -135 -129 -192q70 -27 108.5 -75.5t38.5 -115.5q0 -81 -49 -140t-123.5 -85.5t-164.5 -26.5
q-203 0 -311 125l115 133q77 -77 186 -77q59 0 96.5 22.5t37.5 64.5q0 43 -42.5 66.5t-107.5 23.5h-100v173h101q58 0 95.5 22.5t37.5 63.5q0 40 -33 61t-89 21q-106 0 -178 -80l-116 134q114 128 303 128z" />
    <glyph glyph-name="uni2463" unicode="&#x2463;" horiz-adv-x="2050" 
d="M1025 1604q187 0 357 -71.5t293 -192.5t195.5 -288t72.5 -351t-72.5 -351.5t-195.5 -288.5t-293 -193t-357 -72t-357 72t-293 193t-195.5 288.5t-72.5 351.5t72.5 351t195.5 288t293 192.5t357 71.5zM1025 1368q-137 0 -261 -52.5t-214 -142t-143 -213t-53 -259.5
t53 -260t143 -213.5t214 -142.5t261 -53q183 0 337.5 89.5t244.5 243.5t90 336q0 136 -53 259.5t-143 213t-214.5 142t-261.5 52.5zM1250 840v-227h109v-187h-109v-142h-205v142h-386v143l284 564h226l-266 -520h142v88l70 139h135z" />
    <glyph glyph-name="uni2464" unicode="&#x2464;" horiz-adv-x="2050" 
d="M1025 1604q187 0 357 -71.5t293 -192.5t195.5 -288t72.5 -351t-72.5 -351.5t-195.5 -288.5t-293 -193t-357 -72t-357 72t-293 193t-195.5 288.5t-72.5 351.5t72.5 351t195.5 288t293 192.5t357 71.5zM1025 1368q-137 0 -261 -52.5t-214 -142t-143 -213t-53 -259.5
t53 -260t143 -213.5t214 -142.5t261 -53q183 0 337.5 89.5t244.5 243.5t90 336q0 136 -53 259.5t-143 213t-214.5 142t-261.5 52.5zM1308 1134v-189h-341l-4 -127h82q151 0 233.5 -69t82.5 -184q0 -134 -93.5 -215.5t-239.5 -81.5q-97 0 -179 32t-138 85l101 152
q36 -32 96 -57t119 -25t90 26t31 69q0 92 -154 92h-215l11 492h518z" />
    <glyph glyph-name="uni2465" unicode="&#x2465;" horiz-adv-x="2050" 
d="M1025 1604q187 0 357 -71.5t293 -192.5t195.5 -288t72.5 -351t-72.5 -351.5t-195.5 -288.5t-293 -193t-357 -72t-357 72t-293 193t-195.5 288.5t-72.5 351.5t72.5 351t195.5 288t293 192.5t357 71.5zM1025 1368q-137 0 -261 -52.5t-214 -142t-143 -213t-53 -259.5
t53 -260t143 -213.5t214 -142.5t261 -53q183 0 337.5 89.5t244.5 243.5t90 336q0 136 -53 259.5t-143 213t-214.5 142t-261.5 52.5zM1242 1134l-210 -285h12q142 0 227 -80.5t85 -201.5q0 -129 -97 -214t-242 -85t-242.5 83t-97.5 209q0 110 88 240l229 334h248zM1017 678
q-53 0 -88.5 -32.5t-35.5 -81.5t35 -81t89 -32q53 0 88.5 32t35.5 81t-35.5 81.5t-88.5 32.5z" />
    <glyph glyph-name="uni2466" unicode="&#x2466;" horiz-adv-x="2050" 
d="M1025 1604q187 0 357 -71.5t293 -192.5t195.5 -288t72.5 -351t-72.5 -351.5t-195.5 -288.5t-293 -193t-357 -72t-357 72t-293 193t-195.5 288.5t-72.5 351.5t72.5 351t195.5 288t293 192.5t357 71.5zM1025 1368q-137 0 -261 -52.5t-214 -142t-143 -213t-53 -259.5
t53 -260t143 -213.5t214 -142.5t261 -53q183 0 337.5 89.5t244.5 243.5t90 336q0 136 -53 259.5t-143 213t-214.5 142t-261.5 52.5zM1369 1134v-162l-344 -688h-245l346 659h-392v191h635z" />
    <glyph glyph-name="uni2467" unicode="&#x2467;" horiz-adv-x="2050" 
d="M1025 1604q187 0 357 -71.5t293 -192.5t195.5 -288t72.5 -351t-72.5 -351.5t-195.5 -288.5t-293 -193t-357 -72t-357 72t-293 193t-195.5 288.5t-72.5 351.5t72.5 351t195.5 288t293 192.5t357 71.5zM1025 1368q-137 0 -261 -52.5t-214 -142t-143 -213t-53 -259.5
t53 -260t143 -213.5t214 -142.5t261 -53q183 0 337.5 89.5t244.5 243.5t90 336q0 136 -53 259.5t-143 213t-214.5 142t-261.5 52.5zM1025 1149q140 0 234 -67t94 -179q0 -130 -133 -190q155 -61 155 -198q0 -112 -100.5 -179.5t-249.5 -67.5q-148 0 -248.5 67.5
t-100.5 179.5q0 139 155 198q-133 60 -133 190q0 112 94 179t233 67zM1025 635q-53 0 -88.5 -25.5t-35.5 -70.5q0 -44 35.5 -69t88.5 -25q54 0 90 25t36 69q0 45 -36 70.5t-90 25.5zM1025 971q-47 0 -78 -23t-31 -64t31 -64.5t78 -23.5q48 0 79.5 23.5t31.5 64.5t-31.5 64
t-79.5 23z" />
    <glyph glyph-name="uni2468" unicode="&#x2468;" horiz-adv-x="2050" 
d="M1025 1604q187 0 357 -71.5t293 -192.5t195.5 -288t72.5 -351t-72.5 -351.5t-195.5 -288.5t-293 -193t-357 -72t-357 72t-293 193t-195.5 288.5t-72.5 351.5t72.5 351t195.5 288t293 192.5t357 71.5zM1025 1368q-137 0 -261 -52.5t-214 -142t-143 -213t-53 -259.5
t53 -260t143 -213.5t214 -142.5t261 -53q183 0 337.5 89.5t244.5 243.5t90 336q0 136 -53 259.5t-143 213t-214.5 142t-261.5 52.5zM811 284l208 284h-10q-142 0 -227 81t-85 202q0 129 97 213.5t242 84.5t242.5 -83t97.5 -209q0 -110 -88 -240l-230 -333h-247zM1036 740
q53 0 88.5 32t35.5 81t-35.5 81.5t-88.5 32.5t-88.5 -32.5t-35.5 -81.5t35.5 -81t88.5 -32z" />
    <glyph glyph-name="uni24EA" unicode="&#x24ea;" horiz-adv-x="2050" 
d="M1025 1604q187 0 357 -71.5t293 -192.5t195.5 -288t72.5 -351t-72.5 -351.5t-195.5 -288.5t-293 -193t-357 -72t-357 72t-293 193t-195.5 288.5t-72.5 351.5t72.5 351t195.5 288t293 192.5t357 71.5zM1025 1368q-137 0 -261 -52.5t-214 -142t-143 -213t-53 -259.5
t53 -260t143 -213.5t214 -142.5t261 -53q183 0 337.5 89.5t244.5 243.5t90 336q0 136 -53 259.5t-143 213t-214.5 142t-261.5 52.5zM1025 1149q167 0 277 -119.5t110 -320.5q0 -202 -110 -321.5t-277 -119.5q-166 0 -276 119.5t-110 321.5q0 201 110 320.5t276 119.5z
M1025 952q-76 0 -124 -64t-48 -180q0 -115 48 -179t124 -64t124.5 63.5t48.5 179.5t-48.5 180t-124.5 64z" />
    <glyph glyph-name="uni24FF" unicode="&#x24ff;" horiz-adv-x="2050" 
d="M1025 1149q-166 0 -276 -119.5t-110 -320.5q0 -202 110 -321.5t276 -119.5q167 0 277 119.5t110 321.5q0 201 -110 320.5t-277 119.5zM1025 952q76 0 124.5 -64t48.5 -180t-48.5 -179.5t-124.5 -63.5t-124 64t-48 179q0 116 48 180t124 64zM1025 1583q183 0 349.5 -70
t286 -188t190.5 -281.5t71 -342.5q0 -144 -45 -278.5t-128 -243.5t-193 -191t-247 -126.5t-284 -44.5q-183 0 -349 70t-285.5 188.5t-190.5 282.5t-71 343t71 342.5t190.5 281.5t285.5 188t349 70z" />
    <glyph glyph-name="uni2715" unicode="&#x2573;" horiz-adv-x="2172" 
d="M1266 700l933 -933l-179 -180l-933 934l-934 -934l-180 180l933 933l-933 933l180 180l934 -933l933 933l179 -180z" />
    <glyph glyph-name="uni2715" unicode="&#x2715;" horiz-adv-x="2172" 
d="M1266 700l933 -933l-179 -180l-933 934l-934 -934l-180 180l933 933l-933 933l180 180l934 -933l933 933l179 -180z" />
    <glyph glyph-name="uni25AE" unicode="&#x258c;" horiz-adv-x="1800" 
d="M200 1400h700v-1400h-700v1400z" />
    <glyph glyph-name="uni25AE" unicode="&#x25ae;" horiz-adv-x="1800" 
d="M200 1400h700v-1400h-700v1400z" />
    <glyph glyph-name="filledbox" unicode="&#x25a0;" horiz-adv-x="1800" 
d="M200 1400h1400v-1400h-1400v1400z" />
    <glyph glyph-name="uni25A1" unicode="&#x25a1;" horiz-adv-x="1800" 
d="M200 1400h1400v-1400h-1400v1400zM438 1162v-924h924v924h-924z" />
    <glyph glyph-name="triagup" unicode="&#x25b2;" horiz-adv-x="1800" 
d="M900 1420l820 -1420h-1640z" />
    <glyph glyph-name="uni25B3" unicode="&#x25b3;" horiz-adv-x="1800" 
d="M900 1420l820 -1420h-1640zM900 945l-409 -707h818z" />
    <glyph glyph-name="uni25B4" unicode="&#x25b4;" 
d="M601 1046l444 -767h-889z" />
    <glyph glyph-name="uni25B8" unicode="&#x25b8;" 
d="M1046 662l-769 -446v891z" />
    <glyph glyph-name="triagdn" unicode="&#x25bc;" horiz-adv-x="1800" 
d="M900 -20l-820 1420h1640z" />
    <glyph glyph-name="uni25BD" unicode="&#x25bd;" horiz-adv-x="1800" 
d="M900 -20l-820 1420h1640zM900 455l409 707h-818z" />
    <glyph glyph-name="uni25BE" unicode="&#x25be;" 
d="M599 278l-444 767h889z" />
    <glyph glyph-name="uni25C2" unicode="&#x25c2;" 
d="M154 662l769 445v-891z" />
    <glyph glyph-name="uni25C6" unicode="&#x25c6;" horiz-adv-x="1800" 
d="M900 1438l738 -738l-738 -738l-738 738z" />
    <glyph glyph-name="uni25C7" unicode="&#x25c7;" horiz-adv-x="1800" 
d="M900 1438l738 -738l-738 -738l-738 738zM900 1102l-402 -402l402 -402l402 402z" />
    <glyph glyph-name="lozenge" unicode="&#x25ca;" horiz-adv-x="1538" 
d="M1458 700l-558 -700h-263l-557 700l558 700h263zM1129 699l-364 451l-354 -448l364 -453z" />
    <glyph glyph-name="circle" unicode="&#x25cb;" horiz-adv-x="1800" 
d="M900 -39q-151 0 -287.5 58.5t-235.5 157.5t-157.5 236t-58.5 287t58.5 287t157.5 236t235.5 157.5t287.5 58.5q150 0 287 -58.5t236 -157.5t157.5 -236t58.5 -287t-58.5 -287t-157.5 -236t-236 -157.5t-287 -58.5zM900 199q136 0 251.5 67t182.5 182.5t67 251.5
t-67 251.5t-182.5 182.5t-251.5 67q-137 0 -252 -67t-182 -182.5t-67 -251.5t67 -251.5t182 -182.5t252 -67z" />
    <glyph glyph-name="uni25CF" unicode="&#x25cf;" horiz-adv-x="1800" 
d="M900 -39q-151 0 -287.5 58.5t-235.5 157.5t-157.5 236t-58.5 287t58.5 287t157.5 236t235.5 157.5t287.5 58.5q150 0 287 -58.5t236 -157.5t157.5 -236t58.5 -287t-58.5 -287t-157.5 -236t-236 -157.5t-287 -58.5z" />
    <glyph glyph-name="uni25D0" unicode="&#x25d0;" horiz-adv-x="1800" 
d="M900 -39q-151 0 -287.5 58.5t-235.5 157.5t-157.5 236t-58.5 287t58.5 287t157.5 236t235.5 157.5t287.5 58.5q150 0 287 -58.5t236 -157.5t157.5 -236t58.5 -287t-58.5 -287t-157.5 -236t-236 -157.5t-287 -58.5zM900 1201v-1002q136 0 251.5 67t182.5 182.5t67 251.5
t-67 251.5t-182.5 182.5t-251.5 67z" />
    <glyph glyph-name="uni25D6" unicode="&#x25d6;" horiz-adv-x="1800" 
d="M900 1439v-1478q-151 0 -287.5 58.5t-235.5 157.5t-157.5 236t-58.5 287t58.5 287t157.5 236t235.5 157.5t287.5 58.5z" />
    <glyph glyph-name="uni25E7" unicode="&#x25e7;" horiz-adv-x="1800" 
d="M200 1400h1400v-1400h-1400v1400zM900 1162v-924h462v924h-462z" />
    <glyph glyph-name="uni2610" unicode="&#x2610;" horiz-adv-x="2200" 
d="M253 1547h1694v-1694h-1694v1694zM448 1352v-1304h1304v1304h-1304z" />
    <glyph glyph-name="uni2611" unicode="&#x2611;" horiz-adv-x="2200" 
d="M253 1547h1694v-1694h-1694v1694zM448 1352v-1304h1304v1304h-1304zM1490 1191l153 -109l-654 -909l-416 469l138 126l260 -297z" />
    <glyph glyph-name="uni2612" unicode="&#x2612;" horiz-adv-x="2200" 
d="M1947 1547v-1694h-1694v1694h1694zM1752 1352h-1304v-1304h1304v1304zM626 360l341 340l-341 340l134 134l340 -341l340 341l134 -134l-341 -340l341 -340l-134 -134l-340 341l-340 -341z" />
    <glyph glyph-name="heart" unicode="&#x2665;" horiz-adv-x="1800" 
d="M1212 1255q137 0 227.5 -93t90.5 -232q0 -99 -50.5 -209.5t-139 -217t-199 -206t-241.5 -191.5q-131 92 -241.5 191.5t-199 206t-139 217t-50.5 209.5q0 139 90.5 232t227.5 93q124 0 218 -73.5t94 -172.5q0 99 94 172.5t218 73.5z" />
    <glyph glyph-name="uni2713" unicode="&#x2713;" horiz-adv-x="2200" 
d="M1564 1322l184 -136l-819 -1104l-476 520l168 154l290 -316z" />
    <glyph glyph-name="uni2717" unicode="&#x2717;" horiz-adv-x="2200" 
d="M1261 700l419 -419l-161 -161l-419 419l-419 -419l-161 161l419 419l-419 419l161 161l419 -419l419 419l161 -161z" />
    <glyph glyph-name="uni2776" unicode="&#x2776;" horiz-adv-x="2050" 
d="M1164 1147l-413 -155v-201l208 74v-581h205v863zM1025 1583q183 0 349.5 -70t286 -188t190.5 -281.5t71 -342.5q0 -144 -45 -278.5t-128 -243.5t-193 -191t-247 -126.5t-284 -44.5q-183 0 -349 70t-285.5 188.5t-190.5 282.5t-71 343t71 342.5t190.5 281.5t285.5 188
t349 70z" />
    <glyph glyph-name="uni2777" unicode="&#x2777;" horiz-adv-x="2050" 
d="M703 998l127 -134q42 42 81.5 65t90.5 23q50 0 82 -28t32 -73q0 -61 -65 -123l-303 -282v-162h600v191h-307l149 137q72 67 106 126.5t34 133.5q0 125 -83.5 201t-222.5 76q-195 0 -321 -151zM1025 1583q183 0 349.5 -70t286 -188t190.5 -281.5t71 -342.5
q0 -144 -45 -278.5t-128 -243.5t-193 -191t-247 -126.5t-284 -44.5q-183 0 -349 70t-285.5 188.5t-190.5 282.5t-71 343t71 342.5t190.5 281.5t285.5 188t349 70z" />
    <glyph glyph-name="uni2778" unicode="&#x2778;" horiz-adv-x="2050" 
d="M1025 1583q183 0 349.5 -70t286 -188t190.5 -281.5t71 -342.5q0 -144 -45 -278.5t-128 -243.5t-193 -191t-247 -126.5t-284 -44.5q-183 0 -349 70t-285.5 188.5t-190.5 282.5t-71 343t71 342.5t190.5 281.5t285.5 188t349 70zM1016 1149q-189 0 -303 -128l116 -134
q72 80 178 80q56 0 89 -21t33 -61q0 -41 -37.5 -63.5t-95.5 -22.5h-101v-173h100q65 0 107.5 -23.5t42.5 -66.5q0 -42 -37.5 -64.5t-96.5 -22.5q-109 0 -186 77l-115 -133q108 -125 311 -125q90 0 164.5 26.5t123.5 85.5t49 140q0 67 -38.5 115.5t-108.5 75.5
q129 57 129 192q0 111 -90 178.5t-234 67.5z" />
    <glyph glyph-name="uni2779" unicode="&#x2779;" horiz-adv-x="2050" 
d="M1025 1583q183 0 349.5 -70t286 -188t190.5 -281.5t71 -342.5q0 -144 -45 -278.5t-128 -243.5t-193 -191t-247 -126.5t-284 -44.5q-183 0 -349 70t-285.5 188.5t-190.5 282.5t-71 343t71 342.5t190.5 281.5t285.5 188t349 70zM1250 840h-135l-70 -139v-88h-142l266 520
h-226l-284 -564v-143h386v-142h205v142h109v187h-109v227z" />
    <glyph glyph-name="uni277A" unicode="&#x277a;" horiz-adv-x="2050" 
d="M1308 1134h-518l-11 -492h215q154 0 154 -92q0 -43 -31 -69t-90 -26t-119 25t-96 57l-101 -152q56 -53 138 -85t179 -32q146 0 239.5 81.5t93.5 215.5q0 115 -82.5 184t-233.5 69h-82l4 127h341v189zM1025 1583q183 0 349.5 -70t286 -188t190.5 -281.5t71 -342.5
q0 -144 -45 -278.5t-128 -243.5t-193 -191t-247 -126.5t-284 -44.5q-183 0 -349 70t-285.5 188.5t-190.5 282.5t-71 343t71 342.5t190.5 281.5t285.5 188t349 70z" />
    <glyph glyph-name="uni277B" unicode="&#x277b;" horiz-adv-x="2050" 
d="M1025 1583q183 0 349.5 -70t286 -188t190.5 -281.5t71 -342.5q0 -144 -45 -278.5t-128 -243.5t-193 -191t-247 -126.5t-284 -44.5q-183 0 -349 70t-285.5 188.5t-190.5 282.5t-71 343t71 342.5t190.5 281.5t285.5 188t349 70zM1242 1134h-248l-229 -334
q-88 -130 -88 -240q0 -126 97.5 -209t242.5 -83t242 85t97 214q0 121 -85 201.5t-227 80.5h-12zM1017 678q53 0 88.5 -32.5t35.5 -81.5t-35.5 -81t-88.5 -32q-54 0 -89 32t-35 81t35.5 81.5t88.5 32.5z" />
    <glyph glyph-name="uni277C" unicode="&#x277c;" horiz-adv-x="2050" 
d="M1369 1134h-635v-191h392l-346 -659h245l344 688v162zM1025 1583q183 0 349.5 -70t286 -188t190.5 -281.5t71 -342.5q0 -144 -45 -278.5t-128 -243.5t-193 -191t-247 -126.5t-284 -44.5q-183 0 -349 70t-285.5 188.5t-190.5 282.5t-71 343t71 342.5t190.5 281.5
t285.5 188t349 70z" />
    <glyph glyph-name="uni277D" unicode="&#x277d;" horiz-adv-x="2050" 
d="M1025 1583q183 0 349.5 -70t286 -188t190.5 -281.5t71 -342.5q0 -144 -45 -278.5t-128 -243.5t-193 -191t-247 -126.5t-284 -44.5q-183 0 -349 70t-285.5 188.5t-190.5 282.5t-71 343t71 342.5t190.5 281.5t285.5 188t349 70zM1025 1149q-139 0 -233 -67t-94 -179
q0 -131 133 -190q-155 -59 -155 -198q0 -112 100.5 -179.5t248.5 -67.5q149 0 249.5 67.5t100.5 179.5q0 137 -155 198q133 60 133 190q0 112 -94 179t-234 67zM1025 635q54 0 90 -25.5t36 -70.5q0 -44 -36 -69t-90 -25q-53 0 -88.5 25t-35.5 69q0 45 35.5 70.5t88.5 25.5z
M1025 971q48 0 79.5 -23t31.5 -64t-31.5 -64.5t-79.5 -23.5q-47 0 -78 23.5t-31 64.5t31 64t78 23z" />
    <glyph glyph-name="uni277E" unicode="&#x277e;" horiz-adv-x="2050" 
d="M1025 1583q183 0 349.5 -70t286 -188t190.5 -281.5t71 -342.5q0 -144 -45 -278.5t-128 -243.5t-193 -191t-247 -126.5t-284 -44.5q-183 0 -349 70t-285.5 188.5t-190.5 282.5t-71 343t71 342.5t190.5 281.5t285.5 188t349 70zM811 284h247l230 333q88 130 88 240
q0 126 -97.5 209t-242.5 83t-242 -84.5t-97 -213.5q0 -121 85 -202t227 -81h10zM1036 740q-53 0 -88.5 32t-35.5 81t35.5 81.5t88.5 32.5t88.5 -32.5t35.5 -81.5t-35.5 -81t-88.5 -32z" />
    <glyph glyph-name="uni278A" unicode="&#x278a;" horiz-adv-x="2050" 
d="M1164 1147l-413 -155v-201l208 74v-581h205v863zM1025 1583q183 0 349.5 -70t286 -188t190.5 -281.5t71 -342.5q0 -144 -45 -278.5t-128 -243.5t-193 -191t-247 -126.5t-284 -44.5q-183 0 -349 70t-285.5 188.5t-190.5 282.5t-71 343t71 342.5t190.5 281.5t285.5 188
t349 70z" />
    <glyph glyph-name="uni278B" unicode="&#x278b;" horiz-adv-x="2050" 
d="M703 998l127 -134q42 42 81.5 65t90.5 23q50 0 82 -28t32 -73q0 -61 -65 -123l-303 -282v-162h600v191h-307l149 137q72 67 106 126.5t34 133.5q0 125 -83.5 201t-222.5 76q-195 0 -321 -151zM1025 1583q183 0 349.5 -70t286 -188t190.5 -281.5t71 -342.5
q0 -144 -45 -278.5t-128 -243.5t-193 -191t-247 -126.5t-284 -44.5q-183 0 -349 70t-285.5 188.5t-190.5 282.5t-71 343t71 342.5t190.5 281.5t285.5 188t349 70z" />
    <glyph glyph-name="uni278C" unicode="&#x278c;" horiz-adv-x="2050" 
d="M1025 1583q183 0 349.5 -70t286 -188t190.5 -281.5t71 -342.5q0 -144 -45 -278.5t-128 -243.5t-193 -191t-247 -126.5t-284 -44.5q-183 0 -349 70t-285.5 188.5t-190.5 282.5t-71 343t71 342.5t190.5 281.5t285.5 188t349 70zM1016 1149q-189 0 -303 -128l116 -134
q72 80 178 80q56 0 89 -21t33 -61q0 -41 -37.5 -63.5t-95.5 -22.5h-101v-173h100q65 0 107.5 -23.5t42.5 -66.5q0 -42 -37.5 -64.5t-96.5 -22.5q-109 0 -186 77l-115 -133q108 -125 311 -125q90 0 164.5 26.5t123.5 85.5t49 140q0 67 -38.5 115.5t-108.5 75.5
q129 57 129 192q0 111 -90 178.5t-234 67.5z" />
    <glyph glyph-name="uni278D" unicode="&#x278d;" horiz-adv-x="2050" 
d="M1025 1583q183 0 349.5 -70t286 -188t190.5 -281.5t71 -342.5q0 -144 -45 -278.5t-128 -243.5t-193 -191t-247 -126.5t-284 -44.5q-183 0 -349 70t-285.5 188.5t-190.5 282.5t-71 343t71 342.5t190.5 281.5t285.5 188t349 70zM1250 840h-135l-70 -139v-88h-142l266 520
h-226l-284 -564v-143h386v-142h205v142h109v187h-109v227z" />
    <glyph glyph-name="uni278E" unicode="&#x278e;" horiz-adv-x="2050" 
d="M1308 1134h-518l-11 -492h215q154 0 154 -92q0 -43 -31 -69t-90 -26t-119 25t-96 57l-101 -152q56 -53 138 -85t179 -32q146 0 239.5 81.5t93.5 215.5q0 115 -82.5 184t-233.5 69h-82l4 127h341v189zM1025 1583q183 0 349.5 -70t286 -188t190.5 -281.5t71 -342.5
q0 -144 -45 -278.5t-128 -243.5t-193 -191t-247 -126.5t-284 -44.5q-183 0 -349 70t-285.5 188.5t-190.5 282.5t-71 343t71 342.5t190.5 281.5t285.5 188t349 70z" />
    <glyph glyph-name="uni278F" unicode="&#x278f;" horiz-adv-x="2050" 
d="M1025 1583q183 0 349.5 -70t286 -188t190.5 -281.5t71 -342.5q0 -144 -45 -278.5t-128 -243.5t-193 -191t-247 -126.5t-284 -44.5q-183 0 -349 70t-285.5 188.5t-190.5 282.5t-71 343t71 342.5t190.5 281.5t285.5 188t349 70zM1242 1134h-248l-229 -334
q-88 -130 -88 -240q0 -126 97.5 -209t242.5 -83t242 85t97 214q0 121 -85 201.5t-227 80.5h-12zM1017 678q53 0 88.5 -32.5t35.5 -81.5t-35.5 -81t-88.5 -32q-54 0 -89 32t-35 81t35.5 81.5t88.5 32.5z" />
    <glyph glyph-name="uni2790" unicode="&#x2790;" horiz-adv-x="2050" 
d="M1369 1134h-635v-191h392l-346 -659h245l344 688v162zM1025 1583q183 0 349.5 -70t286 -188t190.5 -281.5t71 -342.5q0 -144 -45 -278.5t-128 -243.5t-193 -191t-247 -126.5t-284 -44.5q-183 0 -349 70t-285.5 188.5t-190.5 282.5t-71 343t71 342.5t190.5 281.5
t285.5 188t349 70z" />
    <glyph glyph-name="uni2791" unicode="&#x2791;" horiz-adv-x="2050" 
d="M1025 1583q183 0 349.5 -70t286 -188t190.5 -281.5t71 -342.5q0 -144 -45 -278.5t-128 -243.5t-193 -191t-247 -126.5t-284 -44.5q-183 0 -349 70t-285.5 188.5t-190.5 282.5t-71 343t71 342.5t190.5 281.5t285.5 188t349 70zM1025 1149q-139 0 -233 -67t-94 -179
q0 -131 133 -190q-155 -59 -155 -198q0 -112 100.5 -179.5t248.5 -67.5q149 0 249.5 67.5t100.5 179.5q0 137 -155 198q133 60 133 190q0 112 -94 179t-234 67zM1025 635q54 0 90 -25.5t36 -70.5q0 -44 -36 -69t-90 -25q-53 0 -88.5 25t-35.5 69q0 45 35.5 70.5t88.5 25.5z
M1025 971q48 0 79.5 -23t31.5 -64t-31.5 -64.5t-79.5 -23.5q-47 0 -78 23.5t-31 64.5t31 64t78 23z" />
    <glyph glyph-name="uni2792" unicode="&#x2792;" horiz-adv-x="2050" 
d="M1025 1583q183 0 349.5 -70t286 -188t190.5 -281.5t71 -342.5q0 -144 -45 -278.5t-128 -243.5t-193 -191t-247 -126.5t-284 -44.5q-183 0 -349 70t-285.5 188.5t-190.5 282.5t-71 343t71 342.5t190.5 281.5t285.5 188t349 70zM811 284h247l230 333q88 130 88 240
q0 126 -97.5 209t-242.5 83t-242 -84.5t-97 -213.5q0 -121 85 -202t227 -81h10zM1036 740q-53 0 -88.5 32t-35.5 81t35.5 81.5t88.5 32.5t88.5 -32.5t35.5 -81.5t-35.5 -81t-88.5 -32z" />
    <glyph glyph-name="uni2B51" unicode="&#x2b51;" horiz-adv-x="1800" 
d="M1088 902h606l-490 -356l188 -579l-491 358l-490 -358l187 579l-492 356h608l187 579z" />
    <glyph glyph-name="uni2B52" unicode="&#x2b52;" horiz-adv-x="1800" 
d="M1088 902h606l-490 -356l188 -579l-491 358l-490 -358l187 579l-492 356h608l187 579zM987 763l-86 265l-86 -265h-280l226 -164l-86 -267l226 165l226 -165l-86 267l226 164h-280z" />
    <glyph glyph-name="uni2E17" unicode="&#x2e17;" horiz-adv-x="877" 
d="M733 946v-214l-589 -215v215zM733 594v-214l-589 -215v214z" />
    <glyph glyph-name="uni2E38" unicode="&#x2e38;" horiz-adv-x="796" 
d="M296 1440h204v-422h216v-199h-216v-217h-204v217h-216v199h216v422z" />
    <glyph glyph-name="uniEA00" unicode="&#xea00;" horiz-adv-x="1800" 
d="M1088 902h606l-490 -356l188 -579l-491 358l-490 -358l187 579l-492 356h608l187 579zM987 763l-86 265v-531l226 -165l-86 267l226 164h-280z" />
    <glyph glyph-name="uniEA01" unicode="&#xea01;" horiz-adv-x="1800" 
d="M901 325l-490 -358l187 579l-492 356h608l187 579v-1156z" />
    <glyph glyph-name="uniFB00" unicode="&#xfb00;" horiz-adv-x="1675" 
d="M784 969v-232h-301v-737h-261v737h-181v232h181v120q0 174 90 275t257 101t298 -87l-104 -203q-87 47 -166 47q-114 0 -114 -136v-117h301zM1610 969v-232h-301v-737h-261v737h-181v232h181v120q0 174 90 275t257 101t298 -87l-104 -203q-87 47 -166 47q-114 0 -114 -136
v-117h301z" />
    <glyph glyph-name="fi" unicode="&#xfb01;" horiz-adv-x="1384" 
d="M784 969v-232h-301v-737h-261v737h-181v232h181v120q0 174 90 275t257 101t298 -87l-104 -203q-87 47 -166 47q-114 0 -114 -136v-117h301zM1247 969v-969h-261v969h261zM1115 1454q70 0 118.5 -48.5t48.5 -119.5q0 -70 -48 -118t-119 -48t-118.5 48t-47.5 118
q0 71 48 119.5t118 48.5z" />
    <glyph glyph-name="fl" unicode="&#xfb02;" horiz-adv-x="1384" 
d="M784 969v-232h-301v-737h-261v737h-181v232h181v120q0 174 90 275t257 101t298 -87l-104 -203q-87 47 -166 47q-114 0 -114 -136v-117h301zM1247 1440v-1440h-261v1440h261z" />
    <glyph glyph-name="uniFB03" unicode="&#xfb03;" horiz-adv-x="2210" 
d="M784 969v-232h-301v-737h-261v737h-181v232h181v120q0 174 90 275t257 101t298 -87l-104 -203q-87 47 -166 47q-114 0 -114 -136v-117h301zM1610 969v-232h-301v-737h-261v737h-181v232h181v120q0 174 90 275t257 101t298 -87l-104 -203q-87 47 -166 47q-114 0 -114 -136
v-117h301zM2073 969v-969h-261v969h261zM1941 1454q70 0 118.5 -48.5t48.5 -119.5q0 -70 -48 -118t-119 -48t-118.5 48t-47.5 118q0 71 48 119.5t118 48.5z" />
    <glyph glyph-name="uniFB04" unicode="&#xfb04;" horiz-adv-x="2210" 
d="M784 969v-232h-301v-737h-261v737h-181v232h181v120q0 174 90 275t257 101t298 -87l-104 -203q-87 47 -166 47q-114 0 -114 -136v-117h301zM1610 969v-232h-301v-737h-261v737h-181v232h181v120q0 174 90 275t257 101t298 -87l-104 -203q-87 47 -166 47q-114 0 -114 -136
v-117h301zM2073 1440v-1440h-261v1440h261z" />
    <glyph glyph-name="uniFB05" unicode="&#xfb05;" horiz-adv-x="1451" 
d="M1359 969v-232h-352v-354q0 -86 40 -125.5t106 -39.5q78 0 182 63l95 -204q-148 -102 -321 -102q-178 0 -270 99t-92 288v375h-162v232h162v54q0 104 -48.5 154.5t-129.5 50.5t-129.5 -50.5t-48.5 -154.5v-1023h-261v1034q0 110 35.5 194.5t97.5 135t139.5 76t166.5 25.5
q90 0 167 -25.5t138.5 -76.5t97 -135.5t35.5 -194.5v-64h352z" />
    <glyph glyph-name="uniFB06" unicode="&#xfb06;" horiz-adv-x="1940" 
d="M920 902l-88 -203q-65 32 -149 55t-160 24q-73 0 -111 -23.5t-38 -64.5q0 -38 39 -54.5t119 -28.5l86 -13q327 -50 327 -290q0 -151 -118 -240t-327 -89q-270 0 -431 114l103 198q143 -95 330 -95q179 0 179 91q0 35 -38 56t-123 33l-79 11q-335 46 -335 294
q0 149 108.5 233t300.5 84q217 0 405 -92zM1847 969v-232h-351v-354q0 -86 39.5 -125.5t105.5 -39.5q78 0 182 63l96 -204q-149 -102 -321 -102q-179 0 -271 99t-92 288v375h-187v232h187v288h261v-288h351z" />
    <glyph glyph-name="uniFEFF" unicode="&#xfeff;" horiz-adv-x="0" 
 />
    <glyph glyph-name="Iogonek.alt001" horiz-adv-x="597" 
d="M421 -180l114 -165q-92 -74 -223 -74q-108 0 -178 53t-70 143q0 123 142 223h-47v1400h279v-1400h-29q-119 -76 -119 -158q0 -26 16 -40t42 -14q35 0 73 32z" />
    <glyph glyph-name="iogonek.alt001" horiz-adv-x="535" 
d="M386 -178l110 -168q-92 -73 -221 -73q-108 0 -178 53t-70 143q0 123 142 223h-32v969h261v-969h-26q-119 -76 -119 -158q0 -26 16 -40t42 -14q35 0 75 34zM266 1454q70 0 118.5 -48.5t48.5 -119.5q0 -70 -48 -118t-119 -48q-70 0 -118 48t-48 118q0 71 48 119.5t118 48.5
z" />
    <glyph glyph-name="uni030C.alt001" horiz-adv-x="1" 
d="M-523 1012h-206v428h257z" />
    <glyph glyph-name="uni0328.alt001" horiz-adv-x="1" 
d="M-484 -177l128 -153q-97 -89 -240 -89q-108 0 -178 53t-70 143q0 51 21 95t62.5 81t86.5 65.5t108 60.5l72 -76q-124 -77 -124 -161q0 -26 16 -40t42 -14q36 0 76 35z" />
    <glyph glyph-name="uni0328.alt002" horiz-adv-x="1" 
d="M-551 95l79 -71q-96 -43 -134.5 -83.5t-38.5 -83.5q0 -31 22.5 -50t60.5 -19q58 0 111 45l136 -148q-112 -104 -275 -104q-130 0 -212.5 61t-82.5 158q0 105 84 172.5t250 122.5z" />
    <glyph glyph-name="uni0328.alt003" horiz-adv-x="1" 
d="M-484 -177l128 -153q-97 -89 -240 -89q-108 0 -178 54t-70 146q0 50 24.5 93.5t72.5 80t100.5 64.5t126.5 60l72 -76q-170 -79 -170 -161q0 -26 15.5 -40t42.5 -14q36 0 76 35z" />
    <glyph glyph-name="uni0328.alt004" horiz-adv-x="1" 
d="M-451 -167l136 -148q-112 -104 -275 -104q-130 0 -212.5 61t-82.5 158q0 105 84 172.5t250 122.5l79 -71q-96 -43 -134.5 -83.5t-38.5 -83.5q0 -31 22.5 -50t60.5 -19q58 0 111 45z" />
    <glyph glyph-name="i.latn_TRK" horiz-adv-x="535" 
d="M398 969v-969h-261v969h261zM266 1454q70 0 118.5 -48.5t48.5 -119.5q0 -70 -48 -118t-119 -48q-70 0 -118 48t-48 118q0 71 48 119.5t118 48.5z" />
    <glyph glyph-name="j.latn_NLD" horiz-adv-x="539" 
d="M402 969v-1061q0 -156 -82 -242.5t-219 -86.5q-87 0 -147 26l39 229q33 -12 70 -12q78 0 78 101v1046h261zM345 1108h-249l201 315h312z" />
    <glyph glyph-name="Ldot.latn_CAT" horiz-adv-x="1210" 
d="M1178 261v-261h-1019v1400h279v-1139h740zM864 890q74 0 124.5 -51.5t50.5 -125.5t-50.5 -124t-124.5 -50t-124 50t-50 124q0 75 50 126t124 51z" />
    <glyph glyph-name="ldot.latn_CAT" horiz-adv-x="737" 
d="M398 1440v-1440h-261v1440h261zM652 892q68 0 114.5 -47t46.5 -115t-46.5 -114.5t-114.5 -46.5t-114 46.5t-46 114.5t46 115t114 47z" />
    <glyph glyph-name="zero.numr" horiz-adv-x="901" 
d="M450 1414q159 0 264.5 -115.5t105.5 -309.5q0 -195 -105.5 -310.5t-264.5 -115.5t-264 115.5t-105 310.5q0 194 105.5 309.5t263.5 115.5zM450 1226q-72 0 -118 -62t-46 -175t46 -175.5t118 -62.5q73 0 119 62.5t46 175.5t-46 175t-119 62z" />
    <glyph glyph-name="one.numr" horiz-adv-x="553" 
d="M423 1413v-835h-197v565l-185 -68v192z" />
    <glyph glyph-name="two.numr" horiz-adv-x="725" 
d="M172 1140l-119 129q118 145 306 145q133 0 212 -72.5t79 -192.5q0 -71 -30.5 -128t-100.5 -124l-144 -137h294v-182h-573v154l289 275q61 58 61 120q0 44 -30.5 71.5t-77.5 27.5q-49 0 -87.5 -22.5t-78.5 -63.5z" />
    <glyph glyph-name="three.numr" horiz-adv-x="730" 
d="M333 1414q138 0 224 -65t86 -172q0 -128 -121 -185q66 -26 102.5 -74t36.5 -112q0 -116 -94.5 -179.5t-228.5 -63.5q-193 0 -297 121l110 128q73 -75 177 -75q56 0 92 22t36 64q0 41 -41 63.5t-103 22.5h-94v167h96q55 0 90.5 22.5t35.5 61.5t-31 59.5t-84 20.5
q-102 0 -171 -77l-110 127q108 124 289 124z" />
    <glyph glyph-name="four.numr" horiz-adv-x="733" 
d="M597 1114v-221h104v-177h-104v-138h-197v138h-368v138l271 545h216l-255 -506h136v101l60 120h137z" />
    <glyph glyph-name="five.numr" horiz-adv-x="747" 
d="M623 1400v-180h-326l-3 -125h71q147 0 228 -67t81 -178q0 -130 -89.5 -208.5t-229.5 -78.5q-93 0 -171 30.5t-131 81.5l103 140q35 -29 89.5 -51t108.5 -22q56 0 86 25t30 68q0 90 -146 90h-207l11 475h495z" />
    <glyph glyph-name="six.numr" horiz-adv-x="754" 
d="M590 1400l-201 -276h12q138 0 219 -78t81 -195q0 -125 -93 -206.5t-233 -81.5q-139 0 -232.5 80t-93.5 202q0 110 84 231l221 324h236zM375 961q-52 0 -86 -31.5t-34 -80.5t34 -81t86 -32t86 32t34 81t-34 80.5t-86 31.5z" />
    <glyph glyph-name="seven.numr" horiz-adv-x="696" 
d="M655 1400v-154l-328 -668h-234l329 639h-373v183h606z" />
    <glyph glyph-name="eight.numr" horiz-adv-x="810" 
d="M404 1414q135 0 225 -64t90 -173q0 -126 -126 -184q147 -57 147 -191q0 -109 -96.5 -174t-239.5 -65t-239 65t-96 174q0 134 146 191q-125 58 -125 184q0 109 90 173t224 64zM404 918q-52 0 -86 -25t-34 -68q0 -45 34 -70.5t86 -25.5q53 0 87.5 25.5t34.5 70.5
q0 43 -34.5 68t-87.5 25zM404 1246q-46 0 -75.5 -23t-29.5 -64q0 -40 29.5 -63t75.5 -23t76 23t30 63q0 41 -29.5 64t-76.5 23z" />
    <glyph glyph-name="nine.numr" horiz-adv-x="754" 
d="M163 578l200 276h-11q-138 0 -219 77.5t-81 195.5q0 124 93 205.5t233 81.5q139 0 232.5 -79.5t93.5 -201.5q0 -112 -83 -232l-222 -323h-236zM378 1017q52 0 86 31.5t34 80.5t-34 80.5t-86 31.5t-86 -31.5t-34 -80.5t34 -80.5t86 -31.5z" />
    <glyph glyph-name="zero.dnom" horiz-adv-x="901" 
d="M450 836q159 0 264.5 -115.5t105.5 -309.5q0 -195 -105.5 -310.5t-264.5 -115.5t-264 115.5t-105 310.5q0 194 105.5 309.5t263.5 115.5zM450 648q-72 0 -118 -62t-46 -175t46 -175.5t118 -62.5q73 0 119 62.5t46 175.5t-46 175t-119 62z" />
    <glyph glyph-name="one.dnom" horiz-adv-x="552" 
d="M423 835v-835h-197v565l-185 -68v192z" />
    <glyph glyph-name="two.dnom" horiz-adv-x="725" 
d="M172 562l-119 129q118 145 306 145q133 0 212 -72.5t79 -192.5q0 -71 -30.5 -128t-100.5 -124l-144 -137h294v-182h-573v154l289 275q61 58 61 120q0 44 -30.5 71.5t-77.5 27.5q-49 0 -87.5 -22.5t-78.5 -63.5z" />
    <glyph glyph-name="three.dnom" horiz-adv-x="730" 
d="M333 836q138 0 224 -65t86 -172q0 -128 -121 -185q66 -26 102.5 -74t36.5 -112q0 -116 -94.5 -179.5t-228.5 -63.5q-193 0 -297 121l110 128q73 -75 177 -75q56 0 92 22t36 64q0 41 -41 63.5t-103 22.5h-94v167h96q55 0 90.5 22.5t35.5 61.5t-31 59.5t-84 20.5
q-102 0 -171 -77l-110 127q109 124 289 124z" />
    <glyph glyph-name="four.dnom" horiz-adv-x="733" 
d="M597 536v-221h104v-177h-104v-138h-197v138h-368v138l271 545h216l-255 -506h136v101l60 120h137z" />
    <glyph glyph-name="five.dnom" horiz-adv-x="747" 
d="M623 822v-180h-326l-3 -125h71q147 0 228 -67t81 -178q0 -130 -89.5 -208.5t-229.5 -78.5q-93 0 -171 30.5t-131 81.5l103 140q35 -29 89.5 -51t108.5 -22q56 0 86 25t30 68q0 90 -146 90h-207l11 475h495z" />
    <glyph glyph-name="six.dnom" horiz-adv-x="753" 
d="M590 822l-201 -276h12q138 0 219 -78t81 -195q0 -125 -93 -206.5t-233 -81.5q-139 0 -232.5 80t-93.5 202q0 110 84 231l221 324h236zM375 383q-52 0 -86 -31.5t-34 -80.5t34 -81t86 -32t86 32t34 81t-34 80.5t-86 31.5z" />
    <glyph glyph-name="seven.dnom" horiz-adv-x="695" 
d="M655 822v-154l-328 -668h-234l329 639h-373v183h606z" />
    <glyph glyph-name="eight.dnom" horiz-adv-x="809" 
d="M404 836q135 0 225 -64t90 -173q0 -126 -126 -184q147 -57 147 -191q0 -109 -96.5 -174t-239.5 -65t-239 65t-96 174q0 134 146 191q-125 58 -125 184q0 109 90 173t224 64zM404 340q-52 0 -86 -25t-34 -68q0 -45 34 -70.5t86 -25.5q53 0 87.5 25.5t34.5 70.5
q0 43 -34.5 68t-87.5 25zM404 668q-46 0 -75.5 -23t-29.5 -64q0 -40 29.5 -63t75.5 -23t76 23t30 63q0 41 -29.5 64t-76.5 23z" />
    <glyph glyph-name="nine.dnom" horiz-adv-x="753" 
d="M163 0l200 276h-11q-138 0 -219 77.5t-81 195.5q0 124 93 205.5t233 81.5q139 0 232.5 -79.5t93.5 -201.5q0 -112 -83 -232l-222 -323h-236zM378 439q52 0 86 31.5t34 80.5t-34 80.5t-86 31.5t-86 -31.5t-34 -80.5t34 -80.5t86 -31.5z" />
    <glyph glyph-name="space.frac" horiz-adv-x="99" 
 />
    <glyph glyph-name="b.ordn" horiz-adv-x="885" 
d="M492 1287q142 0 237 -104t95 -259t-95 -259.5t-237 -104.5q-130 0 -204 92v-74h-189v1023h193v-402q74 88 200 88zM454 1106q-76 0 -123.5 -51.5t-47.5 -130.5t47.5 -131t123.5 -52t123.5 52.5t47.5 130.5t-47 130t-124 52z" />
    <glyph glyph-name="c.ordn" horiz-adv-x="772" 
d="M430 1287q88 0 160.5 -35t120.5 -100l-144 -114q-59 68 -142 68q-71 0 -118.5 -50.5t-47.5 -131.5q0 -82 47 -132.5t118 -50.5q84 0 145 69l142 -115q-103 -135 -281 -135q-164 0 -266.5 102.5t-102.5 261.5t102.5 261t266.5 102z" />
    <glyph glyph-name="d.ordn" horiz-adv-x="885" 
d="M393 1287q126 0 200 -89v403h193v-1023h-189v75q-76 -93 -205 -93q-142 0 -236.5 104.5t-94.5 259.5t95 259t237 104zM431 1106q-77 0 -124 -52t-47 -130t47.5 -130.5t123.5 -52.5q75 0 123 52t48 131t-48 130.5t-123 51.5z" />
    <glyph glyph-name="e.ordn" horiz-adv-x="811" 
d="M412 1287q150 0 243.5 -100.5t93.5 -262.5q0 -40 -3 -64h-485q14 -67 59.5 -101t111.5 -34q95 0 169 65l116 -123q-113 -107 -296 -107q-160 0 -260 99.5t-100 261.5q0 163 97.5 264.5t253.5 101.5zM410 1121q-60 0 -98 -34.5t-51 -96.5h294q-28 131 -145 131z" />
    <glyph glyph-name="h.ordn" horiz-adv-x="848" 
d="M293 1602v-405q66 90 195 90q117 0 191.5 -74.5t74.5 -193.5v-441h-195v379q0 72 -33.5 110t-94.5 38q-60 0 -99 -38.5t-39 -110.5v-378h-194v1024h194z" />
    <glyph glyph-name="l.ordn" horiz-adv-x="392" 
d="M293 1601v-1023h-194v1023h194z" />
    <glyph glyph-name="m.ordn" horiz-adv-x="1308" 
d="M943 1287q122 0 196.5 -74t74.5 -194v-441h-193v379q0 71 -34 109.5t-95 38.5q-60 0 -99 -38.5t-39 -110.5v-378h-195v379q0 72 -33.5 110t-94.5 38q-60 0 -99 -38.5t-39 -110.5v-378h-194v690h188v-80q66 99 201 99q74 0 132.5 -31t92.5 -87q71 118 230 118z" />
    <glyph glyph-name="r.ordn" horiz-adv-x="606" 
d="M480 1287q55 0 92 -14l-26 -192q-54 21 -112 21q-65 0 -103 -38t-38 -110v-376h-194v690h188v-74q61 93 193 93z" />
    <glyph glyph-name="s.ordn" horiz-adv-x="736" 
d="M663 1222l-62 -150q-120 55 -222 55q-100 0 -100 -58q0 -26 27 -37t85 -19l59 -9q231 -36 231 -207q0 -110 -84 -173t-234 -63q-196 0 -310 79l75 148q102 -67 237 -67q120 0 120 60q0 24 -26.5 37.5t-87.5 22.5l-52 7q-240 34 -240 211q0 108 78 168t216 60
q150 0 290 -65z" />
    <glyph glyph-name="t.ordn" horiz-adv-x="680" 
d="M607 1268v-171h-247v-241q0 -60 28 -87.5t74 -27.5q52 0 128 44l69 -151q-106 -74 -232 -74q-129 0 -195 71.5t-66 206.5v259h-132v171h132v205h194v-205h247z" />
    <glyph glyph-name="u.ordn" horiz-adv-x="854" 
d="M755 1268v-395q0 -155 -93 -234t-235 -79q-67 0 -125 18.5t-104 55.5t-72.5 98.5t-26.5 140.5v395h194v-378q0 -75 36.5 -112t97.5 -37q62 0 98.5 37t36.5 112v378h193z" />
    <glyph glyph-name="egrave.ordn" horiz-adv-x="811" 
d="M412 1287q150 0 243.5 -100.5t93.5 -262.5q0 -40 -3 -64h-485q14 -67 59.5 -101t111.5 -34q95 0 169 65l116 -123q-113 -107 -296 -107q-160 0 -260 99.5t-100 261.5q0 163 97.5 264.5t253.5 101.5zM354 1365l-190 227h229l145 -227h-184zM410 1121q-60 0 -98 -34.5
t-51 -96.5h294q-28 131 -145 131z" />
    <glyph glyph-name="zero.osf" horiz-adv-x="1344" 
d="M672 1095q160 0 290.5 -68t208 -197t77.5 -296q0 -166 -77.5 -294.5t-208 -196.5t-290.5 -68t-290.5 68t-207.5 196.5t-77 294.5q0 167 77 296t207.5 197t290.5 68zM672 850q-133 0 -221.5 -86.5t-88.5 -228.5q0 -143 88 -229t222 -86t222.5 86t88.5 229
q0 142 -88.5 228.5t-222.5 86.5z" />
    <glyph glyph-name="one.osf" horiz-adv-x="775" 
d="M621 1098v-1098h-264v746l-304 -94v257z" />
    <glyph glyph-name="two.osf" horiz-adv-x="1109" 
d="M228 702l-165 168q33 41 72.5 76t97.5 71t136 57t166 21q198 0 325.5 -103.5t127.5 -268.5q0 -69 -23.5 -129.5t-68 -110.5t-96 -90t-119.5 -79l-121 -70h482v-244h-925v210l397 248q109 68 154 124t45 111q0 68 -55 112.5t-145 44.5t-156.5 -39.5t-128.5 -108.5z" />
    <glyph glyph-name="three.osf" horiz-adv-x="1123" 
d="M524 1095q217 0 351.5 -111t134.5 -293q0 -107 -53.5 -188t-150.5 -128q110 -45 172.5 -128t62.5 -193q0 -100 -42.5 -180t-114 -129.5t-161 -75t-189.5 -25.5q-155 0 -280.5 53t-204.5 150l160 173q59 -64 142.5 -100t173.5 -36q106 0 172.5 47t66.5 137q0 89 -76.5 139
t-192.5 50h-160v237h160q105 0 173 46.5t68 133.5q0 84 -64.5 131.5t-162.5 47.5q-89 0 -159.5 -40.5t-117.5 -102.5l-170 166q71 100 187.5 159.5t274.5 59.5z" />
    <glyph glyph-name="four.osf" horiz-adv-x="1159" 
d="M903 564v-316h217v-248h-217v-332h-264v332h-600v196l442 872h283l-415 -820h290v316h264z" />
    <glyph glyph-name="five.osf" horiz-adv-x="1154" 
d="M988 1068v-247h-568l-5 -286h165q119 0 213 -33t153 -91t90 -133.5t31 -162.5q0 -111 -40.5 -201.5t-110 -149.5t-161 -90.5t-196.5 -31.5q-313 0 -496 213l155 183q58 -65 151.5 -107t187.5 -42q113 0 173 59t60 146q0 200 -285 200h-333l13 774h803z" />
    <glyph glyph-name="six.osf" horiz-adv-x="1170" 
d="M901 1400l-346 -490q33 5 68 5q210 0 347 -133t137 -332q0 -135 -68 -243.5t-188 -170t-269 -61.5q-147 0 -267 61t-188.5 169t-68.5 241q0 171 133 370l388 584h322zM582 681q-107 0 -177.5 -65t-70.5 -167q0 -103 70.5 -168.5t177.5 -65.5q108 0 178.5 65.5t70.5 168.5
q0 102 -70.5 167t-178.5 65z" />
    <glyph glyph-name="seven.osf" horiz-adv-x="1100" 
d="M1042 1068v-207l-583 -1193h-313l580 1152h-668v248h984z" />
    <glyph glyph-name="eight.osf" horiz-adv-x="1219" 
d="M610 1425q137 0 249 -49t178.5 -142t66.5 -213q0 -213 -209 -315q110 -45 176 -125.5t66 -199.5q0 -120 -71.5 -213.5t-191 -143t-264.5 -49.5t-265 49t-191.5 143t-71.5 214q0 119 66 199.5t176 125.5q-95 46 -151.5 124.5t-56.5 190.5q0 180 142.5 292t351.5 112z
M610 595q-103 0 -173 -53t-70 -139t70 -138t173 -52t172.5 52t69.5 138t-69.5 139t-172.5 53zM610 1184q-91 0 -152 -50t-61 -131q0 -84 61 -135t152 -51q90 0 151 51t61 135q0 81 -61 131t-151 50z" />
    <glyph glyph-name="nine.osf" horiz-adv-x="1170" 
d="M269 -331l345 489q-27 -4 -68 -4q-209 0 -346 133t-137 332q0 205 149.5 340.5t374.5 135.5q148 0 268 -61t188.5 -169.5t68.5 -241.5q0 -171 -133 -370l-388 -584h-322zM587 388q107 0 177.5 65t70.5 167q0 103 -70.5 168.5t-177.5 65.5t-177.5 -65.5t-70.5 -168.5
q0 -102 70.5 -167t177.5 -65z" />
    <glyph glyph-name="zero.tf" 
d="M604 1425q90 0 170 -27t148.5 -84.5t118 -141.5t77.5 -205t28 -267q0 -152 -28 -274.5t-77.5 -205.5t-118.5 -139t-148 -81t-170 -25q-92 0 -172.5 25t-151 81t-120.5 139t-78.5 205.5t-28.5 274.5q0 189 43.5 331.5t120.5 227t174 125.5t213 41zM604 1166
q-57 0 -104 -24t-86 -76t-60.5 -145.5t-21.5 -220.5t21.5 -220.5t60.5 -145.5t86 -76t104 -24q55 0 100.5 24t83.5 76t59 145.5t21 220.5q0 235 -75 350.5t-189 115.5z" />
    <glyph glyph-name="one.tf" 
d="M197 256h332v803l-348 -124v269l617 218v-1166h317v-256h-918v256z" />
    <glyph glyph-name="two.tf" 
d="M270 1013l-174 171q185 241 478 241q218 0 346.5 -124.5t128.5 -327.5q0 -118 -51.5 -212.5t-150.5 -196.5l-299 -311h535v-253h-925v211l495 507q115 117 115 240q0 92 -59 150.5t-155 58.5q-91 0 -155 -40t-129 -114z" />
    <glyph glyph-name="three.tf" 
d="M558 1425q222 0 359 -110.5t137 -291.5q0 -109 -54.5 -190t-154.5 -128q113 -44 176.5 -127t63.5 -194q0 -80 -28 -148t-77 -115.5t-115 -80.5t-140.5 -49t-155.5 -16q-156 0 -282.5 53t-206.5 150l161 177q61 -64 144.5 -99t173.5 -35q108 0 176.5 47t68.5 135
q0 87 -77.5 135t-196.5 48h-163v240h164q107 0 176 46.5t69 131.5q0 82 -65.5 128.5t-166.5 46.5q-91 0 -163.5 -40t-119.5 -102l-170 171q74 100 191 158.5t276 58.5z" />
    <glyph glyph-name="four.tf" 
d="M948 881v-373h195v-252h-195v-256h-270v256h-621v196l491 947h300l-468 -891h298v373h270z" />
    <glyph glyph-name="five.tf" 
d="M1011 1400v-251h-567l-6 -280h161q235 0 362.5 -118.5t127.5 -302.5q0 -146 -69 -255t-184 -163.5t-258 -54.5q-154 0 -280.5 54.5t-215.5 154.5l152 189q59 -64 153.5 -106t188.5 -42q112 0 172.5 57.5t60.5 145.5t-66 142.5t-219 54.5h-333l15 775h805z" />
    <glyph glyph-name="six.tf" 
d="M918 1400l-345 -487q38 4 65 4q211 0 348 -133.5t137 -331.5q0 -205 -150.5 -341t-376.5 -136q-148 0 -268 61t-188.5 169.5t-68.5 241.5q0 172 133 372l388 581h326zM596 680q-105 0 -174.5 -64.5t-69.5 -165.5t69.5 -165.5t174.5 -64.5q107 0 176.5 64.5t69.5 165.5
t-70 165.5t-176 64.5z" />
    <glyph glyph-name="seven.tf" 
d="M1097 1400v-211l-580 -1189h-318l576 1148h-665v252h987z" />
    <glyph glyph-name="eight.tf" 
d="M601 1425q143 0 258.5 -47t185 -139.5t69.5 -215.5q0 -218 -214 -317q248 -97 248 -325q0 -124 -74.5 -217.5t-197.5 -141t-275 -47.5t-275 47.5t-197.5 141t-74.5 217.5q0 228 247 325q-213 99 -213 317q0 123 69.5 215.5t185 139.5t258.5 47zM601 596q-110 0 -183 -51
t-73 -141q0 -89 73 -138.5t183 -49.5t183 49.5t73 138.5q0 90 -73.5 141t-182.5 51zM601 1181q-98 0 -162 -47.5t-64 -131.5q0 -87 64 -135.5t162 -48.5t162 48.5t64 135.5q0 84 -64 131.5t-162 47.5z" />
    <glyph glyph-name="nine.tf" 
d="M282 0l343 487q-25 -4 -63 -4q-211 0 -348 133.5t-137 331.5q0 205 150 341t376 136q148 0 268.5 -61t189 -169.5t68.5 -241.5q0 -173 -133 -372l-388 -581h-326zM603 720q106 0 175.5 64.5t69.5 165.5t-69.5 165.5t-175.5 64.5t-175.5 -64.5t-69.5 -165.5t69.5 -165.5
t175.5 -64.5z" />
    <glyph glyph-name="uni2007.tf" 
 />
    <glyph glyph-name="zero.tosf" 
d="M599 1095q151 0 273.5 -67.5t195.5 -196.5t73 -297t-73 -297t-195.5 -196.5t-273.5 -67.5q-150 0 -272.5 67.5t-195.5 196.5t-73 297t73 297t195.5 196.5t272.5 67.5zM599 856q-119 0 -198 -87t-79 -235t79 -234.5t198 -86.5q120 0 198.5 86.5t78.5 234.5t-78.5 235
t-198.5 87z" />
    <glyph glyph-name="one.tosf" 
d="M193 248h322v515l-337 -98v261l601 172v-850l312 1v-249h-898v248z" />
    <glyph glyph-name="two.tosf" 
d="M278 702l-165 168q33 41 72.5 76t97.5 71t136 57t166 21q198 0 325.5 -103.5t127.5 -268.5q0 -69 -23.5 -129.5t-68 -110.5t-96 -90t-119.5 -79l-121 -70h482v-244h-925v210l397 248q109 68 154 124t45 111q0 68 -55 112.5t-145 44.5t-156.5 -39.5t-128.5 -108.5z" />
    <glyph glyph-name="three.tosf" 
d="M564 1095q217 0 351.5 -111t134.5 -293q0 -107 -53.5 -188t-150.5 -128q110 -45 172.5 -128t62.5 -193q0 -100 -42.5 -180t-114 -129.5t-161 -75t-189.5 -25.5q-155 0 -280.5 53t-204.5 150l160 173q59 -64 142.5 -100t173.5 -36q106 0 172.5 47t66.5 137q0 89 -76.5 139
t-192.5 50h-160v237h160q105 0 173 46.5t68 133.5q0 84 -64.5 131.5t-162.5 47.5q-89 0 -159.5 -40.5t-117.5 -102.5l-170 166q71 100 187.5 159.5t274.5 59.5z" />
    <glyph glyph-name="four.tosf" 
d="M937 564v-316h217v-248h-217v-332h-264v332h-600v196l442 872h283l-415 -820h290v316h264z" />
    <glyph glyph-name="five.tosf" 
d="M1010 1068v-247h-568l-5 -286h165q119 0 213 -33t153 -91t90 -133.5t31 -162.5q0 -111 -40.5 -201.5t-110 -149.5t-161 -90.5t-196.5 -31.5q-313 0 -496 213l155 183q58 -65 151.5 -107t187.5 -42q113 0 173 59t60 146q0 200 -285 200h-333l13 774h803z" />
    <glyph glyph-name="six.tosf" 
d="M921 1400l-346 -490q33 5 68 5q210 0 347 -133t137 -332q0 -135 -68 -243.5t-188 -170t-269 -61.5q-147 0 -267 61t-188.5 169t-68.5 241q0 171 133 370l388 584h322zM602 681q-107 0 -177.5 -65t-70.5 -167q0 -103 70.5 -168.5t177.5 -65.5q108 0 178.5 65.5t70.5 168.5
q0 102 -70.5 167t-178.5 65z" />
    <glyph glyph-name="seven.tosf" 
d="M1106 1068v-207l-583 -1193h-313l580 1152h-668v248h984z" />
    <glyph glyph-name="eight.tosf" 
d="M609 1425q137 0 249 -49t178.5 -142t66.5 -213q0 -213 -209 -315q110 -45 176 -125.5t66 -199.5q0 -120 -71.5 -213.5t-191 -143t-264.5 -49.5t-265 49t-191.5 143t-71.5 214q0 119 66 199.5t176 125.5q-95 46 -151.5 124.5t-56.5 190.5q0 180 142.5 292t351.5 112z
M609 595q-103 0 -173 -53t-70 -139t70 -138t173 -52t172.5 52t69.5 138t-69.5 139t-172.5 53zM609 1184q-91 0 -152 -50t-61 -131q0 -84 61 -135t152 -51q90 0 151 51t61 135q0 81 -61 131t-151 50z" />
    <glyph glyph-name="nine.tosf" 
d="M279 -331l345 489q-27 -4 -68 -4q-209 0 -346 133t-137 332q0 205 149.5 340.5t374.5 135.5q148 0 268 -61t188.5 -169.5t68.5 -241.5q0 -171 -133 -370l-388 -584h-322zM597 388q107 0 177.5 65t70.5 167q0 103 -70.5 168.5t-177.5 65.5t-177.5 -65.5t-70.5 -168.5
q0 -102 70.5 -167t177.5 -65z" />
    <glyph glyph-name="uni2007.tosf" 
 />
    <glyph glyph-name="exclam.sc" horiz-adv-x="554" 
d="M418 1071l-30 -665h-222l-30 665h282zM278 308q67 0 116 -49.5t49 -116.5t-49 -117t-116 -50t-117 50t-50 117t50 116.5t117 49.5z" />
    <glyph glyph-name="numbersign.sc" horiz-adv-x="1209" 
d="M218 837h150l52 234h216l-52 -234h172l52 234h217l-52 -234h148l-42 -198h-149l-45 -201h148l-42 -200h-150l-52 -238h-217l52 238h-172l-52 -238h-217l52 238h-147l43 200h149l44 201h-149zM541 639l-45 -201h172l45 201h-172z" />
    </font>
</defs>
</svg>
