<?xml version="1.0" standalone="no"?>
<!DOCTYPE svg PUBLIC "-//W3C//DTD SVG 1.1//EN" "http://www.w3.org/Graphics/SVG/1.1/DTD/svg11.dtd" >
<svg xmlns="http://www.w3.org/2000/svg" xmlns:xlink="http://www.w3.org/1999/xlink" version="1.1">
<metadata>
Created by FontForge 20200314 at Sat Aug  6 00:41:19 2016
 By Unknown
2013 published by Monotype GmbH
</metadata>
<defs>
<font id="MarkPro-Medium" horiz-adv-x="1" >
  <font-face 
    font-family="Mark Pro Medium"
    font-weight="500"
    font-stretch="normal"
    units-per-em="2000"
    panose-1="2 11 6 4 2 2 1 1 1 4"
    ascent="1580"
    descent="-420"
    x-height="958"
    cap-height="1400"
    bbox="-1360 -474 3154 2212"
    underline-thickness="136"
    underline-position="-532"
    unicode-range="U+000D-FEFF"
  />
<missing-glyph horiz-adv-x="1209" 
d="M164 0v1400h881v-1400h-881zM354 190h501v1020h-501v-1020z" />
    <glyph glyph-name=".notdef" horiz-adv-x="1209" 
d="M164 0v1400h881v-1400h-881zM354 190h501v1020h-501v-1020z" />
    <glyph glyph-name=".null" horiz-adv-x="0" 
 />
    <glyph glyph-name=".null" horiz-adv-x="0" 
 />
    <glyph glyph-name="nonmarkingreturn" horiz-adv-x="666" 
 />
    <glyph glyph-name="CR" unicode="&#xd;" horiz-adv-x="540" 
 />
    <glyph glyph-name="space" unicode=" " horiz-adv-x="540" 
 />
    <glyph glyph-name="exclam" unicode="!" horiz-adv-x="530" 
d="M393 1400l-34 -938h-190l-34 938h258zM265 325q70 0 122 -52t52 -122q0 -71 -52 -123.5t-122 -52.5t-122.5 53t-52.5 123t52.5 122t122.5 52z" />
    <glyph glyph-name="quotedbl" unicode="&#x22;" horiz-adv-x="1112" 
d="M266 1440h210v-545h-210v545zM636 1440h210v-545h-210v545z" />
    <glyph glyph-name="numbersign" unicode="#" horiz-adv-x="1480" 
d="M259 1044h223l76 356h196l-76 -356h269l76 356h196l-76 -356h223l-40 -186h-223l-65 -309h221l-39 -186h-222l-77 -363h-196l77 363h-269l-77 -363h-196l77 363h-223l40 186h223l65 309h-223zM638 858l-65 -309h269l65 309h-269z" />
    <glyph glyph-name="dollar" unicode="$" horiz-adv-x="1400" 
d="M622 1571h194v-189q226 -19 420 -145l-110 -176q-148 95 -310 115v-384q72 -10 133 -27.5t117.5 -47t96 -69t62 -97t21.5 -127.5q-3 -168 -122.5 -273t-306.5 -131v-201h-194v197q-132 11 -258.5 56t-213.5 118l117 173q61 -52 156.5 -90.5t197.5 -50.5v383l-18 3
q-68 10 -126 27t-112 47t-91.5 70.5t-59 99t-20.5 129.5q2 165 120.5 269.5t306.5 128.5v192zM1027 413q1 61 -52.5 100.5t-158.5 62.5v-349q96 18 153 66t58 120zM416 987q-1 -67 49.5 -105.5t156.5 -60.5v351q-95 -17 -150 -65.5t-56 -119.5z" />
    <glyph glyph-name="percent" unicode="%" horiz-adv-x="1983" 
d="M477 1425q167 0 278 -108t111 -270q0 -163 -111 -271t-278 -108q-166 0 -276 108t-110 271q0 161 110.5 269.5t275.5 108.5zM477 1240q-82 0 -135.5 -54t-53.5 -139q0 -86 53.5 -140t135.5 -54q84 0 138 54t54 140q0 85 -54 139t-138 54zM1542 1400l-883 -1400h-219
l883 1400h219zM1503 732q167 0 278 -108t111 -270q0 -163 -111 -271t-278 -108q-166 0 -276 108t-110 271q0 161 110.5 269.5t275.5 108.5zM1503 547q-82 0 -135.5 -54t-53.5 -139q0 -86 53.5 -140t135.5 -54q84 0 138 54t54 140q0 85 -54 139t-138 54z" />
    <glyph glyph-name="ampersand" unicode="&#x26;" horiz-adv-x="1454" 
d="M1424 0h-302l-174 166q-177 -191 -423 -191q-197 0 -309.5 97.5t-112.5 271.5q0 61 19.5 117t56.5 104.5t77.5 87.5t95.5 81q-102 101 -145.5 178.5t-43.5 177.5q0 144 107.5 239.5t279.5 95.5t278.5 -90.5t106.5 -237.5q0 -56 -20.5 -108.5t-61.5 -99.5t-82 -83
t-101 -80l259 -249l193 299l170 -106l-177 -277q-4 -7 -38 -59zM538 172q81 0 143.5 32t121.5 100l-308 294q-80 -64 -123 -122.5t-43 -124.5q0 -80 58 -129.5t151 -49.5zM389 1077q0 -50 27.5 -91.5t111.5 -123.5q90 65 137 117t47 108q0 67 -42.5 103.5t-119.5 36.5
q-76 0 -118.5 -39.5t-42.5 -110.5z" />
    <glyph glyph-name="quotesingle" unicode="'" horiz-adv-x="742" 
d="M266 1440h210v-545h-210v545z" />
    <glyph glyph-name="parenleft" unicode="(" horiz-adv-x="850" 
d="M700 1441l74 -193q-193 -89 -302.5 -273t-109.5 -407t109.5 -407t302.5 -273l-74 -193q-257 107 -410 341.5t-153 531.5t153 531.5t410 341.5z" />
    <glyph glyph-name="parenright" unicode=")" horiz-adv-x="850" 
d="M150 -303l-74 193q193 89 302.5 273t109.5 407t-109.5 407t-302.5 273l74 193q257 -107 410 -341.5t153 -531.5t-153 -531.5t-410 -341.5z" />
    <glyph glyph-name="asterisk" unicode="*" horiz-adv-x="950" 
d="M144 1258l251 -82v264h160v-264l251 82l49 -153l-251 -81l156 -214l-130 -94l-155 213l-155 -213l-130 94l155 214l-250 81z" />
    <glyph glyph-name="plus" unicode="+" horiz-adv-x="1200" 
d="M697 83h-194v355h-353v190h353v355h194v-355h353v-190h-353v-355z" />
    <glyph glyph-name="comma" unicode="," horiz-adv-x="505" 
d="M155 271h245l-120 -545h-180z" />
    <glyph glyph-name="hyphen" unicode="-" horiz-adv-x="846" 
d="M713 628v-190h-580v190h580z" />
    <glyph glyph-name="period" unicode="." horiz-adv-x="529" 
d="M265 325q70 0 122 -52t52 -122q0 -71 -52 -123.5t-122 -52.5t-122.5 53t-52.5 123t52.5 122t122.5 52z" />
    <glyph glyph-name="slash" unicode="/" horiz-adv-x="1007" 
d="M1050 1540l-849 -1740h-231l849 1740h231z" />
    <glyph glyph-name="zero" unicode="0" horiz-adv-x="1423" 
d="M711 1424q122 0 229.5 -50t188 -141.5t127 -229t46.5 -303.5q0 -165 -46.5 -303t-127 -229.5t-188 -141.5t-229.5 -50t-229.5 50t-187.5 141.5t-126.5 229t-46.5 303.5t46.5 303.5t126.5 229t187.5 141.5t229.5 50zM711 1216q-157 0 -260 -136t-103 -380t103 -380
t260 -136q158 0 261 135.5t103 380.5t-103 380.5t-261 135.5z" />
    <glyph glyph-name="one" unicode="1" horiz-adv-x="828" 
d="M634 1422v-1422h-217v1107l-356 -153v226z" />
    <glyph glyph-name="two" unicode="2" horiz-adv-x="1113" 
d="M234 1062l-155 128q24 33 48 60t65.5 61t86.5 57.5t110 39.5t137 16q214 0 339 -124.5t125 -325.5q0 -63 -16 -121t-46 -108t-57.5 -85.5t-66.5 -77.5l-351 -376h575v-206h-896v170l506 538q125 135 125 267q0 107 -66 174.5t-177 67.5q-67 0 -122.5 -23t-89.5 -53
t-74 -79z" />
    <glyph glyph-name="three" unicode="3" horiz-adv-x="1141" 
d="M530 1424q214 0 345 -110t131 -290q0 -109 -56.5 -190.5t-156.5 -127.5q113 -45 179 -129t66 -196q0 -99 -41.5 -178t-111.5 -127.5t-157.5 -74t-184.5 -25.5q-155 0 -279.5 52.5t-202.5 147.5l139 145q62 -67 152 -105t186 -38q121 0 197 54.5t76 158.5q0 102 -86 158.5
t-217 56.5h-169v199h168q119 0 196 53.5t77 154.5q0 97 -75.5 153t-188.5 56q-92 0 -165 -43t-118 -108l-156 133q64 100 179.5 160t273.5 60z" />
    <glyph glyph-name="four" unicode="4" horiz-adv-x="1152" 
d="M890 854v-376h214v-206h-214v-272h-217v272h-625v167l524 959h246l-509 -920h364v376h217z" />
    <glyph glyph-name="five" unicode="5" horiz-adv-x="1166" 
d="M985 1400v-205h-585l-7 -338h184q119 0 212.5 -34.5t151 -93.5t87 -133.5t29.5 -158.5q0 -110 -39.5 -199.5t-108 -146t-156.5 -86.5t-187 -30q-305 0 -487 224l144 141q62 -73 155 -115.5t187 -42.5q128 0 197 69t69 167q0 48 -15.5 88t-50.5 74t-100 53t-155 19h-322
l13 748h784z" />
    <glyph glyph-name="six" unicode="6" horiz-adv-x="1168" 
d="M867 1400l-356 -508q52 14 108 14q194 0 332 -134t138 -331q0 -200 -145 -332.5t-363 -132.5t-363 133t-145 332q0 166 126 353l403 606h265zM581 705q-122 0 -203 -74t-81 -190t81 -190t203 -74q123 0 203.5 74t80.5 190t-80.5 190t-203.5 74z" />
    <glyph glyph-name="seven" unicode="7" horiz-adv-x="1096" 
d="M1035 1400v-170l-606 -1230h-253l598 1195h-701v205h962z" />
    <glyph glyph-name="eight" unicode="8" horiz-adv-x="1272" 
d="M636 1424q139 0 251.5 -47t180.5 -139t68 -214q0 -218 -215 -318q113 -44 180.5 -125t67.5 -201q0 -123 -72.5 -216.5t-192.5 -140.5t-268 -47t-268 47t-192.5 140.5t-72.5 216.5q0 121 67.5 201.5t180.5 124.5q-215 100 -215 318q0 122 68 214t180.5 139t251.5 47z
M636 609q-130 0 -216.5 -57t-86.5 -160q0 -102 86 -158.5t217 -56.5q130 0 216 56.5t86 158.5t-86 159.5t-216 57.5zM636 1222q-117 0 -193.5 -55.5t-76.5 -153.5q0 -102 76.5 -158t193.5 -56t194 56t77 158q0 98 -77 153.5t-194 55.5z" />
    <glyph glyph-name="nine" unicode="9" horiz-adv-x="1168" 
d="M301 0l356 508q-47 -14 -108 -14q-194 0 -332 134t-138 331q0 200 145 332.5t363 132.5t363 -133t145 -332q0 -166 -126 -353l-403 -606h-265zM587 695q122 0 203 74t81 190t-81 190t-203 74q-123 0 -203.5 -74t-80.5 -190t80.5 -190t203.5 -74z" />
    <glyph glyph-name="colon" unicode=":" horiz-adv-x="529" 
d="M265 983q70 0 122 -52t52 -122q0 -71 -52 -123.5t-122 -52.5t-122.5 53t-52.5 123t52.5 122t122.5 52zM265 325q70 0 122 -52t52 -122q0 -71 -52 -123.5t-122 -52.5t-122.5 53t-52.5 123t52.5 122t122.5 52z" />
    <glyph glyph-name="semicolon" unicode=";" horiz-adv-x="505" 
d="M268 983q70 0 122 -52t52 -122q0 -71 -52 -123.5t-122 -52.5t-122.5 53t-52.5 123t52.5 122t122.5 52zM155 271h245l-120 -545h-180z" />
    <glyph glyph-name="less" unicode="&#x3c;" horiz-adv-x="1200" 
d="M1008 275v-224l-815 380v205l815 380v-224l-598 -258z" />
    <glyph glyph-name="equal" unicode="=" horiz-adv-x="1200" 
d="M1050 428v-190h-900v190h900zM1050 828v-190h-900v190h900z" />
    <glyph glyph-name="greater" unicode="&#x3e;" horiz-adv-x="1200" 
d="M193 792v224l815 -380v-205l-815 -380v224l598 258z" />
    <glyph glyph-name="question" unicode="?" horiz-adv-x="890" 
d="M382 462h-190v322h89q161 0 247 57.5t86 166.5q0 98 -85 151t-243 53q-63 0 -160 -9l-18 215q89 14 188 14q260 0 406 -112t146 -303q0 -180 -117.5 -289t-340.5 -138zM287 325q70 0 122 -52t52 -122q0 -71 -52 -123.5t-122 -52.5t-122.5 53t-52.5 123t52.5 122t122.5 52
z" />
    <glyph glyph-name="at" unicode="@" horiz-adv-x="1972" 
d="M1366 883v-423q0 -108 23 -156t78 -48q70 0 112 68.5t42 215.5q0 173 -81.5 311.5t-226.5 216t-327 77.5q-277 0 -456 -180t-179 -465q0 -288 178.5 -469t456.5 -181q225 0 415 128l97 -135q-222 -161 -512 -161q-238 0 -427 106t-294 292.5t-105 419.5q0 173 61.5 323.5
t169.5 258t262 169.5t333 62q178 0 332.5 -60t262.5 -163.5t169.5 -246t61.5 -303.5q0 -199 -94 -324t-260 -125q-177 0 -242 129q-93 -123 -262 -123t-279 114t-110 289q0 174 110 288.5t273 114.5q152 0 239 -104v84h179zM973 734q-101 0 -162 -67t-61 -167t61 -167
t162 -67q99 0 161 66.5t62 167.5t-62 167.5t-161 66.5z" />
    <glyph glyph-name="A" unicode="A" horiz-adv-x="1448" 
d="M865 1400l553 -1400h-243l-138 357h-634l-138 -357h-235l553 1400h282zM720 1175l-234 -604h468z" />
    <glyph glyph-name="B" unicode="B" horiz-adv-x="1403" 
d="M190 1400h543q116 0 208.5 -21t165 -65t111.5 -119t39 -176q0 -107 -61 -189.5t-155 -108.5q105 -31 176.5 -118t71.5 -203q0 -203 -138 -301.5t-386 -98.5h-575v1400zM755 600h-339v-388h339q72 0 122.5 8t92 29t62 60.5t20.5 98.5q0 58 -20.5 96.5t-62 59t-92 28.5
t-122.5 8zM724 1188h-308v-377h310q52 0 91.5 3.5t79.5 15.5t65.5 32.5t41.5 55.5t16 84q0 58 -23 96.5t-67.5 57t-92 25.5t-113.5 7z" />
    <glyph glyph-name="C" unicode="C" horiz-adv-x="1532" 
d="M847 1426q187 0 342.5 -78.5t237.5 -214.5l-189 -126q-65 95 -166.5 148.5t-224.5 53.5q-216 0 -356 -142t-140 -367t140 -367t356 -142q123 0 223.5 52.5t166.5 148.5l184 -135q-90 -132 -241 -207.5t-333 -75.5q-212 0 -379.5 94t-260.5 259.5t-93 372.5t93 372.5
t260.5 259.5t379.5 94z" />
    <glyph glyph-name="D" unicode="D" horiz-adv-x="1587" 
d="M190 1400h556q329 0 528 -192t199 -508t-199 -508t-528 -192h-556v1400zM746 1186h-330v-972h330q239 0 364.5 133t125.5 353q0 222 -125.5 354t-364.5 132z" />
    <glyph glyph-name="E" unicode="E" horiz-adv-x="1363" 
d="M1211 212v-212h-1021v1400h1008v-212h-782v-377h755v-212h-755v-387h795z" />
    <glyph glyph-name="F" unicode="F" horiz-adv-x="1303" 
d="M1143 812v-214h-727v-598h-226v1400h999v-214h-773v-374h727z" />
    <glyph glyph-name="G" unicode="G" horiz-adv-x="1639" 
d="M847 1426q166 0 306 -59t236 -167l-166 -161q-67 80 -164 125t-212 45q-216 0 -356 -142t-140 -367q0 -224 138.5 -366.5t347.5 -142.5q189 0 301.5 94t139.5 269h-371v210h616q2 -36 2 -54q0 -151 -47.5 -284.5t-133.5 -233.5t-217.5 -158.5t-289.5 -58.5
q-109 0 -213.5 30t-197 91t-162 146.5t-110 203.5t-40.5 254q0 156 55 291t151.5 230.5t233 150t293.5 54.5z" />
    <glyph glyph-name="H" unicode="H" horiz-adv-x="1588" 
d="M416 1400v-588h756v588h226v-1400h-226v598h-756v-598h-226v1400h226z" />
    <glyph glyph-name="I" unicode="I" horiz-adv-x="606" 
d="M416 1400v-1400h-226v1400h226z" />
    <glyph glyph-name="J" unicode="J" horiz-adv-x="1149" 
d="M969 1400v-905q0 -245 -136.5 -382.5t-351.5 -137.5q-288 0 -449 215l151 155q108 -153 297 -153q125 0 194 82t69 243v883h226z" />
    <glyph glyph-name="K" unicode="K" horiz-adv-x="1424" 
d="M1108 0l-557 597h-135v-597h-226v1400h226v-589h138l526 589h292l-630 -683l673 -717h-307z" />
    <glyph glyph-name="L" unicode="L" horiz-adv-x="1229" 
d="M1191 214v-214h-1001v1400h226v-1186h775z" />
    <glyph glyph-name="M" unicode="M" horiz-adv-x="1888" 
d="M1698 1400v-1400h-226v1152l-409 -1015h-238l-409 1004v-1141h-226v1400h347l407 -1000l407 1000h347z" />
    <glyph glyph-name="N" unicode="N" horiz-adv-x="1592" 
d="M1402 1400v-1400h-204l-781 1013l-1 -1013h-226v1400h204l782 -1013v1013h226z" />
    <glyph glyph-name="O" unicode="O" horiz-adv-x="1694" 
d="M847 1426q212 0 379.5 -94t260.5 -259.5t93 -372.5t-93 -372.5t-260.5 -259.5t-379.5 -94t-379.5 94t-260.5 259.5t-93 372.5t93 372.5t260.5 259.5t379.5 94zM847 1209q-216 0 -356 -142t-140 -367t140 -367t356 -142t356 142t140 367t-140 367t-356 142z" />
    <glyph glyph-name="P" unicode="P" horiz-adv-x="1324" 
d="M733 550h-317v-550h-226v1400h543q239 0 367.5 -113t128.5 -312t-128.5 -312t-367.5 -113zM727 1187h-311v-424h311q137 0 202 52t65 160t-65 160t-202 52z" />
    <glyph glyph-name="Q" unicode="Q" horiz-adv-x="1694" 
d="M847 1426q212 0 379.5 -94t260.5 -259.5t93 -372.5q0 -271 -158 -467l174 -233h-265l-68 90q-182 -116 -416 -116q-212 0 -379.5 94t-260.5 259.5t-93 372.5t93 372.5t260.5 259.5t379.5 94zM847 1209q-216 0 -356 -142t-140 -367t140 -367t356 -142q158 0 280 80
l-289 384h270l167 -225q68 120 68 270q0 225 -140 367t-356 142z" />
    <glyph glyph-name="R" unicode="R" horiz-adv-x="1372" 
d="M190 1400h576q241 0 368.5 -104.5t127.5 -300.5q0 -178 -126.5 -288t-340.5 -118l461 -589h-280l-446 589h-114v-589h-226v1400zM760 1188h-344v-394h344q136 0 201.5 49.5t65.5 151.5q0 99 -66.5 146t-200.5 47z" />
    <glyph glyph-name="S" unicode="S" horiz-adv-x="1352" 
d="M1222 1273l-115 -183q-188 120 -393 120q-141 0 -228 -57t-87 -152q0 -82 72 -124t219 -63l97 -13q451 -62 451 -385q0 -138 -78 -240t-203.5 -151.5t-279.5 -49.5q-150 0 -304.5 49t-258.5 139l123 180q73 -67 196 -110.5t243 -43.5q141 0 234 56.5t93 150.5
q0 80 -77.5 123.5t-237.5 65.5l-109 15q-66 9 -123.5 26t-112.5 48t-93.5 72.5t-62 103.5t-23.5 137q0 136 75.5 237t199 150.5t277.5 49.5q280 0 506 -151z" />
    <glyph glyph-name="T" unicode="T" horiz-adv-x="1208" 
d="M1170 1400v-214h-453v-1186h-226v1186h-453v214h1132z" />
    <glyph glyph-name="U" unicode="U" horiz-adv-x="1530" 
d="M1359 1400v-848q0 -142 -46 -253.5t-127 -181.5t-188 -106t-233 -36t-233 36t-188 106t-127 181.5t-46 253.5v848h226v-831q0 -192 98.5 -284.5t269.5 -92.5t269.5 92.5t98.5 284.5v831h226z" />
    <glyph glyph-name="V" unicode="V" horiz-adv-x="1410" 
d="M1380 1400l-534 -1400h-282l-534 1400h241l436 -1171l439 1171h234z" />
    <glyph glyph-name="W" unicode="W" horiz-adv-x="2180" 
d="M2132 1400l-427 -1400h-280l-335 1093l-335 -1093h-280l-427 1400h237l333 -1139l346 1139h257l345 -1139l334 1139h232z" />
    <glyph glyph-name="X" unicode="X" horiz-adv-x="1356" 
d="M1292 1400l-479 -686l498 -714h-273l-362 539l-365 -539h-266l497 714l-477 686h273l342 -510l345 510h267z" />
    <glyph glyph-name="Y" unicode="Y" horiz-adv-x="1328" 
d="M1319 1400l-540 -832v-568h-226v572l-544 828h270l388 -627l389 627h263z" />
    <glyph glyph-name="Z" unicode="Z" horiz-adv-x="1292" 
d="M1178 1400v-175l-764 -1011h764v-214h-1064v175l764 1011h-762v214h1062z" />
    <glyph glyph-name="bracketleft" unicode="[" horiz-adv-x="775" 
d="M699 -69v-194h-509v1663h509v-194h-293v-1275h293z" />
    <glyph glyph-name="backslash" unicode="\" horiz-adv-x="1007" 
d="M806 -200l-849 1740h231l849 -1740h-231z" />
    <glyph glyph-name="bracketright" unicode="]" horiz-adv-x="775" 
d="M76 1206v194h509v-1663h-509v194h293v1275h-293z" />
    <glyph glyph-name="asciicircum" unicode="^" horiz-adv-x="1200" 
d="M364 635h-223l357 765h204l357 -765h-228l-234 542z" />
    <glyph glyph-name="underscore" unicode="_" horiz-adv-x="940" 
d="M945 -113v-190h-950v190h950z" />
    <glyph glyph-name="grave" unicode="`" horiz-adv-x="1000" 
d="M729 1110h-206l-251 300h266z" />
    <glyph glyph-name="a" unicode="a" horiz-adv-x="1248" 
d="M1084 958v-958h-209v115q-109 -140 -301 -140q-203 0 -341 143t-138 361t138 361t341 143q192 0 301 -141v116h209zM599 786q-131 0 -210 -88.5t-79 -218.5t79 -218.5t210 -88.5q128 0 208.5 87t80.5 220t-80.5 220t-208.5 87z" />
    <glyph glyph-name="b" unicode="b" horiz-adv-x="1247" 
d="M673 983q203 0 341 -143t138 -361t-138 -361t-341 -143q-191 0 -300 139v-114h-209v1440h209v-596q109 139 300 139zM648 786q-128 0 -208.5 -87t-80.5 -220t80.5 -220t208.5 -87q131 0 210 88.5t79 218.5t-79 218.5t-210 88.5z" />
    <glyph glyph-name="c" unicode="c" horiz-adv-x="1027" 
d="M599 983q109 0 202 -39t156 -114l-134 -143q-105 99 -230 99q-122 0 -202.5 -86t-80.5 -221t80.5 -221t202.5 -86q128 0 235 100l129 -144q-132 -153 -358 -153t-365 143t-139 361t139 361t365 143z" />
    <glyph glyph-name="d" unicode="d" horiz-adv-x="1248" 
d="M574 983q192 0 301 -141v598h209v-1440h-209v115q-109 -140 -301 -140q-203 0 -341 143t-138 361t138 361t341 143zM599 786q-131 0 -210 -88.5t-79 -218.5t79 -218.5t210 -88.5q128 0 208.5 87t80.5 220t-80.5 220t-208.5 87z" />
    <glyph glyph-name="e" unicode="e" horiz-adv-x="1120" 
d="M572 983q201 0 326.5 -139.5t126.5 -363.5q0 -30 -4 -78h-708q20 -123 98 -183.5t187 -60.5q150 0 277 101l104 -149q-158 -135 -394 -135q-217 0 -353.5 139t-136.5 365q0 225 132.5 364.5t344.5 139.5zM568 797q-108 0 -172.5 -63.5t-81.5 -172.5h497
q-17 112 -80.5 174t-162.5 62z" />
    <glyph glyph-name="f" unicode="f" horiz-adv-x="844" 
d="M779 958v-190h-328v-768h-210v768h-192v190h192v162q0 153 80.5 249t240.5 96q145 0 267 -72l-74 -176q-89 51 -179 51q-61 0 -93 -38.5t-32 -109.5v-162h328z" />
    <glyph glyph-name="g" unicode="g" horiz-adv-x="1232" 
d="M539 983q208 0 319 -140v115h210v-891q0 -226 -137 -356t-377 -130q-110 0 -218.5 29t-182.5 82l76 177q159 -97 325 -97q146 0 225 75.5t79 210.5v77q-110 -140 -319 -140q-83 0 -162 34.5t-142 96t-101.5 156.5t-38.5 207t38.5 207t101.5 156.5t142 96t162 34.5z
M593 786q-129 0 -206 -85.5t-77 -211.5q0 -125 77 -211t206 -86q125 0 204 84.5t79 212.5t-79 212.5t-204 84.5z" />
    <glyph glyph-name="h" unicode="h" horiz-adv-x="1209" 
d="M374 1440v-596q97 139 292 139q171 0 280 -106.5t109 -274.5v-602h-210v533q0 120 -58.5 185.5t-164.5 65.5t-177 -67.5t-71 -185.5v-531h-210v1440h210z" />
    <glyph glyph-name="i" unicode="i" horiz-adv-x="538" 
d="M374 958v-958h-210v958h210zM268 1437q62 0 105 -43t43 -105t-43 -104t-105 -42t-104 42t-42 104t42 105t104 43z" />
    <glyph glyph-name="j" unicode="j" horiz-adv-x="544" 
d="M380 958v-1076q0 -144 -77 -222.5t-204 -78.5q-84 0 -145 29l49 182q37 -14 77 -14t65 28t25 86v1066h210zM273 1437q62 0 105 -43t43 -105t-43 -104t-105 -42t-104 42t-42 104t42 105t104 43z" />
    <glyph glyph-name="k" unicode="k" horiz-adv-x="1085" 
d="M374 1440v-846h105l316 364h263l-401 -451l405 -507h-265l-319 404h-104v-404h-210v1440h210z" />
    <glyph glyph-name="l" unicode="l" horiz-adv-x="538" 
d="M374 1440v-1440h-210v1440h210z" />
    <glyph glyph-name="m" unicode="m" horiz-adv-x="1890" 
d="M1347 983q171 0 280 -106.5t109 -274.5v-602h-210v533q0 120 -58.5 185.5t-164.5 65.5t-177 -67.5t-71 -185.5v-531h-210v533q0 120 -58.5 185.5t-164.5 65.5t-177 -67.5t-71 -185.5v-531h-210v958h208v-117q97 142 294 142q108 0 194.5 -45.5t136.5 -125.5
q104 171 350 171z" />
    <glyph glyph-name="n" unicode="n" horiz-adv-x="1209" 
d="M666 983q171 0 280 -106.5t109 -274.5v-602h-210v533q0 120 -58.5 185.5t-164.5 65.5t-177 -67.5t-71 -185.5v-531h-210v958h208v-117q97 142 294 142z" />
    <glyph glyph-name="o" unicode="o" horiz-adv-x="1221" 
d="M610 983q146 0 264 -65.5t185 -181t67 -257.5t-67 -257.5t-185 -181t-264 -65.5t-264 66t-184.5 181t-66.5 257t66.5 257t184.5 181t264 66zM610 786q-129 0 -214.5 -86t-85.5 -221t85.5 -221t214.5 -86t215 86t86 221t-86 221t-215 86z" />
    <glyph glyph-name="p" unicode="p" horiz-adv-x="1247" 
d="M673 983q203 0 341 -143t138 -361t-138 -361t-341 -143q-191 0 -300 139v-514h-209v1358h209v-114q109 139 300 139zM648 786q-128 0 -208.5 -87t-80.5 -220t80.5 -220t208.5 -87q131 0 210 88.5t79 218.5t-79 218.5t-210 88.5z" />
    <glyph glyph-name="q" unicode="q" horiz-adv-x="1248" 
d="M574 983q192 0 301 -141v116h209v-1358h-209v515q-109 -140 -301 -140q-203 0 -341 143t-138 361t138 361t341 143zM599 786q-131 0 -210 -88.5t-79 -218.5t79 -218.5t210 -88.5q128 0 208.5 87t80.5 220t-80.5 220t-208.5 87z" />
    <glyph glyph-name="r" unicode="r" horiz-adv-x="859" 
d="M649 983q93 0 161 -27l-50 -207q-67 35 -159 35q-102 0 -165 -68.5t-63 -188.5v-527h-209v958h207v-108q92 133 278 133z" />
    <glyph glyph-name="s" unicode="s" horiz-adv-x="1011" 
d="M906 881l-90 -163q-51 32 -132.5 57t-163.5 25q-84 0 -132.5 -31t-48.5 -83q0 -24 11.5 -41.5t35 -28.5t49 -17t62.5 -12l99 -15q333 -48 333 -283q0 -141 -116 -227t-320 -86q-245 0 -411 123l97 157q128 -98 316 -98q106 0 162 31t56 86q0 83 -166 106l-100 13
q-159 22 -242 93.5t-83 187.5q0 142 106.5 224.5t289.5 82.5q232 0 388 -101z" />
    <glyph glyph-name="t" unicode="t" horiz-adv-x="908" 
d="M817 958v-190h-367v-417q0 -92 42 -135.5t110 -43.5q90 0 193 65l83 -167q-141 -95 -294 -95q-166 0 -255 92t-89 280v421h-191v190h191v290h210v-290h367z" />
    <glyph glyph-name="u" unicode="u" horiz-adv-x="1196" 
d="M1042 958v-552q0 -110 -37.5 -195t-101 -135.5t-141 -75.5t-164.5 -25t-164.5 25t-141.5 75.5t-101 135.5t-37 195v552h210v-533q0 -131 64 -192t170 -61t170 61t64 192v533h210z" />
    <glyph glyph-name="v" unicode="v" horiz-adv-x="1062" 
d="M1039 958l-383 -958h-248l-385 958h228l283 -741l283 741h222z" />
    <glyph glyph-name="w" unicode="w" horiz-adv-x="1674" 
d="M956 958l239 -732l226 732h218l-317 -958h-250l-237 722l-237 -722h-246l-317 958h223l225 -728l236 728h237z" />
    <glyph glyph-name="x" unicode="x" horiz-adv-x="1051" 
d="M1011 958l-354 -467l361 -491h-257l-243 333l-240 -333h-245l361 489l-355 469h257l233 -320l235 320h247z" />
    <glyph glyph-name="y" unicode="y" horiz-adv-x="1098" 
d="M1086 958l-756 -1364h-232l343 603l-425 761h235l308 -550l297 550h230z" />
    <glyph glyph-name="z" unicode="z" horiz-adv-x="1041" 
d="M916 958v-152l-523 -616h533v-190h-811v152l532 616h-516v190h785z" />
    <glyph glyph-name="braceleft" unicode="{" horiz-adv-x="880" 
d="M804 1206h-48q-101 0 -159 -54t-54 -150l5 -108q5 -117 -47 -200.5t-159 -124.5q107 -41 159 -124.5t47 -200.5l-5 -108q-4 -96 54 -150t159 -54h48v-194h-48q-214 0 -326 113t-103 309l5 108q4 97 -54.5 150.5t-163.5 53.5v194q105 0 163.5 53.5t54.5 150.5l-5 108
q-9 196 103 309t326 113h48v-194z" />
    <glyph glyph-name="bar" unicode="|" horiz-adv-x="742" 
d="M476 1400v-1665h-210v1665h210z" />
    <glyph glyph-name="braceright" unicode="}" horiz-adv-x="880" 
d="M76 -68h48q101 0 159 54t54 150l-5 108q-5 117 47 200.5t159 124.5q-107 41 -159 124.5t-47 200.5l5 108q4 96 -54 150t-159 54h-48v194h48q214 0 326 -113t103 -309l-5 -108q-4 -97 54.5 -150.5t163.5 -53.5v-194q-105 0 -163.5 -53.5t-54.5 -150.5l5 -108
q9 -196 -103 -309t-326 -113h-48v194z" />
    <glyph glyph-name="asciitilde" unicode="~" horiz-adv-x="1200" 
d="M954 656l114 -133q-60 -63 -126.5 -92.5t-153.5 -29.5q-82 0 -149 19.5t-124 39t-116 19.5q-65 0 -152 -75l-114 133q60 63 126.5 92.5t153.5 29.5q83 0 149.5 -19.5t123.5 -39t116 -19.5q65 0 152 75z" />
    <glyph glyph-name="uni00A0" unicode="&#xa0;" horiz-adv-x="540" 
 />
    <glyph glyph-name="exclamdown" unicode="&#xa1;" horiz-adv-x="530" 
d="M137 -442l34 938h190l34 -938h-258zM265 633q-70 0 -122 52t-52 122q0 71 52 123.5t122 52.5t122.5 -53t52.5 -123t-52.5 -122t-122.5 -52z" />
    <glyph glyph-name="cent" unicode="&#xa2;" horiz-adv-x="1400" 
d="M657 1400h194v-202q190 -22 304 -148l-123 -137q-88 74 -181 92v-611q101 21 187 94l117 -138q-117 -126 -304 -148v-202h-194v209q-188 37 -298.5 171t-110.5 320t110.5 320t298.5 170v210zM455 700q0 -104 55 -182t147 -111v586q-92 -33 -147 -111t-55 -182z" />
    <glyph glyph-name="sterling" unicode="&#xa3;" horiz-adv-x="1400" 
d="M1227 206v-206h-1053v206h166v399h-166v190h166v80q0 135 39.5 241t108.5 172.5t159 101t194 34.5q235 0 376 -145l-146 -153q-87 91 -230 91q-130 0 -207.5 -88t-77.5 -270v-64h499v-190h-499v-399h671z" />
    <glyph glyph-name="currency" unicode="&#xa4;" horiz-adv-x="1400" 
d="M170 1107l122 123l147 -146q117 79 261 79q143 0 260 -79l146 146l123 -123l-146 -146q81 -118 81 -261q0 -142 -80 -262l146 -145l-123 -123l-146 146q-118 -80 -261 -80q-144 0 -262 80l-145 -146l-122 123l145 145q-80 116 -80 262q0 145 80 261zM700 408
q122 0 206.5 85t84.5 207t-84.5 206.5t-206.5 84.5t-206.5 -84.5t-84.5 -206.5t84.5 -207t206.5 -85z" />
    <glyph glyph-name="yen" unicode="&#xa5;" horiz-adv-x="1400" 
d="M1190 453v-173h-374v-280h-217v280h-375v173h375v156h-375v173h287l-423 618h258l361 -552l352 552h254l-415 -618h292v-173h-374v-156h374z" />
    <glyph glyph-name="brokenbar" unicode="&#xa6;" horiz-adv-x="742" 
d="M476 1400v-694h-210v694h210zM476 429v-694h-210v694h210z" />
    <glyph glyph-name="section" unicode="&#xa7;" horiz-adv-x="1308" 
d="M1143 1298l-101 -171q-172 101 -350 101q-127 0 -206 -45t-80 -121q0 -67 67 -100t210 -52l85 -11q67 -9 124 -24.5t109.5 -41.5t89 -61.5t58.5 -86.5t22 -113q0 -158 -147 -256q126 -85 126 -235q0 -122 -71.5 -210.5t-185 -130t-252.5 -41.5q-137 0 -273.5 40
t-230.5 114l111 170q69 -55 176 -91.5t217 -36.5q128 0 211 44.5t84 123.5q0 64 -73 99t-215 52l-96 12q-80 10 -145.5 32.5t-120 61t-85 99t-30.5 138.5q0 155 143 250q-122 87 -122 241q0 115 67.5 201.5t179.5 130.5t252 44q248 0 452 -126zM574 717q-24 3 -72 13
q-55 -24 -86 -65.5t-31 -94.5q0 -67 67.5 -100t209.5 -51l85 -11q34 -4 90 -16q56 23 88 64.5t32 97.5q0 64 -73 98.5t-215 52.5z" />
    <glyph glyph-name="dieresis" unicode="&#xa8;" horiz-adv-x="1020" 
d="M309 1399q62 0 105 -43t43 -105t-43 -104t-105 -42t-104 42t-42 104t42 105t104 43zM709 1399q62 0 105 -43t43 -105t-43 -104t-105 -42t-104 42t-42 104t42 105t104 43z" />
    <glyph glyph-name="copyright" unicode="&#xa9;" horiz-adv-x="1912" 
d="M956 1522q167 0 318.5 -64.5t261 -173t174.5 -258.5t65 -315t-65 -315.5t-174.5 -259.5t-261 -173.5t-318.5 -64.5t-318.5 64.5t-261 173.5t-174.5 259.5t-65 315.5t65 315t174.5 258.5t261 173t318.5 64.5zM956 1337q-128 0 -244 -49.5t-200.5 -133t-134 -199.5
t-49.5 -244q0 -171 84 -315.5t228.5 -228.5t315.5 -84t315.5 84t228.5 228.5t84 315.5q0 128 -49.5 244t-134 199.5t-200.5 133t-244 49.5zM1325 963l-156 -105q-72 104 -195 104q-99 0 -165.5 -71.5t-66.5 -179.5q0 -117 67.5 -184t165.5 -67q122 0 197 104l147 -116
q-124 -171 -343 -171q-188 0 -309.5 122.5t-121.5 311.5t121.5 311.5t309.5 122.5q110 0 202 -48t147 -134z" />
    <glyph glyph-name="ordfeminine" unicode="&#xaa;" horiz-adv-x="791" 
d="M375 1282q146 0 228.5 -76t82.5 -218v-400h-169v70q-83 -88 -210 -88q-111 0 -174.5 60.5t-63.5 158.5q0 95 75 150.5t203 55.5h165q-12 134 -157 134q-95 0 -185 -65l-68 133q115 85 273 85zM347 712q96 0 168 83v80h-143q-63 0 -92.5 -23.5t-29.5 -58.5q0 -33 24.5 -57
t72.5 -24z" />
    <glyph glyph-name="guillemotleft" unicode="&#xab;" horiz-adv-x="1062" 
d="M755 533l189 -379h-225l-189 379l189 379h225zM330 533l189 -379h-225l-189 379l189 379h225z" />
    <glyph glyph-name="logicalnot" unicode="&#xac;" horiz-adv-x="1200" 
d="M150 628h900v-500h-194v310h-706v190z" />
    <glyph glyph-name="uni00AD" unicode="&#xad;" horiz-adv-x="846" 
d="M713 628v-190h-580v190h580z" />
    <glyph glyph-name="registered" unicode="&#xae;" horiz-adv-x="1017" 
d="M510 1441q126 0 232 -60.5t167.5 -163.5t61.5 -225q0 -121 -61.5 -224.5t-168 -164.5t-231.5 -61q-195 0 -329.5 132t-134.5 318t134.5 317.5t329.5 131.5zM510 667q134 0 228 95t94 230t-94 229.5t-228 94.5q-138 0 -232 -94t-94 -230t94.5 -230.5t231.5 -94.5z
M338 1191h198q80 0 123.5 -36t43.5 -98q0 -48 -31 -79.5t-88 -41.5l124 -143h-134l-111 139h-13v-139h-112v398zM534 1094h-84v-73h84q54 0 54 36q0 37 -54 37z" />
    <glyph glyph-name="macron" unicode="&#xaf;" horiz-adv-x="1000" 
d="M190 1165v170h620v-170h-620z" />
    <glyph glyph-name="degree" unicode="&#xb0;" horiz-adv-x="842" 
d="M421 686q-156 0 -265.5 108t-109.5 262q0 153 110 261t265 108t265 -108t110 -261q0 -154 -109.5 -262t-265.5 -108zM421 856q79 0 137 58.5t58 141.5q0 82 -58 140.5t-137 58.5q-80 0 -137.5 -58.5t-57.5 -140.5q0 -83 57.5 -141.5t137.5 -58.5z" />
    <glyph glyph-name="plusminus" unicode="&#xb1;" horiz-adv-x="1200" 
d="M697 283h-194v265h-353v190h353v325h194v-325h353v-190h-353v-265zM1050 190v-190h-900v190h900z" />
    <glyph glyph-name="twosuperior" unicode="&#xb2;" horiz-adv-x="721" 
d="M174 1165l-112 108q113 141 290 141q130 0 206.5 -72t76.5 -190q0 -69 -30.5 -125t-92.5 -117l-164 -161h307v-161h-554v135l290 285q65 65 65 130q0 49 -33 80t-86 31q-51 0 -88.5 -22t-74.5 -62z" />
    <glyph glyph-name="threesuperior" unicode="&#xb3;" horiz-adv-x="730" 
d="M333 1414q133 0 215.5 -64t82.5 -169q0 -128 -122 -184q66 -26 103 -74t37 -111q0 -114 -90.5 -176t-219.5 -62q-190 0 -291 118l100 114q74 -77 183 -77q61 0 99.5 25t38.5 72q0 45 -44 70t-110 25h-95v153h96q59 0 97.5 24.5t38.5 68.5t-35 68t-92 24q-101 0 -168 -80
l-104 111q100 124 280 124z" />
    <glyph glyph-name="acute" unicode="&#xb4;" horiz-adv-x="1000" 
d="M478 1110h-206l191 300h266z" />
    <glyph glyph-name="mu" unicode="&#xb5;" horiz-adv-x="1209" 
d="M362 -400h-208v1358h210v-533q0 -120 58.5 -185.5t164.5 -65.5t177 67.5t71 185.5v531h210v-958h-208v117q-97 -142 -294 -142q-97 0 -181 38v-413z" />
    <glyph glyph-name="paragraph" unicode="&#xb6;" horiz-adv-x="1267" 
d="M568 0v629q-210 4 -322.5 106t-112.5 279q0 178 112.5 279.5t322.5 105.5v1h166v-1400h-166zM835 0v1400h166v-1400h-166z" />
    <glyph glyph-name="periodcentered" unicode="&#xb7;" horiz-adv-x="655" 
d="M328 708q70 0 122 -52t52 -122q0 -71 -52 -123.5t-122 -52.5t-122.5 53t-52.5 123t52.5 122t122.5 52z" />
    <glyph glyph-name="cedilla" unicode="&#xb8;" horiz-adv-x="1014" 
d="M668 7l-103 -328h-219l111 328h211z" />
    <glyph glyph-name="onesuperior" unicode="&#xb9;" horiz-adv-x="565" 
d="M413 1413v-825h-173v585l-192 -74v171z" />
    <glyph glyph-name="ordmasculine" unicode="&#xba;" horiz-adv-x="868" 
d="M434 1282q157 0 261 -101.5t104 -254.5t-104 -254.5t-261 -101.5t-261 101.5t-104 254.5t104 254.5t261 101.5zM434 1121q-82 0 -135 -54.5t-53 -140.5q0 -85 53.5 -139.5t134.5 -54.5t135 54.5t54 139.5t-54 140t-135 55z" />
    <glyph glyph-name="guillemotright" unicode="&#xbb;" horiz-adv-x="1062" 
d="M307 533l-189 379h225l189 -379l-189 -379h-225zM732 533l-189 379h225l189 -379l-189 -379h-225z" />
    <glyph glyph-name="onequarter" unicode="&#xbc;" horiz-adv-x="1701" 
d="M1372 1400l-883 -1400h-209l883 1400h209zM1553 519v-218h110v-158h-110v-143h-173v143h-365v124l281 544h191l-268 -510h161v218h173zM413 1413v-825h-173v585l-192 -74v171z" />
    <glyph glyph-name="onehalf" unicode="&#xbd;" horiz-adv-x="1778" 
d="M1372 1400l-883 -1400h-209l883 1400h209zM1231 577l-112 108q113 141 290 141q130 0 206.5 -72t76.5 -190q0 -69 -30.5 -125t-92.5 -117l-164 -161h307v-161h-554v135l290 285q65 65 65 130q0 49 -33 80t-86 31q-51 0 -88.5 -22t-74.5 -62zM413 1413v-825h-173v585
l-192 -74v171z" />
    <glyph glyph-name="threequarters" unicode="&#xbe;" horiz-adv-x="1836" 
d="M1507 1400l-883 -1400h-209l883 1400h209zM1688 519v-218h110v-158h-110v-143h-173v143h-365v124l281 544h191l-268 -510h161v218h173zM333 1414q133 0 215.5 -64t82.5 -169q0 -128 -122 -184q66 -26 103 -74t37 -111q0 -114 -90.5 -176t-219.5 -62q-190 0 -291 118
l100 114q74 -77 183 -77q61 0 99.5 25t38.5 72q0 45 -44 70t-110 25h-95v153h96q59 0 97.5 24.5t38.5 68.5t-35 68t-92 24q-101 0 -168 -80l-104 111q100 124 280 124z" />
    <glyph glyph-name="questiondown" unicode="&#xbf;" horiz-adv-x="890" 
d="M508 496h190v-322h-89q-161 0 -247 -57.5t-86 -166.5q0 -98 85 -151t243 -53q63 0 160 9l18 -215q-89 -14 -188 -14q-260 0 -406 112t-146 303q0 180 117.5 289t339.5 137zM603 633q-70 0 -122 52t-52 122q0 71 52 123.5t122 52.5t122.5 -53t52.5 -123t-52.5 -122
t-122.5 -52z" />
    <glyph glyph-name="Agrave" unicode="&#xc0;" horiz-adv-x="1448" 
d="M865 1400l553 -1400h-243l-138 357h-634l-138 -357h-235l553 1400h282zM720 1175l-234 -604h468zM661 1525l-251 300h266l191 -300h-206z" />
    <glyph glyph-name="Aacute" unicode="&#xc1;" horiz-adv-x="1448" 
d="M865 1400l553 -1400h-243l-138 357h-634l-138 -357h-235l553 1400h282zM720 1175l-234 -604h468zM772 1525h-206l191 300h266z" />
    <glyph glyph-name="Acircumflex" unicode="&#xc2;" horiz-adv-x="1448" 
d="M865 1400l553 -1400h-243l-138 357h-634l-138 -357h-235l553 1400h282zM720 1175l-234 -604h468zM1078 1515h-223l-131 163l-131 -163h-223l211 300h286z" />
    <glyph glyph-name="Atilde" unicode="&#xc3;" horiz-adv-x="1448" 
d="M865 1400l553 -1400h-243l-138 357h-634l-138 -357h-235l553 1400h282zM720 1175l-234 -604h468zM459 1546l-108 133q51 58 108 85t132 27q59 0 111 -17t90.5 -34t63.5 -17q56 0 132 65l108 -133q-51 -58 -108 -85t-132 -27q-58 0 -109.5 17t-90 34t-65.5 17
q-56 0 -132 -65z" />
    <glyph glyph-name="Adieresis" unicode="&#xc4;" horiz-adv-x="1448" 
d="M865 1400l553 -1400h-243l-138 357h-634l-138 -357h-235l553 1400h282zM720 1175l-234 -604h468zM523 1814q62 0 105 -43t43 -105t-43 -104t-105 -42t-104 42t-42 104t42 105t104 43zM923 1814q62 0 105 -43t43 -105t-43 -104t-105 -42t-104 42t-42 104t42 105t104 43z
" />
    <glyph glyph-name="Aring" unicode="&#xc5;" horiz-adv-x="1448" 
d="M865 1400l553 -1400h-243l-138 357h-634l-138 -357h-235l553 1400h282zM720 1175l-234 -604h468zM724 1498q-102 0 -175 71.5t-73 173.5q0 100 73 172t175 72q103 0 176 -71.5t73 -172.5q0 -102 -73 -173.5t-176 -71.5zM724 1630q45 0 77.5 32.5t32.5 80.5
q0 46 -32.5 78.5t-77.5 32.5t-77 -32.5t-32 -78.5q0 -48 32 -80.5t77 -32.5z" />
    <glyph glyph-name="AE" unicode="&#xc6;" horiz-adv-x="2317" 
d="M2165 212v-212h-1021v321h-606l-241 -321h-273l1057 1400h1071v-212h-782v-377h755v-212h-755v-387h795zM699 535h445v592z" />
    <glyph glyph-name="Ccedilla" unicode="&#xc7;" horiz-adv-x="1532" 
d="M847 1426q187 0 342.5 -78.5t237.5 -214.5l-189 -126q-65 95 -166.5 148.5t-224.5 53.5q-216 0 -356 -142t-140 -367t140 -367t356 -142q123 0 223.5 52.5t166.5 148.5l184 -135q-76 -112 -197 -184t-269 -92l-95 -302h-229l104 303q-278 36 -449.5 234t-171.5 484
q0 207 93 372.5t260.5 259.5t379.5 94z" />
    <glyph glyph-name="Egrave" unicode="&#xc8;" horiz-adv-x="1363" 
d="M1211 212v-212h-1021v1400h1008v-212h-782v-377h755v-212h-755v-387h795zM628 1525l-251 300h266l191 -300h-206z" />
    <glyph glyph-name="Eacute" unicode="&#xc9;" horiz-adv-x="1363" 
d="M1211 212v-212h-1021v1400h1008v-212h-782v-377h755v-212h-755v-387h795zM739 1525h-206l191 300h266z" />
    <glyph glyph-name="Ecircumflex" unicode="&#xca;" horiz-adv-x="1363" 
d="M1211 212v-212h-1021v1400h1008v-212h-782v-377h755v-212h-755v-387h795zM1045 1515h-223l-131 163l-131 -163h-223l211 300h286z" />
    <glyph glyph-name="Edieresis" unicode="&#xcb;" horiz-adv-x="1363" 
d="M1211 212v-212h-1021v1400h1008v-212h-782v-377h755v-212h-755v-387h795zM490 1814q62 0 105 -43t43 -105t-43 -104t-105 -42t-104 42t-42 104t42 105t104 43zM890 1814q62 0 105 -43t43 -105t-43 -104t-105 -42t-104 42t-42 104t42 105t104 43z" />
    <glyph glyph-name="Igrave" unicode="&#xcc;" horiz-adv-x="606" 
d="M416 1400v-1400h-226v1400h226zM240 1525l-251 300h266l191 -300h-206z" />
    <glyph glyph-name="Iacute" unicode="&#xcd;" horiz-adv-x="606" 
d="M416 1400v-1400h-226v1400h226zM351 1525h-206l191 300h266z" />
    <glyph glyph-name="Icircumflex" unicode="&#xce;" horiz-adv-x="606" 
d="M416 1400v-1400h-226v1400h226zM657 1515h-223l-131 163l-131 -163h-223l211 300h286z" />
    <glyph glyph-name="Idieresis" unicode="&#xcf;" horiz-adv-x="606" 
d="M416 1400v-1400h-226v1400h226zM102 1814q62 0 105 -43t43 -105t-43 -104t-105 -42t-104 42t-42 104t42 105t104 43zM502 1814q62 0 105 -43t43 -105t-43 -104t-105 -42t-104 42t-42 104t42 105t104 43z" />
    <glyph glyph-name="Eth" unicode="&#xd0;" horiz-adv-x="1701" 
d="M304 1400h556q329 0 528 -192t199 -508t-199 -508t-528 -192h-556v598h-190v214h190v588zM904 812v-214h-374v-384h330q239 0 364.5 133t125.5 353q0 222 -125.5 354t-364.5 132h-330v-374h374z" />
    <glyph glyph-name="Ntilde" unicode="&#xd1;" horiz-adv-x="1592" 
d="M1402 1400v-1400h-204l-781 1013l-1 -1013h-226v1400h204l782 -1013v1013h226zM531 1546l-108 133q51 58 108 85t132 27q59 0 111 -17t90.5 -34t63.5 -17q56 0 132 65l108 -133q-51 -58 -108 -85t-132 -27q-58 0 -109.5 17t-90 34t-65.5 17q-56 0 -132 -65z" />
    <glyph glyph-name="Ograve" unicode="&#xd2;" horiz-adv-x="1694" 
d="M847 1426q212 0 379.5 -94t260.5 -259.5t93 -372.5t-93 -372.5t-260.5 -259.5t-379.5 -94t-379.5 94t-260.5 259.5t-93 372.5t93 372.5t260.5 259.5t379.5 94zM847 1209q-216 0 -356 -142t-140 -367t140 -367t356 -142t356 142t140 367t-140 367t-356 142zM784 1525
l-251 300h266l191 -300h-206z" />
    <glyph glyph-name="Oacute" unicode="&#xd3;" horiz-adv-x="1694" 
d="M847 1426q212 0 379.5 -94t260.5 -259.5t93 -372.5t-93 -372.5t-260.5 -259.5t-379.5 -94t-379.5 94t-260.5 259.5t-93 372.5t93 372.5t260.5 259.5t379.5 94zM847 1209q-216 0 -356 -142t-140 -367t140 -367t356 -142t356 142t140 367t-140 367t-356 142zM895 1525h-206
l191 300h266z" />
    <glyph glyph-name="Ocircumflex" unicode="&#xd4;" horiz-adv-x="1694" 
d="M847 1426q212 0 379.5 -94t260.5 -259.5t93 -372.5t-93 -372.5t-260.5 -259.5t-379.5 -94t-379.5 94t-260.5 259.5t-93 372.5t93 372.5t260.5 259.5t379.5 94zM847 1209q-216 0 -356 -142t-140 -367t140 -367t356 -142t356 142t140 367t-140 367t-356 142zM1201 1515
h-223l-131 163l-131 -163h-223l211 300h286z" />
    <glyph glyph-name="Otilde" unicode="&#xd5;" horiz-adv-x="1694" 
d="M847 1426q212 0 379.5 -94t260.5 -259.5t93 -372.5t-93 -372.5t-260.5 -259.5t-379.5 -94t-379.5 94t-260.5 259.5t-93 372.5t93 372.5t260.5 259.5t379.5 94zM847 1209q-216 0 -356 -142t-140 -367t140 -367t356 -142t356 142t140 367t-140 367t-356 142zM582 1546
l-108 133q51 58 108 85t132 27q59 0 111.5 -17t90.5 -34t63 -17q56 0 132 65l108 -133q-51 -58 -108 -85t-132 -27q-58 0 -109.5 17t-90 34t-65.5 17q-56 0 -132 -65z" />
    <glyph glyph-name="Odieresis" unicode="&#xd6;" horiz-adv-x="1694" 
d="M847 1426q212 0 379.5 -94t260.5 -259.5t93 -372.5t-93 -372.5t-260.5 -259.5t-379.5 -94t-379.5 94t-260.5 259.5t-93 372.5t93 372.5t260.5 259.5t379.5 94zM847 1209q-216 0 -356 -142t-140 -367t140 -367t356 -142t356 142t140 367t-140 367t-356 142zM646 1814
q62 0 105 -43t43 -105t-43 -104t-105 -42t-104 42t-42 104t42 105t104 43zM1046 1814q62 0 105 -43t43 -105t-43 -104t-105 -42t-104 42t-42 104t42 105t104 43z" />
    <glyph glyph-name="multiply" unicode="&#xd7;" horiz-adv-x="1200" 
d="M314 112l-135 135l284 284l-286 286l139 139l286 -286l284 284l135 -135l-284 -284l286 -286l-139 -139l-286 286z" />
    <glyph glyph-name="Oslash" unicode="&#xd8;" horiz-adv-x="1694" 
d="M847 1426q255 0 443 -135l134 134l149 -149l-133 -133q140 -189 140 -443q0 -207 -93 -372.5t-260.5 -259.5t-379.5 -94q-254 0 -443 134l-133 -133l-149 148l132 132q-140 190 -140 445q0 207 93 372.5t260.5 259.5t379.5 94zM847 1209q-216 0 -356 -142t-140 -367
q0 -158 71 -277l705 705q-122 81 -280 81zM1343 700q0 154 -71 275l-705 -705q122 -79 280 -79q216 0 356 142t140 367z" />
    <glyph glyph-name="Ugrave" unicode="&#xd9;" horiz-adv-x="1530" 
d="M1359 1400v-848q0 -142 -46 -253.5t-127 -181.5t-188 -106t-233 -36t-233 36t-188 106t-127 181.5t-46 253.5v848h226v-831q0 -192 98.5 -284.5t269.5 -92.5t269.5 92.5t98.5 284.5v831h226zM702 1525l-251 300h266l191 -300h-206z" />
    <glyph glyph-name="Uacute" unicode="&#xda;" horiz-adv-x="1530" 
d="M1359 1400v-848q0 -142 -46 -253.5t-127 -181.5t-188 -106t-233 -36t-233 36t-188 106t-127 181.5t-46 253.5v848h226v-831q0 -192 98.5 -284.5t269.5 -92.5t269.5 92.5t98.5 284.5v831h226zM813 1525h-206l191 300h266z" />
    <glyph glyph-name="Ucircumflex" unicode="&#xdb;" horiz-adv-x="1530" 
d="M1359 1400v-848q0 -142 -46 -253.5t-127 -181.5t-188 -106t-233 -36t-233 36t-188 106t-127 181.5t-46 253.5v848h226v-831q0 -192 98.5 -284.5t269.5 -92.5t269.5 92.5t98.5 284.5v831h226zM1119 1515h-223l-131 163l-131 -163h-223l211 300h286z" />
    <glyph glyph-name="Udieresis" unicode="&#xdc;" horiz-adv-x="1530" 
d="M1359 1400v-848q0 -142 -46 -253.5t-127 -181.5t-188 -106t-233 -36t-233 36t-188 106t-127 181.5t-46 253.5v848h226v-831q0 -192 98.5 -284.5t269.5 -92.5t269.5 92.5t98.5 284.5v831h226zM564 1814q62 0 105 -43t43 -105t-43 -104t-105 -42t-104 42t-42 104t42 105
t104 43zM964 1814q62 0 105 -43t43 -105t-43 -104t-105 -42t-104 42t-42 104t42 105t104 43z" />
    <glyph glyph-name="Yacute" unicode="&#xdd;" horiz-adv-x="1328" 
d="M1319 1400l-540 -832v-568h-226v572l-544 828h270l388 -627l389 627h263zM715 1525h-206l191 300h266z" />
    <glyph glyph-name="Thorn" unicode="&#xde;" horiz-adv-x="1324" 
d="M416 1400v-260h317q239 0 367.5 -113t128.5 -312t-128.5 -312t-367.5 -113h-317v-290h-226v1400h226zM727 927h-311v-424h311q137 0 202 52t65 160t-65 160t-202 52z" />
    <glyph glyph-name="germandbls" unicode="&#xdf;" horiz-adv-x="1241" 
d="M156 0v1024q0 88 28 165t84 140t150.5 99.5t217.5 36.5q129 0 235.5 -49t169.5 -140t63 -205q0 -122 -64.5 -214.5t-164.5 -121.5q113 -25 192 -121t79 -217q0 -192 -126 -307t-314 -115q-129 0 -222 29l40 194q72 -28 149 -28q125 0 191.5 59t66.5 175
q0 120 -84.5 171.5t-241.5 51.5h-29v190h1q52 0 93 4.5t83.5 19t71 38t46.5 64.5t18 96q0 114 -73 171.5t-184 57.5q-126 0 -196 -71.5t-70 -186.5v-1010h-210z" />
    <glyph glyph-name="agrave" unicode="&#xe0;" horiz-adv-x="1248" 
d="M1084 958v-958h-209v115q-109 -140 -301 -140q-203 0 -341 143t-138 361t138 361t341 143q192 0 301 -141v116h209zM599 786q-131 0 -210 -88.5t-79 -218.5t79 -218.5t210 -88.5q128 0 208.5 87t80.5 220t-80.5 220t-208.5 87zM553 1110l-251 300h266l191 -300h-206z" />
    <glyph glyph-name="aacute" unicode="&#xe1;" horiz-adv-x="1248" 
d="M1084 958v-958h-209v115q-109 -140 -301 -140q-203 0 -341 143t-138 361t138 361t341 143q192 0 301 -141v116h209zM599 786q-131 0 -210 -88.5t-79 -218.5t79 -218.5t210 -88.5q128 0 208.5 87t80.5 220t-80.5 220t-208.5 87zM676 1110h-206l191 300h266z" />
    <glyph glyph-name="acircumflex" unicode="&#xe2;" horiz-adv-x="1248" 
d="M1084 958v-958h-209v115q-109 -140 -301 -140q-203 0 -341 143t-138 361t138 361t341 143q192 0 301 -141v116h209zM599 786q-131 0 -210 -88.5t-79 -218.5t79 -218.5t210 -88.5q128 0 208.5 87t80.5 220t-80.5 220t-208.5 87zM975 1100h-223l-131 163l-131 -163h-223
l211 300h286z" />
    <glyph glyph-name="atilde" unicode="&#xe3;" horiz-adv-x="1248" 
d="M1084 958v-958h-209v115q-109 -140 -301 -140q-203 0 -341 143t-138 361t138 361t341 143q192 0 301 -141v116h209zM599 786q-131 0 -210 -88.5t-79 -218.5t79 -218.5t210 -88.5q128 0 208.5 87t80.5 220t-80.5 220t-208.5 87zM358 1131l-108 133q51 58 108 85t132 27
q59 0 111.5 -17t90.5 -34t63 -17q56 0 132 65l108 -133q-51 -58 -108 -85t-132 -27q-58 0 -109.5 17t-90 34t-65.5 17q-56 0 -132 -65z" />
    <glyph glyph-name="adieresis" unicode="&#xe4;" horiz-adv-x="1248" 
d="M1084 958v-958h-209v115q-109 -140 -301 -140q-203 0 -341 143t-138 361t138 361t341 143q192 0 301 -141v116h209zM599 786q-131 0 -210 -88.5t-79 -218.5t79 -218.5t210 -88.5q128 0 208.5 87t80.5 220t-80.5 220t-208.5 87zM420 1399q62 0 105 -43t43 -105t-43 -104
t-105 -42t-104 42t-42 104t42 105t104 43zM820 1399q62 0 105 -43t43 -105t-43 -104t-105 -42t-104 42t-42 104t42 105t104 43z" />
    <glyph glyph-name="aring" unicode="&#xe5;" horiz-adv-x="1248" 
d="M1084 958v-958h-209v115q-109 -140 -301 -140q-203 0 -341 143t-138 361t138 361t341 143q192 0 301 -141v116h209zM599 786q-131 0 -210 -88.5t-79 -218.5t79 -218.5t210 -88.5q128 0 208.5 87t80.5 220t-80.5 220t-208.5 87zM620 1083q-102 0 -175 71.5t-73 173.5
q0 100 73 172t175 72q103 0 176 -71.5t73 -172.5q0 -102 -73 -173.5t-176 -71.5zM620 1215q45 0 77.5 32.5t32.5 80.5q0 46 -32.5 78.5t-77.5 32.5t-77 -32.5t-32 -78.5q0 -48 32 -80.5t77 -32.5z" />
    <glyph glyph-name="ae" unicode="&#xe6;" horiz-adv-x="1764" 
d="M1216 983q201 0 326.5 -139.5t126.5 -363.5q0 -30 -4 -78h-708q20 -123 98 -183.5t187 -60.5q150 0 277 101l104 -149q-158 -135 -394 -135q-116 0 -212 42t-162 119q-157 -161 -386 -161q-180 0 -277 85.5t-97 223.5q0 132 104.5 208t277.5 76h264q-11 225 -245 225
q-133 0 -264 -96l-86 165q165 121 377 121q238 0 347 -157q59 74 151 115.5t195 41.5zM495 157q70 0 144.5 31t130.5 96q-19 57 -27 125h-236q-99 0 -143 -36t-44 -89q0 -52 44 -89.5t131 -37.5zM1212 797q-108 0 -172.5 -63.5t-81.5 -172.5h497q-17 112 -80.5 174
t-162.5 62z" />
    <glyph glyph-name="ccedilla" unicode="&#xe7;" horiz-adv-x="1027" 
d="M599 983q109 0 202 -39t156 -114l-134 -143q-105 99 -230 99q-122 0 -202.5 -86t-80.5 -221t80.5 -221t202.5 -86q128 0 235 100l129 -144q-104 -121 -274 -147l-95 -302h-219l104 309q-174 38 -276 171.5t-102 319.5q0 218 139 361t365 143z" />
    <glyph glyph-name="egrave" unicode="&#xe8;" horiz-adv-x="1120" 
d="M572 983q201 0 326.5 -139.5t126.5 -363.5q0 -30 -4 -78h-708q20 -123 98 -183.5t187 -60.5q150 0 277 101l104 -149q-158 -135 -394 -135q-217 0 -353.5 139t-136.5 365q0 225 132.5 364.5t344.5 139.5zM568 797q-108 0 -172.5 -63.5t-81.5 -172.5h497
q-17 112 -80.5 174t-162.5 62zM499 1110l-251 300h266l191 -300h-206z" />
    <glyph glyph-name="eacute" unicode="&#xe9;" horiz-adv-x="1120" 
d="M572 983q201 0 326.5 -139.5t126.5 -363.5q0 -30 -4 -78h-708q20 -123 98 -183.5t187 -60.5q150 0 277 101l104 -149q-158 -135 -394 -135q-217 0 -353.5 139t-136.5 365q0 225 132.5 364.5t344.5 139.5zM568 797q-108 0 -172.5 -63.5t-81.5 -172.5h497
q-17 112 -80.5 174t-162.5 62zM622 1110h-206l191 300h266z" />
    <glyph glyph-name="ecircumflex" unicode="&#xea;" horiz-adv-x="1120" 
d="M572 983q201 0 326.5 -139.5t126.5 -363.5q0 -30 -4 -78h-708q20 -123 98 -183.5t187 -60.5q150 0 277 101l104 -149q-158 -135 -394 -135q-217 0 -353.5 139t-136.5 365q0 225 132.5 364.5t344.5 139.5zM568 797q-108 0 -172.5 -63.5t-81.5 -172.5h497
q-17 112 -80.5 174t-162.5 62zM921 1100h-223l-131 163l-131 -163h-223l211 300h286z" />
    <glyph glyph-name="edieresis" unicode="&#xeb;" horiz-adv-x="1120" 
d="M572 983q201 0 326.5 -139.5t126.5 -363.5q0 -30 -4 -78h-708q20 -123 98 -183.5t187 -60.5q150 0 277 101l104 -149q-158 -135 -394 -135q-217 0 -353.5 139t-136.5 365q0 225 132.5 364.5t344.5 139.5zM568 797q-108 0 -172.5 -63.5t-81.5 -172.5h497
q-17 112 -80.5 174t-162.5 62zM366 1399q62 0 105 -43t43 -105t-43 -104t-105 -42t-104 42t-42 104t42 105t104 43zM766 1399q62 0 105 -43t43 -105t-43 -104t-105 -42t-104 42t-42 104t42 105t104 43z" />
    <glyph glyph-name="igrave" unicode="&#xec;" horiz-adv-x="538" 
d="M374 958v-958h-210v958h210zM201 1110l-251 300h266l191 -300h-206z" />
    <glyph glyph-name="iacute" unicode="&#xed;" horiz-adv-x="538" 
d="M374 958v-958h-210v958h210zM324 1110h-206l191 300h266z" />
    <glyph glyph-name="icircumflex" unicode="&#xee;" horiz-adv-x="538" 
d="M374 958v-958h-210v958h210zM623 1100h-223l-131 163l-131 -163h-223l211 300h286z" />
    <glyph glyph-name="idieresis" unicode="&#xef;" horiz-adv-x="538" 
d="M374 958v-958h-210v958h210zM68 1399q62 0 105 -43t43 -105t-43 -104t-105 -42t-104 42t-42 104t42 105t104 43zM468 1399q62 0 105 -43t43 -105t-43 -104t-105 -42t-104 42t-42 104t42 105t104 43z" />
    <glyph glyph-name="eth" unicode="&#xf0;" horiz-adv-x="1215" 
d="M854 1449l79 -127l-156 -96q97 -82 166.5 -179t106.5 -194.5t53.5 -185.5t16.5 -175q0 -220 -146 -368.5t-364 -148.5q-221 0 -368 140t-147 349q0 211 137 352.5t338 141.5q168 0 282 -123q-76 159 -251 283l-237 -145l-78 127l172 106q-88 46 -172 79l94 168
q145 -55 266 -131zM610 761q-130 0 -215 -82.5t-85 -213.5q0 -129 85.5 -211t214.5 -82t215 82t86 211q0 131 -85.5 213.5t-215.5 82.5z" />
    <glyph glyph-name="ntilde" unicode="&#xf1;" horiz-adv-x="1209" 
d="M666 983q171 0 280 -106.5t109 -274.5v-602h-210v533q0 120 -58.5 185.5t-164.5 65.5t-177 -67.5t-71 -185.5v-531h-210v958h208v-117q97 142 294 142zM360 1131l-108 133q51 58 108 85t132 27q59 0 111.5 -17t90.5 -34t63 -17q56 0 132 65l108 -133q-51 -58 -108 -85
t-132 -27q-58 0 -109.5 17t-90 34t-65.5 17q-56 0 -132 -65z" />
    <glyph glyph-name="ograve" unicode="&#xf2;" horiz-adv-x="1221" 
d="M610 983q146 0 264 -65.5t185 -181t67 -257.5t-67 -257.5t-185 -181t-264 -65.5t-264 66t-184.5 181t-66.5 257t66.5 257t184.5 181t264 66zM610 786q-129 0 -214.5 -86t-85.5 -221t85.5 -221t214.5 -86t215 86t86 221t-86 221t-215 86zM542 1110l-251 300h266l191 -300
h-206z" />
    <glyph glyph-name="oacute" unicode="&#xf3;" horiz-adv-x="1221" 
d="M610 983q146 0 264 -65.5t185 -181t67 -257.5t-67 -257.5t-185 -181t-264 -65.5t-264 66t-184.5 181t-66.5 257t66.5 257t184.5 181t264 66zM610 786q-129 0 -214.5 -86t-85.5 -221t85.5 -221t214.5 -86t215 86t86 221t-86 221t-215 86zM665 1110h-206l191 300h266z" />
    <glyph glyph-name="ocircumflex" unicode="&#xf4;" horiz-adv-x="1221" 
d="M610 983q146 0 264 -65.5t185 -181t67 -257.5t-67 -257.5t-185 -181t-264 -65.5t-264 66t-184.5 181t-66.5 257t66.5 257t184.5 181t264 66zM610 786q-129 0 -214.5 -86t-85.5 -221t85.5 -221t214.5 -86t215 86t86 221t-86 221t-215 86zM964 1100h-223l-131 163
l-131 -163h-223l211 300h286z" />
    <glyph glyph-name="otilde" unicode="&#xf5;" horiz-adv-x="1221" 
d="M610 983q146 0 264 -65.5t185 -181t67 -257.5t-67 -257.5t-185 -181t-264 -65.5t-264 66t-184.5 181t-66.5 257t66.5 257t184.5 181t264 66zM610 786q-129 0 -214.5 -86t-85.5 -221t85.5 -221t214.5 -86t215 86t86 221t-86 221t-215 86zM347 1131l-108 133q51 58 108 85
t132 27q59 0 111 -17t90.5 -34t63.5 -17q56 0 132 65l108 -133q-51 -58 -108 -85t-132 -27q-58 0 -109.5 17t-90 34t-65.5 17q-56 0 -132 -65z" />
    <glyph glyph-name="odieresis" unicode="&#xf6;" horiz-adv-x="1221" 
d="M610 983q146 0 264 -65.5t185 -181t67 -257.5t-67 -257.5t-185 -181t-264 -65.5t-264 66t-184.5 181t-66.5 257t66.5 257t184.5 181t264 66zM610 786q-129 0 -214.5 -86t-85.5 -221t85.5 -221t214.5 -86t215 86t86 221t-86 221t-215 86zM409 1399q62 0 105 -43t43 -105
t-43 -104t-105 -42t-104 42t-42 104t42 105t104 43zM809 1399q62 0 105 -43t43 -105t-43 -104t-105 -42t-104 42t-42 104t42 105t104 43z" />
    <glyph glyph-name="divide" unicode="&#xf7;" horiz-adv-x="1200" 
d="M1050 628v-190h-900v190h900zM601 1013q58 0 101 -43t43 -101t-43 -101.5t-101 -43.5t-101.5 43.5t-43.5 101.5t43.5 101t101.5 43zM601 342q58 0 101 -43t43 -101t-43 -101.5t-101 -43.5t-101.5 43.5t-43.5 101.5t43.5 101t101.5 43z" />
    <glyph glyph-name="oslash" unicode="&#xf8;" horiz-adv-x="1221" 
d="M610 983q164 0 295 -85l103 103l126 -126l-101 -101q93 -129 93 -295q0 -142 -67 -257.5t-185 -181t-264 -65.5q-165 0 -293 83l-103 -103l-127 125l101 101q-93 131 -93 298q0 142 66.5 257t184.5 181t264 66zM610 786q-129 0 -214.5 -86t-85.5 -221q0 -80 31 -145
l416 416q-67 36 -147 36zM911 479q0 78 -31 142l-415 -415q66 -34 145 -34q129 0 215 86t86 221z" />
    <glyph glyph-name="ugrave" unicode="&#xf9;" horiz-adv-x="1196" 
d="M1042 958v-552q0 -110 -37.5 -195t-101 -135.5t-141 -75.5t-164.5 -25t-164.5 25t-141.5 75.5t-101 135.5t-37 195v552h210v-533q0 -131 64 -192t170 -61t170 61t64 192v533h210zM530 1110l-251 300h266l191 -300h-206z" />
    <glyph glyph-name="uacute" unicode="&#xfa;" horiz-adv-x="1196" 
d="M1042 958v-552q0 -110 -37.5 -195t-101 -135.5t-141 -75.5t-164.5 -25t-164.5 25t-141.5 75.5t-101 135.5t-37 195v552h210v-533q0 -131 64 -192t170 -61t170 61t64 192v533h210zM653 1110h-206l191 300h266z" />
    <glyph glyph-name="ucircumflex" unicode="&#xfb;" horiz-adv-x="1196" 
d="M1042 958v-552q0 -110 -37.5 -195t-101 -135.5t-141 -75.5t-164.5 -25t-164.5 25t-141.5 75.5t-101 135.5t-37 195v552h210v-533q0 -131 64 -192t170 -61t170 61t64 192v533h210zM952 1100h-223l-131 163l-131 -163h-223l211 300h286z" />
    <glyph glyph-name="udieresis" unicode="&#xfc;" horiz-adv-x="1196" 
d="M1042 958v-552q0 -110 -37.5 -195t-101 -135.5t-141 -75.5t-164.5 -25t-164.5 25t-141.5 75.5t-101 135.5t-37 195v552h210v-533q0 -131 64 -192t170 -61t170 61t64 192v533h210zM397 1399q62 0 105 -43t43 -105t-43 -104t-105 -42t-104 42t-42 104t42 105t104 43z
M797 1399q62 0 105 -43t43 -105t-43 -104t-105 -42t-104 42t-42 104t42 105t104 43z" />
    <glyph glyph-name="yacute" unicode="&#xfd;" horiz-adv-x="1098" 
d="M1086 958l-756 -1364h-232l343 603l-425 761h235l308 -550l297 550h230zM609 1110h-206l191 300h266z" />
    <glyph glyph-name="thorn" unicode="&#xfe;" horiz-adv-x="1247" 
d="M673 983q203 0 341 -143t138 -361t-138 -361t-341 -143q-191 0 -299 138v-513h-210v1840h210v-595q110 138 299 138zM648 786q-128 0 -208.5 -87t-80.5 -220t80.5 -220t208.5 -87q131 0 210 88.5t79 218.5t-79 218.5t-210 88.5z" />
    <glyph glyph-name="ydieresis" unicode="&#xff;" horiz-adv-x="1098" 
d="M1086 958l-756 -1364h-232l343 603l-425 761h235l308 -550l297 550h230zM353 1399q62 0 105 -43t43 -105t-43 -104t-105 -42t-104 42t-42 104t42 105t104 43zM753 1399q62 0 105 -43t43 -105t-43 -104t-105 -42t-104 42t-42 104t42 105t104 43z" />
    <glyph glyph-name="Amacron" unicode="&#x100;" horiz-adv-x="1448" 
d="M865 1400l553 -1400h-243l-138 357h-634l-138 -357h-235l553 1400h282zM720 1175l-234 -604h468zM414 1580v170h620v-170h-620z" />
    <glyph glyph-name="amacron" unicode="&#x101;" horiz-adv-x="1248" 
d="M1084 958v-958h-209v115q-109 -140 -301 -140q-203 0 -341 143t-138 361t138 361t341 143q192 0 301 -141v116h209zM599 786q-131 0 -210 -88.5t-79 -218.5t79 -218.5t210 -88.5q128 0 208.5 87t80.5 220t-80.5 220t-208.5 87zM311 1165v170h620v-170h-620z" />
    <glyph glyph-name="Abreve" unicode="&#x102;" horiz-adv-x="1448" 
d="M865 1400l553 -1400h-243l-138 357h-634l-138 -357h-235l553 1400h282zM720 1175l-234 -604h468zM355 1799l168 51q57 -173 201 -173t201 173l168 -51q-43 -147 -138.5 -223t-230.5 -76t-230.5 76t-138.5 223z" />
    <glyph glyph-name="abreve" unicode="&#x103;" horiz-adv-x="1248" 
d="M1084 958v-958h-209v115q-109 -140 -301 -140q-203 0 -341 143t-138 361t138 361t341 143q192 0 301 -141v116h209zM599 786q-131 0 -210 -88.5t-79 -218.5t79 -218.5t210 -88.5q128 0 208.5 87t80.5 220t-80.5 220t-208.5 87zM252 1384l168 51q57 -173 201 -173t201 173
l168 -51q-43 -147 -138.5 -223t-230.5 -76t-230.5 76t-138.5 223z" />
    <glyph glyph-name="Aogonek" unicode="&#x104;" horiz-adv-x="1448" 
d="M1304 -201l111 -136q-89 -82 -210 -82q-104 0 -170 52t-66 139q0 72 49.5 129t150.5 112l-132 344h-634l-138 -357h-235l553 1400h282l553 -1400h-62q-189 -98 -189 -185q0 -25 15.5 -39.5t41.5 -14.5q40 0 80 38zM720 1175l-234 -604h468z" />
    <glyph glyph-name="aogonek" unicode="&#x105;" horiz-adv-x="1248" 
d="M1033 -201l111 -136q-89 -82 -210 -82q-104 0 -170 52t-66 139q0 68 44 122.5t133 105.5v115q-109 -140 -301 -140q-203 0 -341 143t-138 361t138 361t341 143q192 0 301 -141v116h209v-957l1 -1q-189 -98 -189 -185q0 -25 15.5 -39.5t41.5 -14.5q40 0 80 38zM599 786
q-131 0 -210 -88.5t-79 -218.5t79 -218.5t210 -88.5q128 0 208.5 87t80.5 220t-80.5 220t-208.5 87z" />
    <glyph glyph-name="Cacute" unicode="&#x106;" horiz-adv-x="1532" 
d="M847 1426q187 0 342.5 -78.5t237.5 -214.5l-189 -126q-65 95 -166.5 148.5t-224.5 53.5q-216 0 -356 -142t-140 -367t140 -367t356 -142q123 0 223.5 52.5t166.5 148.5l184 -135q-90 -132 -241 -207.5t-333 -75.5q-212 0 -379.5 94t-260.5 259.5t-93 372.5t93 372.5
t260.5 259.5t379.5 94zM888 1525h-206l191 300h266z" />
    <glyph glyph-name="cacute" unicode="&#x107;" horiz-adv-x="1027" 
d="M599 983q109 0 202 -39t156 -114l-134 -143q-105 99 -230 99q-122 0 -202.5 -86t-80.5 -221t80.5 -221t202.5 -86q128 0 235 100l129 -144q-132 -153 -358 -153t-365 143t-139 361t139 361t365 143zM640 1110h-206l191 300h266z" />
    <glyph glyph-name="Ccircumflex" unicode="&#x108;" horiz-adv-x="1532" 
d="M847 1426q187 0 342.5 -78.5t237.5 -214.5l-189 -126q-65 95 -166.5 148.5t-224.5 53.5q-216 0 -356 -142t-140 -367t140 -367t356 -142q123 0 223.5 52.5t166.5 148.5l184 -135q-90 -132 -241 -207.5t-333 -75.5q-212 0 -379.5 94t-260.5 259.5t-93 372.5t93 372.5
t260.5 259.5t379.5 94zM1194 1515h-223l-131 163l-131 -163h-223l211 300h286z" />
    <glyph glyph-name="ccircumflex" unicode="&#x109;" horiz-adv-x="1027" 
d="M599 983q109 0 202 -39t156 -114l-134 -143q-105 99 -230 99q-122 0 -202.5 -86t-80.5 -221t80.5 -221t202.5 -86q128 0 235 100l129 -144q-132 -153 -358 -153t-365 143t-139 361t139 361t365 143zM939 1100h-223l-131 163l-131 -163h-223l211 300h286z" />
    <glyph glyph-name="Cdotaccent" unicode="&#x10a;" horiz-adv-x="1532" 
d="M847 1426q187 0 342.5 -78.5t237.5 -214.5l-189 -126q-65 95 -166.5 148.5t-224.5 53.5q-216 0 -356 -142t-140 -367t140 -367t356 -142q123 0 223.5 52.5t166.5 148.5l184 -135q-90 -132 -241 -207.5t-333 -75.5q-212 0 -379.5 94t-260.5 259.5t-93 372.5t93 372.5
t260.5 259.5t379.5 94zM818 1827q66 0 111 -45t45 -111q0 -65 -45 -109t-111 -44q-65 0 -109 44t-44 109q0 66 44 111t109 45z" />
    <glyph glyph-name="cdotaccent" unicode="&#x10b;" horiz-adv-x="1027" 
d="M599 983q109 0 202 -39t156 -114l-134 -143q-105 99 -230 99q-122 0 -202.5 -86t-80.5 -221t80.5 -221t202.5 -86q128 0 235 100l129 -144q-132 -153 -358 -153t-365 143t-139 361t139 361t365 143zM584 1437q62 0 105 -43t43 -105t-43 -104t-105 -42t-104 42t-42 104
t42 105t104 43z" />
    <glyph glyph-name="Ccaron" unicode="&#x10c;" horiz-adv-x="1532" 
d="M847 1426q187 0 342.5 -78.5t237.5 -214.5l-189 -126q-65 95 -166.5 148.5t-224.5 53.5q-216 0 -356 -142t-140 -367t140 -367t356 -142q123 0 223.5 52.5t166.5 148.5l184 -135q-90 -132 -241 -207.5t-333 -75.5q-212 0 -379.5 94t-260.5 259.5t-93 372.5t93 372.5
t260.5 259.5t379.5 94zM486 1815h223l131 -163l131 163h223l-211 -300h-286z" />
    <glyph glyph-name="ccaron" unicode="&#x10d;" horiz-adv-x="1027" 
d="M599 983q109 0 202 -39t156 -114l-134 -143q-105 99 -230 99q-122 0 -202.5 -86t-80.5 -221t80.5 -221t202.5 -86q128 0 235 100l129 -144q-132 -153 -358 -153t-365 143t-139 361t139 361t365 143zM231 1400h223l131 -163l131 163h223l-211 -300h-286z" />
    <glyph glyph-name="Dcaron" unicode="&#x10e;" horiz-adv-x="1587" 
d="M190 1400h556q329 0 528 -192t199 -508t-199 -508t-528 -192h-556v1400zM746 1186h-330v-972h330q239 0 364.5 133t125.5 353q0 222 -125.5 354t-364.5 132zM387 1815h223l131 -163l131 163h223l-211 -300h-286z" />
    <glyph glyph-name="dcaron" unicode="&#x10f;" horiz-adv-x="1320" 
d="M574 983q192 0 301 -141v598h209v-1440h-209v115q-109 -140 -301 -140q-203 0 -341 143t-138 361t138 361t341 143zM599 786q-131 0 -210 -88.5t-79 -218.5t79 -218.5t210 -88.5q128 0 208.5 87t80.5 220t-80.5 220t-208.5 87zM1368 1050h-176v390h216z" />
    <glyph glyph-name="Dcroat" unicode="&#x110;" horiz-adv-x="1701" 
d="M304 1400h556q329 0 528 -192t199 -508t-199 -508t-528 -192h-556v598h-190v214h190v588zM904 812v-214h-374v-384h330q239 0 364.5 133t125.5 353q0 222 -125.5 354t-364.5 132h-330v-374h374z" />
    <glyph glyph-name="dcroat" unicode="&#x111;" horiz-adv-x="1213" 
d="M1213 1288v-190h-129v-1098h-209v115q-109 -140 -301 -140q-203 0 -341 143t-138 361t138 361t341 143q192 0 301 -141v256h-392v190h392v152h209v-152h129zM599 786q-131 0 -210 -88.5t-79 -218.5t79 -218.5t210 -88.5q128 0 208.5 87t80.5 220t-80.5 220t-208.5 87z
" />
    <glyph glyph-name="Emacron" unicode="&#x112;" horiz-adv-x="1363" 
d="M1211 212v-212h-1021v1400h1008v-212h-782v-377h755v-212h-755v-387h795zM381 1580v170h620v-170h-620z" />
    <glyph glyph-name="emacron" unicode="&#x113;" horiz-adv-x="1120" 
d="M572 983q201 0 326.5 -139.5t126.5 -363.5q0 -30 -4 -78h-708q20 -123 98 -183.5t187 -60.5q150 0 277 101l104 -149q-158 -135 -394 -135q-217 0 -353.5 139t-136.5 365q0 225 132.5 364.5t344.5 139.5zM568 797q-108 0 -172.5 -63.5t-81.5 -172.5h497
q-17 112 -80.5 174t-162.5 62zM257 1165v170h620v-170h-620z" />
    <glyph glyph-name="Ebreve" unicode="&#x114;" horiz-adv-x="1363" 
d="M1211 212v-212h-1021v1400h1008v-212h-782v-377h755v-212h-755v-387h795zM322 1799l168 51q57 -173 201 -173t201 173l168 -51q-43 -147 -138.5 -223t-230.5 -76t-230.5 76t-138.5 223z" />
    <glyph glyph-name="ebreve" unicode="&#x115;" horiz-adv-x="1120" 
d="M572 983q201 0 326.5 -139.5t126.5 -363.5q0 -30 -4 -78h-708q20 -123 98 -183.5t187 -60.5q150 0 277 101l104 -149q-158 -135 -394 -135q-217 0 -353.5 139t-136.5 365q0 225 132.5 364.5t344.5 139.5zM568 797q-108 0 -172.5 -63.5t-81.5 -172.5h497
q-17 112 -80.5 174t-162.5 62zM198 1384l168 51q57 -173 201 -173t201 173l168 -51q-43 -147 -138.5 -223t-230.5 -76t-230.5 76t-138.5 223z" />
    <glyph glyph-name="Edotaccent" unicode="&#x116;" horiz-adv-x="1363" 
d="M1211 212v-212h-1021v1400h1008v-212h-782v-377h755v-212h-755v-387h795zM669 1827q66 0 111 -45t45 -111q0 -65 -45 -109t-111 -44q-65 0 -109 44t-44 109q0 66 44 111t109 45z" />
    <glyph glyph-name="edotaccent" unicode="&#x117;" horiz-adv-x="1120" 
d="M572 983q201 0 326.5 -139.5t126.5 -363.5q0 -30 -4 -78h-708q20 -123 98 -183.5t187 -60.5q150 0 277 101l104 -149q-158 -135 -394 -135q-217 0 -353.5 139t-136.5 365q0 225 132.5 364.5t344.5 139.5zM568 797q-108 0 -172.5 -63.5t-81.5 -172.5h497
q-17 112 -80.5 174t-162.5 62zM566 1437q62 0 105 -43t43 -105t-43 -104t-105 -42t-104 42t-42 104t42 105t104 43z" />
    <glyph glyph-name="Eogonek" unicode="&#x118;" horiz-adv-x="1363" 
d="M1211 212v-212h-181q-134 -69 -134 -159q0 -35 26 -57.5t72 -22.5q68 0 126 49l111 -136q-102 -93 -250 -93q-129 0 -209.5 63t-80.5 158q0 120 119 198h-620v1400h1008v-212h-782v-377h755v-212h-755v-387h795z" />
    <glyph glyph-name="eogonek" unicode="&#x119;" horiz-adv-x="1120" 
d="M877 -190l111 -136q-102 -93 -250 -93q-129 0 -209.5 63t-80.5 158q0 104 87 175q-197 17 -318.5 153.5t-121.5 348.5q0 225 132.5 364.5t344.5 139.5q201 0 326.5 -139.5t126.5 -363.5q0 -30 -4 -78h-708q20 -123 98 -183.5t187 -60.5q150 0 277 101l104 -149
q-76 -65 -172 -101q-154 -59 -154 -168q0 -35 26 -57.5t72 -22.5q68 0 126 49zM568 797q-108 0 -172.5 -63.5t-81.5 -172.5h497q-17 112 -80.5 174t-162.5 62z" />
    <glyph glyph-name="Ecaron" unicode="&#x11a;" horiz-adv-x="1363" 
d="M1211 212v-212h-1021v1400h1008v-212h-782v-377h755v-212h-755v-387h795zM337 1815h223l131 -163l131 163h223l-211 -300h-286z" />
    <glyph glyph-name="ecaron" unicode="&#x11b;" horiz-adv-x="1120" 
d="M572 983q201 0 326.5 -139.5t126.5 -363.5q0 -30 -4 -78h-708q20 -123 98 -183.5t187 -60.5q150 0 277 101l104 -149q-158 -135 -394 -135q-217 0 -353.5 139t-136.5 365q0 225 132.5 364.5t344.5 139.5zM568 797q-108 0 -172.5 -63.5t-81.5 -172.5h497
q-17 112 -80.5 174t-162.5 62zM213 1400h223l131 -163l131 163h223l-211 -300h-286z" />
    <glyph glyph-name="Gcircumflex" unicode="&#x11c;" horiz-adv-x="1639" 
d="M847 1426q166 0 306 -59t236 -167l-166 -161q-67 80 -164 125t-212 45q-216 0 -356 -142t-140 -367q0 -224 138.5 -366.5t347.5 -142.5q189 0 301.5 94t139.5 269h-371v210h616q2 -36 2 -54q0 -151 -47.5 -284.5t-133.5 -233.5t-217.5 -158.5t-289.5 -58.5
q-109 0 -213.5 30t-197 91t-162 146.5t-110 203.5t-40.5 254q0 156 55 291t151.5 230.5t233 150t293.5 54.5zM1174 1515h-223l-131 163l-131 -163h-223l211 300h286z" />
    <glyph glyph-name="gcircumflex" unicode="&#x11d;" horiz-adv-x="1232" 
d="M539 983q208 0 319 -140v115h210v-891q0 -226 -137 -356t-377 -130q-110 0 -218.5 29t-182.5 82l76 177q159 -97 325 -97q146 0 225 75.5t79 210.5v77q-110 -140 -319 -140q-83 0 -162 34.5t-142 96t-101.5 156.5t-38.5 207t38.5 207t101.5 156.5t142 96t162 34.5z
M593 786q-129 0 -206 -85.5t-77 -211.5q0 -125 77 -211t206 -86q125 0 204 84.5t79 212.5t-79 212.5t-204 84.5zM947 1100h-223l-131 163l-131 -163h-223l211 300h286z" />
    <glyph glyph-name="Gbreve" unicode="&#x11e;" horiz-adv-x="1639" 
d="M847 1426q166 0 306 -59t236 -167l-166 -161q-67 80 -164 125t-212 45q-216 0 -356 -142t-140 -367q0 -224 138.5 -366.5t347.5 -142.5q189 0 301.5 94t139.5 269h-371v210h616q2 -36 2 -54q0 -151 -47.5 -284.5t-133.5 -233.5t-217.5 -158.5t-289.5 -58.5
q-109 0 -213.5 30t-197 91t-162 146.5t-110 203.5t-40.5 254q0 156 55 291t151.5 230.5t233 150t293.5 54.5zM451 1799l168 51q57 -173 201 -173t201 173l168 -51q-43 -147 -138.5 -223t-230.5 -76t-230.5 76t-138.5 223z" />
    <glyph glyph-name="gbreve" unicode="&#x11f;" horiz-adv-x="1232" 
d="M539 983q208 0 319 -140v115h210v-891q0 -226 -137 -356t-377 -130q-110 0 -218.5 29t-182.5 82l76 177q159 -97 325 -97q146 0 225 75.5t79 210.5v77q-110 -140 -319 -140q-83 0 -162 34.5t-142 96t-101.5 156.5t-38.5 207t38.5 207t101.5 156.5t142 96t162 34.5z
M593 786q-129 0 -206 -85.5t-77 -211.5q0 -125 77 -211t206 -86q125 0 204 84.5t79 212.5t-79 212.5t-204 84.5zM224 1384l168 51q57 -173 201 -173t201 173l168 -51q-43 -147 -138.5 -223t-230.5 -76t-230.5 76t-138.5 223z" />
    <glyph glyph-name="Gdotaccent" unicode="&#x120;" horiz-adv-x="1639" 
d="M847 1426q166 0 306 -59t236 -167l-166 -161q-67 80 -164 125t-212 45q-216 0 -356 -142t-140 -367q0 -224 138.5 -366.5t347.5 -142.5q189 0 301.5 94t139.5 269h-371v210h616q2 -36 2 -54q0 -151 -47.5 -284.5t-133.5 -233.5t-217.5 -158.5t-289.5 -58.5
q-109 0 -213.5 30t-197 91t-162 146.5t-110 203.5t-40.5 254q0 156 55 291t151.5 230.5t233 150t293.5 54.5zM798 1827q66 0 111 -45t45 -111q0 -65 -45 -109t-111 -44q-65 0 -109 44t-44 109q0 66 44 111t109 45z" />
    <glyph glyph-name="gdotaccent" unicode="&#x121;" horiz-adv-x="1232" 
d="M539 983q208 0 319 -140v115h210v-891q0 -226 -137 -356t-377 -130q-110 0 -218.5 29t-182.5 82l76 177q159 -97 325 -97q146 0 225 75.5t79 210.5v77q-110 -140 -319 -140q-83 0 -162 34.5t-142 96t-101.5 156.5t-38.5 207t38.5 207t101.5 156.5t142 96t162 34.5z
M593 786q-129 0 -206 -85.5t-77 -211.5q0 -125 77 -211t206 -86q125 0 204 84.5t79 212.5t-79 212.5t-204 84.5zM592 1437q62 0 105 -43t43 -105t-43 -104t-105 -42t-104 42t-42 104t42 105t104 43z" />
    <glyph glyph-name="uni0122" unicode="&#x122;" horiz-adv-x="1639" 
d="M847 1426q166 0 306 -59t236 -167l-166 -161q-67 80 -164 125t-212 45q-216 0 -356 -142t-140 -367q0 -224 138.5 -366.5t347.5 -142.5q189 0 301.5 94t139.5 269h-371v210h616q2 -36 2 -54q0 -151 -47.5 -284.5t-133.5 -233.5t-217.5 -158.5t-289.5 -58.5
q-109 0 -213.5 30t-197 91t-162 146.5t-110 203.5t-40.5 254q0 156 55 291t151.5 230.5t233 150t293.5 54.5zM723 -87h231l-83 -368h-185z" />
    <glyph glyph-name="uni0123" unicode="&#x123;" horiz-adv-x="1232" 
d="M539 983q208 0 319 -140v115h210v-891q0 -226 -137 -356t-377 -130q-110 0 -218.5 29t-182.5 82l76 177q159 -97 325 -97q146 0 225 75.5t79 210.5v77q-110 -140 -319 -140q-83 0 -162 34.5t-142 96t-101.5 156.5t-38.5 207t38.5 207t101.5 156.5t142 96t162 34.5z
M593 786q-129 0 -206 -85.5t-77 -211.5q0 -125 77 -211t206 -86q125 0 204 84.5t79 212.5t-79 212.5t-204 84.5zM700 1110h-231l83 368h185z" />
    <glyph glyph-name="Hcircumflex" unicode="&#x124;" horiz-adv-x="1588" 
d="M416 1400v-588h756v588h226v-1400h-226v598h-756v-598h-226v1400h226zM1148 1515h-223l-131 163l-131 -163h-223l211 300h286z" />
    <glyph glyph-name="hcircumflex" unicode="&#x125;" horiz-adv-x="1209" 
d="M374 1440v-596q97 139 292 139q171 0 280 -106.5t109 -274.5v-602h-210v533q0 120 -58.5 185.5t-164.5 65.5t-177 -67.5t-71 -185.5v-531h-210v1440h210zM954 1542h-223l-131 163l-131 -163h-223l211 300h286z" />
    <glyph glyph-name="Hbar" unicode="&#x126;" horiz-adv-x="1614" 
d="M1557 1180v-190h-146v-990h-226v598h-756v-598h-226v990h-146v190h146v220h226v-220h756v220h226v-220h146zM429 812h756v178h-756v-178z" />
    <glyph glyph-name="hbar" unicode="&#x127;" horiz-adv-x="1209" 
d="M730 1288v-190h-356v-254q97 139 292 139q171 0 280 -106.5t109 -274.5v-602h-210v533q0 120 -58.5 185.5t-164.5 65.5t-177 -67.5t-71 -185.5v-531h-210v1098h-164v190h164v152h210v-152h356z" />
    <glyph glyph-name="Itilde" unicode="&#x128;" horiz-adv-x="606" 
d="M416 1400v-1400h-226v1400h226zM38 1546l-108 133q51 58 108 85t132 27q59 0 111.5 -17t90.5 -34t63 -17q56 0 132 65l108 -133q-51 -58 -108 -85t-132 -27q-58 0 -109.5 17t-90 34t-65.5 17q-56 0 -132 -65z" />
    <glyph glyph-name="itilde" unicode="&#x129;" horiz-adv-x="538" 
d="M374 958v-958h-210v958h210zM6 1131l-108 133q51 58 108 85t132 27q59 0 111.5 -17t90.5 -34t63 -17q56 0 132 65l108 -133q-51 -58 -108 -85t-132 -27q-58 0 -109.5 17t-90 34t-65.5 17q-56 0 -132 -65z" />
    <glyph glyph-name="Imacron" unicode="&#x12a;" horiz-adv-x="606" 
d="M416 1400v-1400h-226v1400h226zM-7 1580v170h620v-170h-620z" />
    <glyph glyph-name="imacron" unicode="&#x12b;" horiz-adv-x="538" 
d="M374 958v-958h-210v958h210zM-41 1165v170h620v-170h-620z" />
    <glyph glyph-name="Ibreve" unicode="&#x12c;" horiz-adv-x="606" 
d="M416 1400v-1400h-226v1400h226zM-66 1799l168 51q57 -173 201 -173t201 173l168 -51q-43 -147 -138.5 -223t-230.5 -76t-230.5 76t-138.5 223z" />
    <glyph glyph-name="ibreve" unicode="&#x12d;" horiz-adv-x="538" 
d="M374 958v-958h-210v958h210zM-100 1384l168 51q57 -173 201 -173t201 173l168 -51q-43 -147 -138.5 -223t-230.5 -76t-230.5 76t-138.5 223z" />
    <glyph glyph-name="Iogonek" unicode="&#x12e;" horiz-adv-x="606" 
d="M424 -201l111 -136q-89 -82 -210 -82q-104 0 -170 52t-66 139q0 68 35.5 122.5t108.5 105.5h-43v1400h226v-1400q-129 -96 -129 -185q0 -25 15.5 -39.5t41.5 -14.5q40 0 80 38z" />
    <glyph glyph-name="iogonek" unicode="&#x12f;" horiz-adv-x="538" 
d="M374 958v-958q-129 -96 -129 -185q0 -25 15.5 -39.5t41.5 -14.5q40 0 80 38l111 -136q-89 -82 -210 -82q-104 0 -170 52t-66 139q0 68 35.5 122.5t108.5 105.5h-27v958h210zM268 1437q62 0 105 -43t43 -105t-43 -104t-105 -42t-104 42t-42 104t42 105t104 43z" />
    <glyph glyph-name="Idotaccent" unicode="&#x130;" horiz-adv-x="606" 
d="M416 1400v-1400h-226v1400h226zM281 1827q66 0 111 -45t45 -111q0 -65 -45 -109t-111 -44q-65 0 -109 44t-44 109q0 66 44 111t109 45z" />
    <glyph glyph-name="dotlessi" unicode="&#x131;" horiz-adv-x="538" 
d="M374 958v-958h-210v958h210z" />
    <glyph glyph-name="IJ" unicode="&#x132;" horiz-adv-x="1755" 
d="M416 1400v-1400h-226v1400h226zM1575 1400v-905q0 -245 -136.5 -382.5t-351.5 -137.5q-288 0 -449 215l151 155q108 -153 297 -153q125 0 194 82t69 243v883h226z" />
    <glyph glyph-name="ij" unicode="&#x133;" horiz-adv-x="1082" 
d="M918 958v-1076q0 -144 -77 -222.5t-204 -78.5q-84 0 -145 29l49 182q37 -14 77 -14t65 28t25 86v1066h210zM811 1437q62 0 105 -43t43 -105t-43 -104t-105 -42t-104 42t-42 104t42 105t104 43zM374 958v-958h-210v958h210zM268 1437q62 0 105 -43t43 -105t-43 -104
t-105 -42t-104 42t-42 104t42 105t104 43z" />
    <glyph glyph-name="Jcircumflex" unicode="&#x134;" horiz-adv-x="1149" 
d="M969 1400v-905q0 -245 -136.5 -382.5t-351.5 -137.5q-288 0 -449 215l151 155q108 -153 297 -153q125 0 194 82t69 243v883h226zM1210 1515h-223l-131 163l-131 -163h-223l211 300h286z" />
    <glyph glyph-name="jcircumflex" unicode="&#x135;" horiz-adv-x="544" 
d="M380 958v-1076q0 -144 -77 -222.5t-204 -78.5q-84 0 -145 29l49 182q37 -14 77 -14t65 28t25 86v1066h210zM628 1100h-223l-131 163l-131 -163h-223l211 300h286z" />
    <glyph glyph-name="uni0136" unicode="&#x136;" horiz-adv-x="1424" 
d="M1108 0l-557 597h-135v-597h-226v1400h226v-589h138l526 589h292l-630 -683l673 -717h-307zM617 -87h231l-83 -368h-185z" />
    <glyph glyph-name="uni0137" unicode="&#x137;" horiz-adv-x="1085" 
d="M374 1440v-846h105l316 364h263l-401 -451l405 -507h-265l-319 404h-104v-404h-210v1440h210zM459 -87h231l-83 -368h-185z" />
    <glyph glyph-name="kgreenlandic" unicode="&#x138;" horiz-adv-x="1085" 
d="M374 958v-364h105l316 364h263l-401 -451l405 -507h-265l-319 404h-104v-404h-210v958h210z" />
    <glyph glyph-name="Lacute" unicode="&#x139;" horiz-adv-x="1229" 
d="M1191 214v-214h-1001v1400h226v-1186h775zM351 1525h-206l191 300h266z" />
    <glyph glyph-name="lacute" unicode="&#x13a;" horiz-adv-x="538" 
d="M374 1440v-1440h-210v1440h210zM303 1545h-206l191 300h266z" />
    <glyph glyph-name="uni013B" unicode="&#x13b;" horiz-adv-x="1229" 
d="M1191 214v-214h-1001v1400h226v-1186h775zM589 -87h231l-83 -368h-185z" />
    <glyph glyph-name="uni013C" unicode="&#x13c;" horiz-adv-x="538" 
d="M374 1440v-1440h-210v1440h210zM160 -87h231l-83 -368h-185z" />
    <glyph glyph-name="Lcaron" unicode="&#x13d;" horiz-adv-x="1229" 
d="M1191 214v-214h-1001v1400h226v-1186h775zM787 1010h-176v390h216z" />
    <glyph glyph-name="lcaron" unicode="&#x13e;" horiz-adv-x="600" 
d="M374 1440v-1440h-210v1440h210zM648 1050h-176v390h216z" />
    <glyph glyph-name="Ldot" unicode="&#x13f;" horiz-adv-x="1229" 
d="M1191 214v-214h-1001v1400h226v-1186h775zM874 861q66 0 111 -45t45 -111q0 -65 -45 -109t-111 -44q-65 0 -109 44t-44 109q0 66 44 111t109 45z" />
    <glyph glyph-name="ldot" unicode="&#x140;" horiz-adv-x="690" 
d="M374 1440v-1440h-210v1440h210zM609 878q62 0 105 -43t43 -105t-43 -104t-105 -42t-104 42t-42 104t42 105t104 43z" />
    <glyph glyph-name="Lslash" unicode="&#x141;" horiz-adv-x="1343" 
d="M1305 214v-214h-1001v457l-190 -105v241l190 105v702h226v-576l484 269v-241l-484 -269v-369h775z" />
    <glyph glyph-name="lslash" unicode="&#x142;" horiz-adv-x="690" 
d="M450 1440v-519l191 129v-218l-191 -129v-703h-210v561l-191 -129v218l191 129v661h210z" />
    <glyph glyph-name="Nacute" unicode="&#x143;" horiz-adv-x="1592" 
d="M1402 1400v-1400h-204l-781 1013l-1 -1013h-226v1400h204l782 -1013v1013h226zM844 1525h-206l191 300h266z" />
    <glyph glyph-name="nacute" unicode="&#x144;" horiz-adv-x="1209" 
d="M666 983q171 0 280 -106.5t109 -274.5v-602h-210v533q0 120 -58.5 185.5t-164.5 65.5t-177 -67.5t-71 -185.5v-531h-210v958h208v-117q97 142 294 142zM678 1110h-206l191 300h266z" />
    <glyph glyph-name="uni0145" unicode="&#x145;" horiz-adv-x="1592" 
d="M1402 1400v-1400h-204l-781 1013l-1 -1013h-226v1400h204l782 -1013v1013h226zM691 -87h231l-83 -368h-185z" />
    <glyph glyph-name="uni0146" unicode="&#x146;" horiz-adv-x="1209" 
d="M666 983q171 0 280 -106.5t109 -274.5v-602h-210v533q0 120 -58.5 185.5t-164.5 65.5t-177 -67.5t-71 -185.5v-531h-210v958h208v-117q97 142 294 142zM501 -87h231l-83 -368h-185z" />
    <glyph glyph-name="Ncaron" unicode="&#x147;" horiz-adv-x="1592" 
d="M1402 1400v-1400h-204l-781 1013l-1 -1013h-226v1400h204l782 -1013v1013h226zM442 1815h223l131 -163l131 163h223l-211 -300h-286z" />
    <glyph glyph-name="ncaron" unicode="&#x148;" horiz-adv-x="1209" 
d="M666 983q171 0 280 -106.5t109 -274.5v-602h-210v533q0 120 -58.5 185.5t-164.5 65.5t-177 -67.5t-71 -185.5v-531h-210v958h208v-117q97 142 294 142zM269 1400h223l131 -163l131 163h223l-211 -300h-286z" />
    <glyph glyph-name="napostrophe" unicode="&#x149;" horiz-adv-x="1478" 
d="M155 1440h245l-120 -545h-180zM935 983q171 0 280 -106.5t109 -274.5v-602h-210v533q0 120 -58.5 185.5t-164.5 65.5t-177 -67.5t-71 -185.5v-531h-210v958h208v-117q97 142 294 142z" />
    <glyph glyph-name="Eng" unicode="&#x14a;" horiz-adv-x="1592" 
d="M1402 1400v-1434q0 -172 -89.5 -278.5t-267.5 -106.5q-147 0 -271 61l81 198q88 -42 165 -42q156 0 156 178v52l-759 985l-1 -1013h-226v1400h204l782 -1013v1013h226z" />
    <glyph glyph-name="eng" unicode="&#x14b;" horiz-adv-x="1209" 
d="M666 983q171 0 280 -106.5t109 -274.5v-650q0 -144 -77 -222.5t-204 -78.5q-84 0 -145 29l49 182q37 -14 77 -14t65 28t25 86v571q0 120 -58.5 185.5t-164.5 65.5t-177 -67.5t-71 -185.5v-531h-210v958h208v-117q97 142 294 142z" />
    <glyph glyph-name="Omacron" unicode="&#x14c;" horiz-adv-x="1694" 
d="M847 1426q212 0 379.5 -94t260.5 -259.5t93 -372.5t-93 -372.5t-260.5 -259.5t-379.5 -94t-379.5 94t-260.5 259.5t-93 372.5t93 372.5t260.5 259.5t379.5 94zM847 1209q-216 0 -356 -142t-140 -367t140 -367t356 -142t356 142t140 367t-140 367t-356 142zM537 1580v170
h620v-170h-620z" />
    <glyph glyph-name="omacron" unicode="&#x14d;" horiz-adv-x="1221" 
d="M610 983q146 0 264 -65.5t185 -181t67 -257.5t-67 -257.5t-185 -181t-264 -65.5t-264 66t-184.5 181t-66.5 257t66.5 257t184.5 181t264 66zM610 786q-129 0 -214.5 -86t-85.5 -221t85.5 -221t214.5 -86t215 86t86 221t-86 221t-215 86zM300 1165v170h620v-170h-620z" />
    <glyph glyph-name="Obreve" unicode="&#x14e;" horiz-adv-x="1694" 
d="M847 1426q212 0 379.5 -94t260.5 -259.5t93 -372.5t-93 -372.5t-260.5 -259.5t-379.5 -94t-379.5 94t-260.5 259.5t-93 372.5t93 372.5t260.5 259.5t379.5 94zM847 1209q-216 0 -356 -142t-140 -367t140 -367t356 -142t356 142t140 367t-140 367t-356 142zM478 1799
l168 51q57 -173 201 -173t201 173l168 -51q-43 -147 -138.5 -223t-230.5 -76t-230.5 76t-138.5 223z" />
    <glyph glyph-name="obreve" unicode="&#x14f;" horiz-adv-x="1221" 
d="M610 983q146 0 264 -65.5t185 -181t67 -257.5t-67 -257.5t-185 -181t-264 -65.5t-264 66t-184.5 181t-66.5 257t66.5 257t184.5 181t264 66zM610 786q-129 0 -214.5 -86t-85.5 -221t85.5 -221t214.5 -86t215 86t86 221t-86 221t-215 86zM241 1384l168 51
q57 -173 201 -173t201 173l168 -51q-43 -147 -138.5 -223t-230.5 -76t-230.5 76t-138.5 223z" />
    <glyph glyph-name="Ohungarumlaut" unicode="&#x150;" horiz-adv-x="1694" 
d="M847 1426q212 0 379.5 -94t260.5 -259.5t93 -372.5t-93 -372.5t-260.5 -259.5t-379.5 -94t-379.5 94t-260.5 259.5t-93 372.5t93 372.5t260.5 259.5t379.5 94zM847 1209q-216 0 -356 -142t-140 -367t140 -367t356 -142t356 142t140 367t-140 367t-356 142zM1099 1525
h-210l200 300h245zM757 1525h-213l178 300h237z" />
    <glyph glyph-name="ohungarumlaut" unicode="&#x151;" horiz-adv-x="1221" 
d="M610 983q146 0 264 -65.5t185 -181t67 -257.5t-67 -257.5t-185 -181t-264 -65.5t-264 66t-184.5 181t-66.5 257t66.5 257t184.5 181t264 66zM610 786q-129 0 -214.5 -86t-85.5 -221t85.5 -221t214.5 -86t215 86t86 221t-86 221t-215 86zM878 1110h-210l200 300h245z
M536 1110h-213l178 300h237z" />
    <glyph glyph-name="OE" unicode="&#x152;" horiz-adv-x="2254" 
d="M2102 212v-212h-1261q-329 0 -528 192t-199 508t199 508t528 192h1248v-212h-782v-377h755v-212h-755v-387h795zM351 700q0 -222 125.5 -354t364.5 -132h240v972h-240q-239 0 -364.5 -133t-125.5 -353z" />
    <glyph glyph-name="oe" unicode="&#x153;" horiz-adv-x="1935" 
d="M1387 983q201 0 326.5 -139.5t126.5 -363.5q0 -30 -4 -78h-708q20 -123 98 -183.5t187 -60.5q150 0 277 101l104 -149q-158 -135 -394 -135q-129 0 -230 52t-164 147q-66 -94 -169 -146.5t-227 -52.5q-146 0 -264 66t-184.5 181t-66.5 257t66.5 257t184.5 181t264 66
q123 0 226.5 -53t169.5 -146q62 94 160.5 146.5t220.5 52.5zM610 786q-129 0 -214.5 -86t-85.5 -221t85.5 -221t214.5 -86t215 86t86 221t-86 221t-215 86zM1383 797q-108 0 -172.5 -63.5t-81.5 -172.5h497q-17 112 -80.5 174t-162.5 62z" />
    <glyph glyph-name="Racute" unicode="&#x154;" horiz-adv-x="1372" 
d="M190 1400h576q241 0 368.5 -104.5t127.5 -300.5q0 -178 -126.5 -288t-340.5 -118l461 -589h-280l-446 589h-114v-589h-226v1400zM760 1188h-344v-394h344q136 0 201.5 49.5t65.5 151.5q0 99 -66.5 146t-200.5 47zM716 1525h-206l191 300h266z" />
    <glyph glyph-name="racute" unicode="&#x155;" horiz-adv-x="859" 
d="M649 983q93 0 161 -27l-50 -207q-67 35 -159 35q-102 0 -165 -68.5t-63 -188.5v-527h-209v958h207v-108q92 133 278 133zM545 1110h-206l191 300h266z" />
    <glyph glyph-name="uni0156" unicode="&#x156;" horiz-adv-x="1372" 
d="M190 1400h576q241 0 368.5 -104.5t127.5 -300.5q0 -178 -126.5 -288t-340.5 -118l461 -589h-280l-446 589h-114v-589h-226v1400zM760 1188h-344v-394h344q136 0 201.5 49.5t65.5 151.5q0 99 -66.5 146t-200.5 47zM579 -87h231l-83 -368h-185z" />
    <glyph glyph-name="uni0157" unicode="&#x157;" horiz-adv-x="859" 
d="M649 983q93 0 161 -27l-50 -207q-67 35 -159 35q-102 0 -165 -68.5t-63 -188.5v-527h-209v958h207v-108q92 133 278 133zM162 -87h231l-83 -368h-185z" />
    <glyph glyph-name="Rcaron" unicode="&#x158;" horiz-adv-x="1372" 
d="M190 1400h576q241 0 368.5 -104.5t127.5 -300.5q0 -178 -126.5 -288t-340.5 -118l461 -589h-280l-446 589h-114v-589h-226v1400zM760 1188h-344v-394h344q136 0 201.5 49.5t65.5 151.5q0 99 -66.5 146t-200.5 47zM314 1815h223l131 -163l131 163h223l-211 -300h-286z" />
    <glyph glyph-name="rcaron" unicode="&#x159;" horiz-adv-x="859" 
d="M649 983q93 0 161 -27l-50 -207q-67 35 -159 35q-102 0 -165 -68.5t-63 -188.5v-527h-209v958h207v-108q92 133 278 133zM136 1400h223l131 -163l131 163h223l-211 -300h-286z" />
    <glyph glyph-name="Sacute" unicode="&#x15a;" horiz-adv-x="1352" 
d="M1222 1273l-115 -183q-188 120 -393 120q-141 0 -228 -57t-87 -152q0 -82 72 -124t219 -63l97 -13q451 -62 451 -385q0 -138 -78 -240t-203.5 -151.5t-279.5 -49.5q-150 0 -304.5 49t-258.5 139l123 180q73 -67 196 -110.5t243 -43.5q141 0 234 56.5t93 150.5
q0 80 -77.5 123.5t-237.5 65.5l-109 15q-66 9 -123.5 26t-112.5 48t-93.5 72.5t-62 103.5t-23.5 137q0 136 75.5 237t199 150.5t277.5 49.5q280 0 506 -151zM778 1525h-206l191 300h266z" />
    <glyph glyph-name="sacute" unicode="&#x15b;" horiz-adv-x="1011" 
d="M906 881l-90 -163q-51 32 -132.5 57t-163.5 25q-84 0 -132.5 -31t-48.5 -83q0 -24 11.5 -41.5t35 -28.5t49 -17t62.5 -12l99 -15q333 -48 333 -283q0 -141 -116 -227t-320 -86q-245 0 -411 123l97 157q128 -98 316 -98q106 0 162 31t56 86q0 83 -166 106l-100 13
q-159 22 -242 93.5t-83 187.5q0 142 106.5 224.5t289.5 82.5q232 0 388 -101zM588 1110h-206l191 300h266z" />
    <glyph glyph-name="Scircumflex" unicode="&#x15c;" horiz-adv-x="1352" 
d="M1222 1273l-115 -183q-188 120 -393 120q-141 0 -228 -57t-87 -152q0 -82 72 -124t219 -63l97 -13q451 -62 451 -385q0 -138 -78 -240t-203.5 -151.5t-279.5 -49.5q-150 0 -304.5 49t-258.5 139l123 180q73 -67 196 -110.5t243 -43.5q141 0 234 56.5t93 150.5
q0 80 -77.5 123.5t-237.5 65.5l-109 15q-66 9 -123.5 26t-112.5 48t-93.5 72.5t-62 103.5t-23.5 137q0 136 75.5 237t199 150.5t277.5 49.5q280 0 506 -151zM1084 1515h-223l-131 163l-131 -163h-223l211 300h286z" />
    <glyph glyph-name="scircumflex" unicode="&#x15d;" horiz-adv-x="1011" 
d="M906 881l-90 -163q-51 32 -132.5 57t-163.5 25q-84 0 -132.5 -31t-48.5 -83q0 -24 11.5 -41.5t35 -28.5t49 -17t62.5 -12l99 -15q333 -48 333 -283q0 -141 -116 -227t-320 -86q-245 0 -411 123l97 157q128 -98 316 -98q106 0 162 31t56 86q0 83 -166 106l-100 13
q-159 22 -242 93.5t-83 187.5q0 142 106.5 224.5t289.5 82.5q232 0 388 -101zM887 1100h-223l-131 163l-131 -163h-223l211 300h286z" />
    <glyph glyph-name="Scedilla" unicode="&#x15e;" horiz-adv-x="1352" 
d="M1222 1273l-115 -183q-188 120 -393 120q-141 0 -228 -57t-87 -152q0 -82 72 -124t219 -63l97 -13q451 -62 451 -385q0 -90 -34 -166t-94 -129.5t-139.5 -88t-173.5 -48.5l-95 -305h-229l104 302q-131 14 -254 60.5t-209 121.5l123 180q73 -67 196 -110.5t243 -43.5
q141 0 234 56.5t93 150.5q0 80 -77.5 123.5t-237.5 65.5l-109 15q-66 9 -123.5 26t-112.5 48t-93.5 72.5t-62 103.5t-23.5 137q0 136 75.5 237t199 150.5t277.5 49.5q280 0 506 -151z" />
    <glyph glyph-name="scedilla" unicode="&#x15f;" horiz-adv-x="1011" 
d="M906 881l-90 -163q-51 32 -132.5 57t-163.5 25q-84 0 -132.5 -31t-48.5 -83q0 -24 11.5 -41.5t35 -28.5t49 -17t62.5 -12l99 -15q333 -48 333 -283q0 -114 -78.5 -194t-219.5 -106l-97 -310h-219l101 301q-200 18 -334 119l97 157q128 -98 316 -98q106 0 162 31t56 86
q0 83 -166 106l-100 13q-159 22 -242 93.5t-83 187.5q0 142 106.5 224.5t289.5 82.5q232 0 388 -101z" />
    <glyph glyph-name="Scaron" unicode="&#x160;" horiz-adv-x="1352" 
d="M1222 1273l-115 -183q-188 120 -393 120q-141 0 -228 -57t-87 -152q0 -82 72 -124t219 -63l97 -13q451 -62 451 -385q0 -138 -78 -240t-203.5 -151.5t-279.5 -49.5q-150 0 -304.5 49t-258.5 139l123 180q73 -67 196 -110.5t243 -43.5q141 0 234 56.5t93 150.5
q0 80 -77.5 123.5t-237.5 65.5l-109 15q-66 9 -123.5 26t-112.5 48t-93.5 72.5t-62 103.5t-23.5 137q0 136 75.5 237t199 150.5t277.5 49.5q280 0 506 -151zM376 1815h223l131 -163l131 163h223l-211 -300h-286z" />
    <glyph glyph-name="scaron" unicode="&#x161;" horiz-adv-x="1011" 
d="M906 881l-90 -163q-51 32 -132.5 57t-163.5 25q-84 0 -132.5 -31t-48.5 -83q0 -24 11.5 -41.5t35 -28.5t49 -17t62.5 -12l99 -15q333 -48 333 -283q0 -141 -116 -227t-320 -86q-245 0 -411 123l97 157q128 -98 316 -98q106 0 162 31t56 86q0 83 -166 106l-100 13
q-159 22 -242 93.5t-83 187.5q0 142 106.5 224.5t289.5 82.5q232 0 388 -101zM179 1400h223l131 -163l131 163h223l-211 -300h-286z" />
    <glyph glyph-name="uni0162" unicode="&#x162;" horiz-adv-x="1208" 
d="M1170 1400v-214h-453v-1186h-3l-101 -321h-229l110 321h-3v1186h-453v214h1132z" />
    <glyph glyph-name="uni0163" unicode="&#x163;" horiz-adv-x="908" 
d="M817 958v-190h-367v-417q0 -92 42 -135.5t110 -43.5q90 0 193 65l83 -167q-112 -74 -228 -90l-94 -301h-219l107 317q-204 67 -204 351v421h-191v190h191v290h210v-290h367z" />
    <glyph glyph-name="Tcaron" unicode="&#x164;" horiz-adv-x="1208" 
d="M1170 1400v-214h-453v-1186h-226v1186h-453v214h1132zM250 1815h223l131 -163l131 163h223l-211 -300h-286z" />
    <glyph glyph-name="tcaron" unicode="&#x165;" horiz-adv-x="908" 
d="M817 958v-190h-367v-417q0 -92 42 -135.5t110 -43.5q90 0 193 65l83 -167q-141 -95 -294 -95q-166 0 -255 92t-89 280v421h-191v190h191v290h210v-290h367zM720 1050h-176v390h216z" />
    <glyph glyph-name="Tbar" unicode="&#x166;" horiz-adv-x="1208" 
d="M999 812v-214h-282v-598h-226v598h-282v214h282v374h-453v214h1132v-214h-453v-374h282z" />
    <glyph glyph-name="tbar" unicode="&#x167;" horiz-adv-x="908" 
d="M817 958v-190h-367v-159h276v-190h-276v-68q0 -92 42 -135.5t110 -43.5q90 0 193 65l83 -167q-141 -95 -294 -95q-166 0 -255 92t-89 280v72h-184v190h184v159h-191v190h191v290h210v-290h367z" />
    <glyph glyph-name="Utilde" unicode="&#x168;" horiz-adv-x="1530" 
d="M1359 1400v-848q0 -142 -46 -253.5t-127 -181.5t-188 -106t-233 -36t-233 36t-188 106t-127 181.5t-46 253.5v848h226v-831q0 -192 98.5 -284.5t269.5 -92.5t269.5 92.5t98.5 284.5v831h226zM500 1546l-108 133q51 58 108 85t132 27q59 0 111.5 -17t90.5 -34t63 -17
q56 0 132 65l108 -133q-51 -58 -108 -85t-132 -27q-58 0 -109.5 17t-90 34t-65.5 17q-56 0 -132 -65z" />
    <glyph glyph-name="utilde" unicode="&#x169;" horiz-adv-x="1196" 
d="M1042 958v-552q0 -110 -37.5 -195t-101 -135.5t-141 -75.5t-164.5 -25t-164.5 25t-141.5 75.5t-101 135.5t-37 195v552h210v-533q0 -131 64 -192t170 -61t170 61t64 192v533h210zM335 1131l-108 133q51 58 108 85t132 27q59 0 111 -17t90.5 -34t63.5 -17q56 0 132 65
l108 -133q-51 -58 -108 -85t-132 -27q-58 0 -109.5 17t-90 34t-65.5 17q-56 0 -132 -65z" />
    <glyph glyph-name="Umacron" unicode="&#x16a;" horiz-adv-x="1530" 
d="M1359 1400v-848q0 -142 -46 -253.5t-127 -181.5t-188 -106t-233 -36t-233 36t-188 106t-127 181.5t-46 253.5v848h226v-831q0 -192 98.5 -284.5t269.5 -92.5t269.5 92.5t98.5 284.5v831h226zM455 1580v170h620v-170h-620z" />
    <glyph glyph-name="umacron" unicode="&#x16b;" horiz-adv-x="1196" 
d="M1042 958v-552q0 -110 -37.5 -195t-101 -135.5t-141 -75.5t-164.5 -25t-164.5 25t-141.5 75.5t-101 135.5t-37 195v552h210v-533q0 -131 64 -192t170 -61t170 61t64 192v533h210zM288 1165v170h620v-170h-620z" />
    <glyph glyph-name="Ubreve" unicode="&#x16c;" horiz-adv-x="1530" 
d="M1359 1400v-848q0 -142 -46 -253.5t-127 -181.5t-188 -106t-233 -36t-233 36t-188 106t-127 181.5t-46 253.5v848h226v-831q0 -192 98.5 -284.5t269.5 -92.5t269.5 92.5t98.5 284.5v831h226zM396 1799l168 51q57 -173 201 -173t201 173l168 -51q-43 -147 -138.5 -223
t-230.5 -76t-230.5 76t-138.5 223z" />
    <glyph glyph-name="ubreve" unicode="&#x16d;" horiz-adv-x="1196" 
d="M1042 958v-552q0 -110 -37.5 -195t-101 -135.5t-141 -75.5t-164.5 -25t-164.5 25t-141.5 75.5t-101 135.5t-37 195v552h210v-533q0 -131 64 -192t170 -61t170 61t64 192v533h210zM229 1384l168 51q57 -173 201 -173t201 173l168 -51q-43 -147 -138.5 -223t-230.5 -76
t-230.5 76t-138.5 223z" />
    <glyph glyph-name="Uring" unicode="&#x16e;" horiz-adv-x="1530" 
d="M1359 1400v-848q0 -142 -46 -253.5t-127 -181.5t-188 -106t-233 -36t-233 36t-188 106t-127 181.5t-46 253.5v848h226v-831q0 -192 98.5 -284.5t269.5 -92.5t269.5 92.5t98.5 284.5v831h226zM765 1498q-102 0 -175 71.5t-73 173.5q0 100 73 172t175 72q103 0 176 -71.5
t73 -172.5q0 -102 -73 -173.5t-176 -71.5zM765 1630q45 0 77.5 32.5t32.5 80.5q0 46 -32.5 78.5t-77.5 32.5t-77 -32.5t-32 -78.5q0 -48 32 -80.5t77 -32.5z" />
    <glyph glyph-name="uring" unicode="&#x16f;" horiz-adv-x="1196" 
d="M1042 958v-552q0 -110 -37.5 -195t-101 -135.5t-141 -75.5t-164.5 -25t-164.5 25t-141.5 75.5t-101 135.5t-37 195v552h210v-533q0 -131 64 -192t170 -61t170 61t64 192v533h210zM597 1083q-102 0 -175 71.5t-73 173.5q0 100 73 172t175 72q103 0 176 -71.5t73 -172.5
q0 -102 -73 -173.5t-176 -71.5zM597 1215q45 0 77.5 32.5t32.5 80.5q0 46 -32.5 78.5t-77.5 32.5t-77 -32.5t-32 -78.5q0 -48 32 -80.5t77 -32.5z" />
    <glyph glyph-name="Uhungarumlaut" unicode="&#x170;" horiz-adv-x="1530" 
d="M1359 1400v-848q0 -142 -46 -253.5t-127 -181.5t-188 -106t-233 -36t-233 36t-188 106t-127 181.5t-46 253.5v848h226v-831q0 -192 98.5 -284.5t269.5 -92.5t269.5 92.5t98.5 284.5v831h226zM1017 1525h-210l200 300h245zM675 1525h-213l178 300h237z" />
    <glyph glyph-name="uhungarumlaut" unicode="&#x171;" horiz-adv-x="1196" 
d="M1042 958v-552q0 -110 -37.5 -195t-101 -135.5t-141 -75.5t-164.5 -25t-164.5 25t-141.5 75.5t-101 135.5t-37 195v552h210v-533q0 -131 64 -192t170 -61t170 61t64 192v533h210zM866 1110h-210l200 300h245zM524 1110h-213l178 300h237z" />
    <glyph glyph-name="Uogonek" unicode="&#x172;" horiz-adv-x="1530" 
d="M1124 -190l111 -136q-102 -93 -250 -93q-129 0 -209.5 63t-80.5 158q0 104 85 174q-2 0 -7 -0.5t-8 -0.5q-126 0 -233 36t-188 106t-127 181.5t-46 253.5v848h226v-831q0 -192 98.5 -284.5t269.5 -92.5t269.5 92.5t98.5 284.5v831h226v-848q0 -186 -76 -315t-210 -196
q-93 -47 -133 -95.5t-40 -104.5q0 -35 26 -57.5t72 -22.5q68 0 126 49z" />
    <glyph glyph-name="uogonek" unicode="&#x173;" horiz-adv-x="1196" 
d="M906 -190l111 -136q-102 -93 -250 -93q-129 0 -209.5 63t-80.5 158q0 103 86 174q-82 5 -153.5 32.5t-130 78t-92 132.5t-33.5 187v552h210v-533q0 -131 64 -192t170 -61t170 61t64 192v533h210v-552q0 -270 -220 -385q-140 -73 -140 -180q0 -35 26 -57.5t72 -22.5
q68 0 126 49z" />
    <glyph glyph-name="Wcircumflex" unicode="&#x174;" horiz-adv-x="2180" 
d="M2132 1400l-427 -1400h-280l-335 1093l-335 -1093h-280l-427 1400h237l333 -1139l346 1139h257l345 -1139l334 1139h232zM1444 1515h-223l-131 163l-131 -163h-223l211 300h286z" />
    <glyph glyph-name="wcircumflex" unicode="&#x175;" horiz-adv-x="1674" 
d="M956 958l239 -732l226 732h218l-317 -958h-250l-237 722l-237 -722h-246l-317 958h223l225 -728l236 728h237zM1191 1100h-223l-131 163l-131 -163h-223l211 300h286z" />
    <glyph glyph-name="Ycircumflex" unicode="&#x176;" horiz-adv-x="1328" 
d="M1319 1400l-540 -832v-568h-226v572l-544 828h270l388 -627l389 627h263zM1021 1515h-223l-131 163l-131 -163h-223l211 300h286z" />
    <glyph glyph-name="ycircumflex" unicode="&#x177;" horiz-adv-x="1098" 
d="M1086 958l-756 -1364h-232l343 603l-425 761h235l308 -550l297 550h230zM908 1100h-223l-131 163l-131 -163h-223l211 300h286z" />
    <glyph glyph-name="Ydieresis" unicode="&#x178;" horiz-adv-x="1328" 
d="M1319 1400l-540 -832v-568h-226v572l-544 828h270l388 -627l389 627h263zM466 1814q62 0 105 -43t43 -105t-43 -104t-105 -42t-104 42t-42 104t42 105t104 43zM866 1814q62 0 105 -43t43 -105t-43 -104t-105 -42t-104 42t-42 104t42 105t104 43z" />
    <glyph glyph-name="Zacute" unicode="&#x179;" horiz-adv-x="1292" 
d="M1178 1400v-175l-764 -1011h764v-214h-1064v175l764 1011h-762v214h1062zM695 1525h-206l191 300h266z" />
    <glyph glyph-name="zacute" unicode="&#x17a;" horiz-adv-x="1041" 
d="M916 958v-152l-523 -616h533v-190h-811v152l532 616h-516v190h785zM579 1110h-206l191 300h266z" />
    <glyph glyph-name="Zdotaccent" unicode="&#x17b;" horiz-adv-x="1292" 
d="M1178 1400v-175l-764 -1011h764v-214h-1064v175l764 1011h-762v214h1062zM625 1827q66 0 111 -45t45 -111q0 -65 -45 -109t-111 -44q-65 0 -109 44t-44 109q0 66 44 111t109 45z" />
    <glyph glyph-name="zdotaccent" unicode="&#x17c;" horiz-adv-x="1041" 
d="M916 958v-152l-523 -616h533v-190h-811v152l532 616h-516v190h785zM523 1437q62 0 105 -43t43 -105t-43 -104t-105 -42t-104 42t-42 104t42 105t104 43z" />
    <glyph glyph-name="Zcaron" unicode="&#x17d;" horiz-adv-x="1292" 
d="M1178 1400v-175l-764 -1011h764v-214h-1064v175l764 1011h-762v214h1062zM293 1815h223l131 -163l131 163h223l-211 -300h-286z" />
    <glyph glyph-name="zcaron" unicode="&#x17e;" horiz-adv-x="1041" 
d="M916 958v-152l-523 -616h533v-190h-811v152l532 616h-516v190h785zM170 1400h223l131 -163l131 163h223l-211 -300h-286z" />
    <glyph glyph-name="longs" unicode="&#x17f;" horiz-adv-x="634" 
d="M477 1465q145 0 267 -72l-74 -176q-89 51 -179 51q-61 0 -93 -38.5t-32 -109.5v-1120h-210v1120q0 153 80.5 249t240.5 96z" />
    <glyph glyph-name="uni018F" unicode="&#x18f;" horiz-adv-x="1616" 
d="M793 1425q199 0 361.5 -94.5t255 -260.5t92.5 -370t-90.5 -370t-250 -260.5t-355.5 -94.5q-202 0 -360.5 92.5t-245 254.5t-86.5 364q0 38 4 114h1142q-31 180 -160 294t-306 114q-134 0 -235.5 -52t-189.5 -153l-157 156q243 266 581 266zM807 192q169 0 294 110.5
t158 286.5h-897q17 -170 141 -283.5t304 -113.5z" />
    <glyph glyph-name="florin" unicode="&#x192;" horiz-adv-x="1400" 
d="M1083 821v-192h-288l-31 -310q-17 -168 -88 -255.5t-223 -87.5q-137 0 -249 63l71 169q79 -43 164 -43q61 0 86.5 37t33.5 117l31 310h-236v192h256l27 260q18 168 88.5 255.5t222.5 87.5q135 0 249 -63l-72 -169q-79 43 -164 43q-61 0 -86.5 -37t-33.5 -117l-26 -260
h268z" />
    <glyph glyph-name="uni01B5" unicode="&#x1b5;" horiz-adv-x="1292" 
d="M1046 800v-207h-346l-286 -379h764v-214h-1064v175l321 425h-189v207h346l286 379h-762v214h1062v-175l-321 -425h189z" />
    <glyph glyph-name="uni01B6" unicode="&#x1b6;" horiz-adv-x="1041" 
d="M855 564v-160h-281l-181 -214h533v-190h-811v152l223 259h-152v160h290l171 197h-516v190h785v-152l-205 -242h144z" />
    <glyph glyph-name="uni01CD" unicode="&#x1cd;" horiz-adv-x="1448" 
d="M865 1400l553 -1400h-243l-138 357h-634l-138 -357h-235l553 1400h282zM720 1175l-234 -604h468zM370 1815h223l131 -163l131 163h223l-211 -300h-286z" />
    <glyph glyph-name="uni01CE" unicode="&#x1ce;" horiz-adv-x="1248" 
d="M1084 958v-958h-209v115q-109 -140 -301 -140q-203 0 -341 143t-138 361t138 361t341 143q192 0 301 -141v116h209zM599 786q-131 0 -210 -88.5t-79 -218.5t79 -218.5t210 -88.5q128 0 208.5 87t80.5 220t-80.5 220t-208.5 87zM267 1400h223l131 -163l131 163h223
l-211 -300h-286z" />
    <glyph glyph-name="uni01CF" unicode="&#x1cf;" horiz-adv-x="606" 
d="M416 1400v-1400h-226v1400h226zM-51 1815h223l131 -163l131 163h223l-211 -300h-286z" />
    <glyph glyph-name="uni01D0" unicode="&#x1d0;" horiz-adv-x="538" 
d="M374 958v-958h-210v958h210zM-85 1400h223l131 -163l131 163h223l-211 -300h-286z" />
    <glyph glyph-name="uni01D1" unicode="&#x1d1;" horiz-adv-x="1694" 
d="M847 1426q212 0 379.5 -94t260.5 -259.5t93 -372.5t-93 -372.5t-260.5 -259.5t-379.5 -94t-379.5 94t-260.5 259.5t-93 372.5t93 372.5t260.5 259.5t379.5 94zM847 1209q-216 0 -356 -142t-140 -367t140 -367t356 -142t356 142t140 367t-140 367t-356 142zM493 1815h223
l131 -163l131 163h223l-211 -300h-286z" />
    <glyph glyph-name="uni01D2" unicode="&#x1d2;" horiz-adv-x="1221" 
d="M610 983q146 0 264 -65.5t185 -181t67 -257.5t-67 -257.5t-185 -181t-264 -65.5t-264 66t-184.5 181t-66.5 257t66.5 257t184.5 181t264 66zM610 786q-129 0 -214.5 -86t-85.5 -221t85.5 -221t214.5 -86t215 86t86 221t-86 221t-215 86zM256 1400h223l131 -163l131 163
h223l-211 -300h-286z" />
    <glyph glyph-name="uni01D3" unicode="&#x1d3;" horiz-adv-x="1530" 
d="M1359 1400v-848q0 -142 -46 -253.5t-127 -181.5t-188 -106t-233 -36t-233 36t-188 106t-127 181.5t-46 253.5v848h226v-831q0 -192 98.5 -284.5t269.5 -92.5t269.5 92.5t98.5 284.5v831h226zM411 1815h223l131 -163l131 163h223l-211 -300h-286z" />
    <glyph glyph-name="uni01D4" unicode="&#x1d4;" horiz-adv-x="1196" 
d="M1042 958v-552q0 -110 -37.5 -195t-101 -135.5t-141 -75.5t-164.5 -25t-164.5 25t-141.5 75.5t-101 135.5t-37 195v552h210v-533q0 -131 64 -192t170 -61t170 61t64 192v533h210zM244 1400h223l131 -163l131 163h223l-211 -300h-286z" />
    <glyph glyph-name="uni01D5" unicode="&#x1d5;" horiz-adv-x="1530" 
d="M1359 1400v-848q0 -142 -46 -253.5t-127 -181.5t-188 -106t-233 -36t-233 36t-188 106t-127 181.5t-46 253.5v848h226v-831q0 -192 98.5 -284.5t269.5 -92.5t269.5 92.5t98.5 284.5v831h226zM455 1917v170h620v-170h-620zM564 1814q62 0 105 -43t43 -105t-43 -104
t-105 -42t-104 42t-42 104t42 105t104 43zM964 1814q62 0 105 -43t43 -105t-43 -104t-105 -42t-104 42t-42 104t42 105t104 43z" />
    <glyph glyph-name="uni01D6" unicode="&#x1d6;" horiz-adv-x="1196" 
d="M1042 958v-552q0 -110 -37.5 -195t-101 -135.5t-141 -75.5t-164.5 -25t-164.5 25t-141.5 75.5t-101 135.5t-37 195v552h210v-533q0 -131 64 -192t170 -61t170 61t64 192v533h210zM397 1399q62 0 105 -43t43 -105t-43 -104t-105 -42t-104 42t-42 104t42 105t104 43z
M797 1399q62 0 105 -43t43 -105t-43 -104t-105 -42t-104 42t-42 104t42 105t104 43zM288 1515v170h620v-170h-620z" />
    <glyph glyph-name="uni01D7" unicode="&#x1d7;" horiz-adv-x="1530" 
d="M1359 1400v-848q0 -142 -46 -253.5t-127 -181.5t-188 -106t-233 -36t-233 36t-188 106t-127 181.5t-46 253.5v848h226v-831q0 -192 98.5 -284.5t269.5 -92.5t269.5 92.5t98.5 284.5v831h226zM813 1912h-206l191 300h266zM564 1814q62 0 105 -43t43 -105t-43 -104
t-105 -42t-104 42t-42 104t42 105t104 43zM964 1814q62 0 105 -43t43 -105t-43 -104t-105 -42t-104 42t-42 104t42 105t104 43z" />
    <glyph glyph-name="uni01D8" unicode="&#x1d8;" horiz-adv-x="1196" 
d="M1042 958v-552q0 -110 -37.5 -195t-101 -135.5t-141 -75.5t-164.5 -25t-164.5 25t-141.5 75.5t-101 135.5t-37 195v552h210v-533q0 -131 64 -192t170 -61t170 61t64 192v533h210zM397 1399q62 0 105 -43t43 -105t-43 -104t-105 -42t-104 42t-42 104t42 105t104 43z
M797 1399q62 0 105 -43t43 -105t-43 -104t-105 -42t-104 42t-42 104t42 105t104 43zM646 1510h-206l191 300h266z" />
    <glyph glyph-name="uni01D9" unicode="&#x1d9;" horiz-adv-x="1530" 
d="M1359 1400v-848q0 -142 -46 -253.5t-127 -181.5t-188 -106t-233 -36t-233 36t-188 106t-127 181.5t-46 253.5v848h226v-831q0 -192 98.5 -284.5t269.5 -92.5t269.5 92.5t98.5 284.5v831h226zM411 2202h223l131 -163l131 163h223l-211 -300h-286zM564 1814q62 0 105 -43
t43 -105t-43 -104t-105 -42t-104 42t-42 104t42 105t104 43zM964 1814q62 0 105 -43t43 -105t-43 -104t-105 -42t-104 42t-42 104t42 105t104 43z" />
    <glyph glyph-name="uni01DA" unicode="&#x1da;" horiz-adv-x="1196" 
d="M1042 958v-552q0 -110 -37.5 -195t-101 -135.5t-141 -75.5t-164.5 -25t-164.5 25t-141.5 75.5t-101 135.5t-37 195v552h210v-533q0 -131 64 -192t170 -61t170 61t64 192v533h210zM397 1399q62 0 105 -43t43 -105t-43 -104t-105 -42t-104 42t-42 104t42 105t104 43z
M797 1399q62 0 105 -43t43 -105t-43 -104t-105 -42t-104 42t-42 104t42 105t104 43zM244 1800h223l131 -163l131 163h223l-211 -300h-286z" />
    <glyph glyph-name="uni01DB" unicode="&#x1db;" horiz-adv-x="1530" 
d="M1359 1400v-848q0 -142 -46 -253.5t-127 -181.5t-188 -106t-233 -36t-233 36t-188 106t-127 181.5t-46 253.5v848h226v-831q0 -192 98.5 -284.5t269.5 -92.5t269.5 92.5t98.5 284.5v831h226zM702 1912l-251 300h266l191 -300h-206zM564 1814q62 0 105 -43t43 -105
t-43 -104t-105 -42t-104 42t-42 104t42 105t104 43zM964 1814q62 0 105 -43t43 -105t-43 -104t-105 -42t-104 42t-42 104t42 105t104 43z" />
    <glyph glyph-name="uni01DC" unicode="&#x1dc;" horiz-adv-x="1196" 
d="M1042 958v-552q0 -110 -37.5 -195t-101 -135.5t-141 -75.5t-164.5 -25t-164.5 25t-141.5 75.5t-101 135.5t-37 195v552h210v-533q0 -131 64 -192t170 -61t170 61t64 192v533h210zM397 1399q62 0 105 -43t43 -105t-43 -104t-105 -42t-104 42t-42 104t42 105t104 43z
M797 1399q62 0 105 -43t43 -105t-43 -104t-105 -42t-104 42t-42 104t42 105t104 43zM535 1510l-251 300h266l191 -300h-206z" />
    <glyph glyph-name="uni01E2" unicode="&#x1e2;" horiz-adv-x="2317" 
d="M2165 212v-212h-1021v321h-606l-241 -321h-273l1057 1400h1071v-212h-782v-377h755v-212h-755v-387h795zM699 535h445v592zM1233 1580v170h620v-170h-620z" />
    <glyph glyph-name="uni01E3" unicode="&#x1e3;" horiz-adv-x="1764" 
d="M1216 983q201 0 326.5 -139.5t126.5 -363.5q0 -30 -4 -78h-708q20 -123 98 -183.5t187 -60.5q150 0 277 101l104 -149q-158 -135 -394 -135q-116 0 -212 42t-162 119q-157 -161 -386 -161q-180 0 -277 85.5t-97 223.5q0 132 104.5 208t277.5 76h264q-11 225 -245 225
q-133 0 -264 -96l-86 165q165 121 377 121q238 0 347 -157q59 74 151 115.5t195 41.5zM495 157q70 0 144.5 31t130.5 96q-19 57 -27 125h-236q-99 0 -143 -36t-44 -89q0 -52 44 -89.5t131 -37.5zM1212 797q-108 0 -172.5 -63.5t-81.5 -172.5h497q-17 112 -80.5 174
t-162.5 62zM577 1165v170h620v-170h-620z" />
    <glyph glyph-name="Gcaron" unicode="&#x1e6;" horiz-adv-x="1639" 
d="M847 1426q166 0 306 -59t236 -167l-166 -161q-67 80 -164 125t-212 45q-216 0 -356 -142t-140 -367q0 -224 138.5 -366.5t347.5 -142.5q189 0 301.5 94t139.5 269h-371v210h616q2 -36 2 -54q0 -151 -47.5 -284.5t-133.5 -233.5t-217.5 -158.5t-289.5 -58.5
q-109 0 -213.5 30t-197 91t-162 146.5t-110 203.5t-40.5 254q0 156 55 291t151.5 230.5t233 150t293.5 54.5zM466 1815h223l131 -163l131 163h223l-211 -300h-286z" />
    <glyph glyph-name="gcaron" unicode="&#x1e7;" horiz-adv-x="1232" 
d="M539 983q208 0 319 -140v115h210v-891q0 -226 -137 -356t-377 -130q-110 0 -218.5 29t-182.5 82l76 177q159 -97 325 -97q146 0 225 75.5t79 210.5v77q-110 -140 -319 -140q-83 0 -162 34.5t-142 96t-101.5 156.5t-38.5 207t38.5 207t101.5 156.5t142 96t162 34.5z
M593 786q-129 0 -206 -85.5t-77 -211.5q0 -125 77 -211t206 -86q125 0 204 84.5t79 212.5t-79 212.5t-204 84.5zM239 1400h223l131 -163l131 163h223l-211 -300h-286z" />
    <glyph glyph-name="Aringacute" unicode="&#x1fa;" horiz-adv-x="1448" 
d="M265 0h-235l528 1337q-86 73 -86 186q0 100 73 172t175 72q103 0 176 -71.5t73 -172.5q0 -110 -81 -181l530 -1342h-243l-138 357h-634zM720 1175l-234 -604h468zM768 1835h-206l191 300h266zM720 1410q45 0 77.5 32.5t32.5 80.5q0 46 -32.5 78.5t-77.5 32.5t-77 -32.5
t-32 -78.5q0 -48 32 -80.5t77 -32.5z" />
    <glyph glyph-name="aringacute" unicode="&#x1fb;" horiz-adv-x="1248" 
d="M1084 958v-958h-209v115q-109 -140 -301 -140q-203 0 -341 143t-138 361t138 361t341 143q192 0 301 -141v116h209zM599 786q-131 0 -210 -88.5t-79 -218.5t79 -218.5t210 -88.5q128 0 208.5 87t80.5 220t-80.5 220t-208.5 87zM614 1043q-102 0 -175 71.5t-73 173.5
q0 100 73 172t175 72q103 0 176 -71.5t73 -172.5q0 -102 -73 -173.5t-176 -71.5zM614 1175q45 0 77.5 32.5t32.5 80.5q0 46 -32.5 78.5t-77.5 32.5t-77 -32.5t-32 -78.5q0 -48 32 -80.5t77 -32.5zM663 1587h-206l191 300h266z" />
    <glyph glyph-name="AEacute" unicode="&#x1fc;" horiz-adv-x="2317" 
d="M2165 212v-212h-1021v321h-606l-241 -321h-273l1057 1400h1071v-212h-782v-377h755v-212h-755v-387h795zM699 535h445v592zM1591 1525h-206l191 300h266z" />
    <glyph glyph-name="aeacute" unicode="&#x1fd;" horiz-adv-x="1764" 
d="M1216 983q201 0 326.5 -139.5t126.5 -363.5q0 -30 -4 -78h-708q20 -123 98 -183.5t187 -60.5q150 0 277 101l104 -149q-158 -135 -394 -135q-116 0 -212 42t-162 119q-157 -161 -386 -161q-180 0 -277 85.5t-97 223.5q0 132 104.5 208t277.5 76h264q-11 225 -245 225
q-133 0 -264 -96l-86 165q165 121 377 121q238 0 347 -157q59 74 151 115.5t195 41.5zM495 157q70 0 144.5 31t130.5 96q-19 57 -27 125h-236q-99 0 -143 -36t-44 -89q0 -52 44 -89.5t131 -37.5zM1212 797q-108 0 -172.5 -63.5t-81.5 -172.5h497q-17 112 -80.5 174
t-162.5 62zM942 1110h-206l191 300h266z" />
    <glyph glyph-name="Oslashacute" unicode="&#x1fe;" horiz-adv-x="1694" 
d="M847 1426q255 0 443 -135l134 134l149 -149l-133 -133q140 -189 140 -443q0 -207 -93 -372.5t-260.5 -259.5t-379.5 -94q-254 0 -443 134l-133 -133l-149 148l132 132q-140 190 -140 445q0 207 93 372.5t260.5 259.5t379.5 94zM847 1209q-216 0 -356 -142t-140 -367
q0 -158 71 -277l705 705q-122 81 -280 81zM1343 700q0 154 -71 275l-705 -705q122 -79 280 -79q216 0 356 142t140 367zM895 1525h-206l191 300h266z" />
    <glyph glyph-name="oslashacute" unicode="&#x1ff;" horiz-adv-x="1221" 
d="M610 983q164 0 295 -85l103 103l126 -126l-101 -101q93 -129 93 -295q0 -142 -67 -257.5t-185 -181t-264 -65.5q-165 0 -293 83l-103 -103l-127 125l101 101q-93 131 -93 298q0 142 66.5 257t184.5 181t264 66zM610 786q-129 0 -214.5 -86t-85.5 -221q0 -80 31 -145
l416 416q-67 36 -147 36zM911 479q0 78 -31 142l-415 -415q66 -34 145 -34q129 0 215 86t86 221zM665 1110h-206l191 300h266z" />
    <glyph glyph-name="uni0218" unicode="&#x218;" horiz-adv-x="1352" 
d="M1222 1273l-115 -183q-188 120 -393 120q-141 0 -228 -57t-87 -152q0 -82 72 -124t219 -63l97 -13q451 -62 451 -385q0 -138 -78 -240t-203.5 -151.5t-279.5 -49.5q-150 0 -304.5 49t-258.5 139l123 180q73 -67 196 -110.5t243 -43.5q141 0 234 56.5t93 150.5
q0 80 -77.5 123.5t-237.5 65.5l-109 15q-66 9 -123.5 26t-112.5 48t-93.5 72.5t-62 103.5t-23.5 137q0 136 75.5 237t199 150.5t277.5 49.5q280 0 506 -151zM596 -87h231l-83 -368h-185z" />
    <glyph glyph-name="uni0219" unicode="&#x219;" horiz-adv-x="1011" 
d="M906 881l-90 -163q-51 32 -132.5 57t-163.5 25q-84 0 -132.5 -31t-48.5 -83q0 -24 11.5 -41.5t35 -28.5t49 -17t62.5 -12l99 -15q333 -48 333 -283q0 -141 -116 -227t-320 -86q-245 0 -411 123l97 157q128 -98 316 -98q106 0 162 31t56 86q0 83 -166 106l-100 13
q-159 22 -242 93.5t-83 187.5q0 142 106.5 224.5t289.5 82.5q232 0 388 -101zM417 -87h231l-83 -368h-185z" />
    <glyph glyph-name="uni021A" unicode="&#x21a;" horiz-adv-x="1208" 
d="M1170 1400v-214h-453v-1186h-226v1186h-453v214h1132zM507 -87h231l-83 -368h-185z" />
    <glyph glyph-name="uni021B" unicode="&#x21b;" horiz-adv-x="908" 
d="M817 958v-190h-367v-417q0 -92 42 -135.5t110 -43.5q90 0 193 65l83 -167q-141 -95 -294 -95q-166 0 -255 92t-89 280v421h-191v190h191v290h210v-290h367zM439 -87h231l-83 -368h-185z" />
    <glyph glyph-name="uni0232" unicode="&#x232;" horiz-adv-x="1328" 
d="M1319 1400l-540 -832v-568h-226v572l-544 828h270l388 -627l389 627h263zM357 1580v170h620v-170h-620z" />
    <glyph glyph-name="uni0233" unicode="&#x233;" horiz-adv-x="1098" 
d="M1086 958l-756 -1364h-232l343 603l-425 761h235l308 -550l297 550h230zM244 1165v170h620v-170h-620z" />
    <glyph glyph-name="uni0237" unicode="&#x237;" horiz-adv-x="544" 
d="M380 958v-1076q0 -144 -77 -222.5t-204 -78.5q-84 0 -145 29l49 182q37 -14 77 -14t65 28t25 86v1066h210z" />
    <glyph glyph-name="uni0259" unicode="&#x259;" horiz-adv-x="1120" 
d="M548 -25q-201 0 -326.5 139.5t-126.5 363.5q0 30 4 78h708q-20 123 -98 183.5t-187 60.5q-150 0 -277 -101l-104 149q158 135 394 135q217 0 353.5 -139t136.5 -365q0 -225 -132.5 -364.5t-344.5 -139.5zM552 161q108 0 172.5 63.5t81.5 172.5h-497q17 -112 80.5 -174
t162.5 -62z" />
    <glyph glyph-name="uni02BB" unicode="&#x2bb;" horiz-adv-x="505" 
d="M350 895h-245l120 545h180z" />
    <glyph glyph-name="uni02BC" unicode="&#x2bc;" horiz-adv-x="505" 
d="M155 1440h245l-120 -545h-180z" />
    <glyph glyph-name="uni02BE" unicode="&#x2be;" horiz-adv-x="556" 
d="M133 694v193q70 0 121.5 55t51.5 132q0 79 -51.5 134t-121.5 55v193q156 0 266.5 -111.5t110.5 -270.5q0 -157 -110.5 -268.5t-266.5 -111.5z" />
    <glyph glyph-name="uni02BF" unicode="&#x2bf;" horiz-adv-x="556" 
d="M423 1456v-193q-70 0 -121.5 -55t-51.5 -132q0 -79 51.5 -134t121.5 -55v-193q-156 0 -266.5 111.5t-110.5 270.5q0 157 110.5 268.5t266.5 111.5z" />
    <glyph glyph-name="circumflex" unicode="&#x2c6;" horiz-adv-x="1000" 
d="M854 1100h-223l-131 163l-131 -163h-223l211 300h286z" />
    <glyph glyph-name="caron" unicode="&#x2c7;" horiz-adv-x="1000" 
d="M146 1400h223l131 -163l131 163h223l-211 -300h-286z" />
    <glyph glyph-name="breve" unicode="&#x2d8;" horiz-adv-x="1000" 
d="M131 1384l168 51q57 -173 201 -173t201 173l168 -51q-43 -147 -138.5 -223t-230.5 -76t-230.5 76t-138.5 223z" />
    <glyph glyph-name="dotaccent" unicode="&#x2d9;" horiz-adv-x="622" 
d="M310 1437q62 0 105 -43t43 -105t-43 -104t-105 -42t-104 42t-42 104t42 105t104 43z" />
    <glyph glyph-name="ring" unicode="&#x2da;" horiz-adv-x="1000" 
d="M500 1083q-102 0 -175 71.5t-73 173.5q0 100 73 172t175 72q103 0 176 -71.5t73 -172.5q0 -102 -73 -173.5t-176 -71.5zM500 1215q45 0 77.5 32.5t32.5 80.5q0 46 -32.5 78.5t-77.5 32.5t-77 -32.5t-32 -78.5q0 -48 32 -80.5t77 -32.5z" />
    <glyph glyph-name="ogonek" unicode="&#x2db;" horiz-adv-x="1108" 
d="M818 -190l111 -136q-102 -93 -250 -93q-129 0 -206 65.5t-77 173.5q0 105 79.5 178.5t240.5 131.5l93 -118q-117 -40 -166 -81.5t-49 -89.5q0 -35 26 -57.5t72 -22.5q68 0 126 49z" />
    <glyph glyph-name="tilde" unicode="&#x2dc;" horiz-adv-x="1000" 
d="M236 1131l-108 133q51 58 108 85t132 27q59 0 111.5 -17t90.5 -34t63 -17q56 0 132 65l108 -133q-51 -58 -108 -85t-132 -27q-58 0 -109.5 17t-90 34t-65.5 17q-56 0 -132 -65z" />
    <glyph glyph-name="hungarumlaut" unicode="&#x2dd;" horiz-adv-x="1000" 
d="M678 1110h-206l191 300h266zM277 1110h-206l191 300h266z" />
    <glyph glyph-name="gravecomb" unicode="&#x300;" 
d="M-679 1110l-251 300h266l191 -300h-206z" />
    <glyph glyph-name="acutecomb" unicode="&#x301;" 
d="M-556 1110h-206l191 300h266z" />
    <glyph glyph-name="uni0302" unicode="&#x302;" 
d="M-257 1100h-223l-131 163l-131 -163h-223l211 300h286z" />
    <glyph glyph-name="tildecomb" unicode="&#x303;" 
d="M-874 1131l-108 133q51 58 108 85t132 27q59 0 111.5 -17t90.5 -34t63 -17q56 0 132 65l108 -133q-51 -58 -108 -85t-132 -27q-58 0 -109.5 17t-90 34t-65.5 17q-56 0 -132 -65z" />
    <glyph glyph-name="uni0304" unicode="&#x304;" 
d="M-921 1165v170h620v-170h-620z" />
    <glyph glyph-name="uni0306" unicode="&#x306;" 
d="M-980 1384l168 51q57 -173 201 -173t201 173l168 -51q-43 -147 -138.5 -223t-230.5 -76t-230.5 76t-138.5 223z" />
    <glyph glyph-name="uni0307" unicode="&#x307;" 
d="M-612 1437q62 0 105 -43t43 -105t-43 -104t-105 -42t-104 42t-42 104t42 105t104 43z" />
    <glyph glyph-name="uni0308" unicode="&#x308;" 
d="M-812 1399q62 0 105 -43t43 -105t-43 -104t-105 -42t-104 42t-42 104t42 105t104 43zM-412 1399q62 0 105 -43t43 -105t-43 -104t-105 -42t-104 42t-42 104t42 105t104 43z" />
    <glyph glyph-name="uni030A" unicode="&#x30a;" 
d="M-612 1083q-102 0 -175 71.5t-73 173.5q0 100 73 172t175 72q103 0 176 -71.5t73 -172.5q0 -102 -73 -173.5t-176 -71.5zM-612 1215q45 0 77.5 32.5t32.5 80.5q0 46 -32.5 78.5t-77.5 32.5t-77 -32.5t-32 -78.5q0 -48 32 -80.5t77 -32.5z" />
    <glyph glyph-name="uni030B" unicode="&#x30b;" 
d="M-343 1110h-210l200 300h245zM-685 1110h-213l178 300h237z" />
    <glyph glyph-name="uni030C" unicode="&#x30c;" 
d="M-965 1400h223l131 -163l131 163h223l-211 -300h-286z" />
    <glyph glyph-name="uni0312" unicode="&#x312;" 
d="M-504 1110h-231l83 368h185z" />
    <glyph glyph-name="dotbelowcomb" unicode="&#x323;" 
d="M-611 -123q62 0 105 -43t43 -105t-43 -104t-105 -42t-104 42t-42 104t42 105t104 43z" />
    <glyph glyph-name="uni0326" unicode="&#x326;" 
d="M-719 -87h231l-83 -368h-185z" />
    <glyph glyph-name="uni0327" unicode="&#x327;" 
d="M-449 7l-103 -328h-219l111 328h211z" />
    <glyph glyph-name="uni0328" unicode="&#x328;" 
d="M-451 -190l111 -136q-102 -93 -250 -93q-129 0 -209.5 63t-80.5 158q0 106 86 174.5t272 125.5l19 -61q-93 -48 -132.5 -96t-39.5 -104q0 -35 26 -57.5t72 -22.5q68 0 126 49z" />
    <glyph glyph-name="uni032E" unicode="&#x32e;" 
d="M-979 -133l168 51q57 -173 201 -173t201 173l168 -51q-43 -147 -138.5 -223t-230.5 -76t-230.5 76t-138.5 223z" />
    <glyph glyph-name="uni0331" unicode="&#x331;" 
d="M-920 -350v170h620v-170h-620z" />
    <glyph glyph-name="uni0335" unicode="&#x335;" 
d="M-245 628v-190h-730v190h730z" />
    <glyph glyph-name="uni0336" unicode="&#x336;" 
d="M140 628v-190h-1500v190h1500z" />
    <glyph glyph-name="uni0394" unicode="&#x394;" horiz-adv-x="1399" 
d="M841 1400l482 -1225v-175h-1247v175l483 1225h282zM700 1174l-370 -960h739z" />
    <glyph glyph-name="uni03A9" unicode="&#x3a9;" horiz-adv-x="1722" 
d="M76 214h269q-104 92 -160.5 216.5t-56.5 269.5q0 207 93 372.5t260.5 259.5t379.5 94t379.5 -94t260.5 -259.5t93 -372.5q0 -145 -56.5 -269.5t-160.5 -216.5h269v-214h-626v184q153 49 245 184t92 322q0 229 -140 374t-356 145t-356 -145t-140 -374q0 -187 92 -322
t245 -184v-184h-626v214z" />
    <glyph glyph-name="uni03BC" unicode="&#x3bc;" horiz-adv-x="1209" 
d="M362 -400h-208v1358h210v-533q0 -120 58.5 -185.5t164.5 -65.5t177 67.5t71 185.5v531h210v-958h-208v117q-97 -142 -294 -142q-97 0 -181 38v-413z" />
    <glyph glyph-name="pi" unicode="&#x3c0;" horiz-adv-x="1208" 
d="M1054 958v-958h-210v768h-470v-768h-210v958h890z" />
    <glyph glyph-name="uni1E0C" unicode="&#x1e0c;" horiz-adv-x="1587" 
d="M190 1400h556q329 0 528 -192t199 -508t-199 -508t-528 -192h-556v1400zM746 1186h-330v-972h330q239 0 364.5 133t125.5 353q0 222 -125.5 354t-364.5 132zM769 -123q62 0 105 -43t43 -105t-43 -104t-105 -42t-104 42t-42 104t42 105t104 43z" />
    <glyph glyph-name="uni1E0D" unicode="&#x1e0d;" horiz-adv-x="1248" 
d="M574 983q192 0 301 -141v598h209v-1440h-209v115q-109 -140 -301 -140q-203 0 -341 143t-138 361t138 361t341 143zM599 786q-131 0 -210 -88.5t-79 -218.5t79 -218.5t210 -88.5q128 0 208.5 87t80.5 220t-80.5 220t-208.5 87zM627 -123q62 0 105 -43t43 -105t-43 -104
t-105 -42t-104 42t-42 104t42 105t104 43z" />
    <glyph glyph-name="uni1E0E" unicode="&#x1e0e;" horiz-adv-x="1587" 
d="M190 1400h556q329 0 528 -192t199 -508t-199 -508t-528 -192h-556v1400zM746 1186h-330v-972h330q239 0 364.5 133t125.5 353q0 222 -125.5 354t-364.5 132zM460 -350v170h620v-170h-620z" />
    <glyph glyph-name="uni1E0F" unicode="&#x1e0f;" horiz-adv-x="1248" 
d="M574 983q192 0 301 -141v598h209v-1440h-209v115q-109 -140 -301 -140q-203 0 -341 143t-138 361t138 361t341 143zM599 786q-131 0 -210 -88.5t-79 -218.5t79 -218.5t210 -88.5q128 0 208.5 87t80.5 220t-80.5 220t-208.5 87zM317 -350v170h620v-170h-620z" />
    <glyph glyph-name="uni1E24" unicode="&#x1e24;" horiz-adv-x="1588" 
d="M416 1400v-588h756v588h226v-1400h-226v598h-756v-598h-226v1400h226zM793 -123q62 0 105 -43t43 -105t-43 -104t-105 -42t-104 42t-42 104t42 105t104 43z" />
    <glyph glyph-name="uni1E25" unicode="&#x1e25;" horiz-adv-x="1209" 
d="M374 1440v-596q97 139 292 139q171 0 280 -106.5t109 -274.5v-602h-210v533q0 120 -58.5 185.5t-164.5 65.5t-177 -67.5t-71 -185.5v-531h-210v1440h210zM610 -123q62 0 105 -43t43 -105t-43 -104t-105 -42t-104 42t-42 104t42 105t104 43z" />
    <glyph glyph-name="uni1E28" unicode="&#x1e28;" horiz-adv-x="1588" 
d="M416 1400v-588h756v588h226v-1400h-226v598h-756v-598h-4l-101 -321h-229l110 321h-2v1400h226z" />
    <glyph glyph-name="uni1E29" unicode="&#x1e29;" horiz-adv-x="1209" 
d="M374 0h-3l-99 -321h-219l113 321h-2v1440h210v-596q97 139 292 139q171 0 280 -106.5t109 -274.5v-602h-210v533q0 120 -58.5 185.5t-164.5 65.5t-177 -67.5t-71 -185.5v-531z" />
    <glyph glyph-name="uni1E2A" unicode="&#x1e2a;" horiz-adv-x="1588" 
d="M416 1400v-588h756v588h226v-1400h-226v598h-756v-598h-226v1400h226zM425 -133l168 51q57 -173 201 -173t201 173l168 -51q-43 -147 -138.5 -223t-230.5 -76t-230.5 76t-138.5 223z" />
    <glyph glyph-name="uni1E2B" unicode="&#x1e2b;" horiz-adv-x="1209" 
d="M374 1440v-596q97 139 292 139q171 0 280 -106.5t109 -274.5v-602h-210v533q0 120 -58.5 185.5t-164.5 65.5t-177 -67.5t-71 -185.5v-531h-210v1440h210zM241 -133l168 51q57 -173 201 -173t201 173l168 -51q-43 -147 -138.5 -223t-230.5 -76t-230.5 76t-138.5 223z" />
    <glyph glyph-name="uni1E32" unicode="&#x1e32;" horiz-adv-x="1424" 
d="M1108 0l-557 597h-135v-597h-226v1400h226v-589h138l526 589h292l-630 -683l673 -717h-307zM713 -123q62 0 105 -43t43 -105t-43 -104t-105 -42t-104 42t-42 104t42 105t104 43z" />
    <glyph glyph-name="uni1E33" unicode="&#x1e33;" horiz-adv-x="1085" 
d="M374 1440v-846h105l316 364h263l-401 -451l405 -507h-265l-319 404h-104v-404h-210v1440h210zM568 -123q62 0 105 -43t43 -105t-43 -104t-105 -42t-104 42t-42 104t42 105t104 43z" />
    <glyph glyph-name="uni1E36" unicode="&#x1e36;" horiz-adv-x="1229" 
d="M1191 214v-214h-1001v1400h226v-1186h775zM685 -123q62 0 105 -43t43 -105t-43 -104t-105 -42t-104 42t-42 104t42 105t104 43z" />
    <glyph glyph-name="uni1E37" unicode="&#x1e37;" horiz-adv-x="538" 
d="M374 1440v-1440h-210v1440h210zM269 -123q62 0 105 -43t43 -105t-43 -104t-105 -42t-104 42t-42 104t42 105t104 43z" />
    <glyph glyph-name="uni1E38" unicode="&#x1e38;" horiz-adv-x="1229" 
d="M1191 214v-214h-1001v1400h226v-1186h775zM685 -123q62 0 105 -43t43 -105t-43 -104t-105 -42t-104 42t-42 104t42 105t104 43zM-7 1580v170h620v-170h-620z" />
    <glyph glyph-name="uni1E39" unicode="&#x1e39;" horiz-adv-x="538" 
d="M374 1440v-1440h-210v1440h210zM-55 1606v170h620v-170h-620zM269 -123q62 0 105 -43t43 -105t-43 -104t-105 -42t-104 42t-42 104t42 105t104 43z" />
    <glyph glyph-name="uni1E3A" unicode="&#x1e3a;" horiz-adv-x="1229" 
d="M1191 214v-214h-1001v1400h226v-1186h775zM376 -350v170h620v-170h-620z" />
    <glyph glyph-name="uni1E3B" unicode="&#x1e3b;" horiz-adv-x="538" 
d="M374 1440v-1440h-210v1440h210zM-41 -350v170h620v-170h-620z" />
    <glyph glyph-name="uni1E40" unicode="&#x1e40;" horiz-adv-x="1888" 
d="M1698 1400v-1400h-226v1152l-409 -1015h-238l-409 1004v-1141h-226v1400h347l407 -1000l407 1000h347zM922 1827q66 0 111 -45t45 -111q0 -65 -45 -109t-111 -44q-65 0 -109 44t-44 109q0 66 44 111t109 45z" />
    <glyph glyph-name="uni1E41" unicode="&#x1e41;" horiz-adv-x="1890" 
d="M1347 983q171 0 280 -106.5t109 -274.5v-602h-210v533q0 120 -58.5 185.5t-164.5 65.5t-177 -67.5t-71 -185.5v-531h-210v533q0 120 -58.5 185.5t-164.5 65.5t-177 -67.5t-71 -185.5v-531h-210v958h208v-117q97 142 294 142q108 0 194.5 -45.5t136.5 -125.5
q104 171 350 171zM949 1437q62 0 105 -43t43 -105t-43 -104t-105 -42t-104 42t-42 104t42 105t104 43z" />
    <glyph glyph-name="uni1E42" unicode="&#x1e42;" horiz-adv-x="1888" 
d="M1698 1400v-1400h-226v1152l-409 -1015h-238l-409 1004v-1141h-226v1400h347l407 -1000l407 1000h347zM943 -123q62 0 105 -43t43 -105t-43 -104t-105 -42t-104 42t-42 104t42 105t104 43z" />
    <glyph glyph-name="uni1E43" unicode="&#x1e43;" horiz-adv-x="1890" 
d="M1347 983q171 0 280 -106.5t109 -274.5v-602h-210v533q0 120 -58.5 185.5t-164.5 65.5t-177 -67.5t-71 -185.5v-531h-210v533q0 120 -58.5 185.5t-164.5 65.5t-177 -67.5t-71 -185.5v-531h-210v958h208v-117q97 142 294 142q108 0 194.5 -45.5t136.5 -125.5
q104 171 350 171zM950 -123q62 0 105 -43t43 -105t-43 -104t-105 -42t-104 42t-42 104t42 105t104 43z" />
    <glyph glyph-name="uni1E44" unicode="&#x1e44;" horiz-adv-x="1592" 
d="M1402 1400v-1400h-204l-781 1013l-1 -1013h-226v1400h204l782 -1013v1013h226zM774 1827q66 0 111 -45t45 -111q0 -65 -45 -109t-111 -44q-65 0 -109 44t-44 109q0 66 44 111t109 45z" />
    <glyph glyph-name="uni1E45" unicode="&#x1e45;" horiz-adv-x="1209" 
d="M666 983q171 0 280 -106.5t109 -274.5v-602h-210v533q0 120 -58.5 185.5t-164.5 65.5t-177 -67.5t-71 -185.5v-531h-210v958h208v-117q97 142 294 142zM622 1437q62 0 105 -43t43 -105t-43 -104t-105 -42t-104 42t-42 104t42 105t104 43z" />
    <glyph glyph-name="uni1E46" unicode="&#x1e46;" horiz-adv-x="1592" 
d="M1402 1400v-1400h-204l-781 1013l-1 -1013h-226v1400h204l782 -1013v1013h226zM787 -123q62 0 105 -43t43 -105t-43 -104t-105 -42t-104 42t-42 104t42 105t104 43z" />
    <glyph glyph-name="uni1E47" unicode="&#x1e47;" horiz-adv-x="1209" 
d="M666 983q171 0 280 -106.5t109 -274.5v-602h-210v533q0 120 -58.5 185.5t-164.5 65.5t-177 -67.5t-71 -185.5v-531h-210v958h208v-117q97 142 294 142zM610 -123q62 0 105 -43t43 -105t-43 -104t-105 -42t-104 42t-42 104t42 105t104 43z" />
    <glyph glyph-name="uni1E48" unicode="&#x1e48;" horiz-adv-x="1592" 
d="M1402 1400v-1400h-204l-781 1013l-1 -1013h-226v1400h204l782 -1013v1013h226zM478 -350v170h620v-170h-620z" />
    <glyph glyph-name="uni1E49" unicode="&#x1e49;" horiz-adv-x="1209" 
d="M666 983q171 0 280 -106.5t109 -274.5v-602h-210v533q0 120 -58.5 185.5t-164.5 65.5t-177 -67.5t-71 -185.5v-531h-210v958h208v-117q97 142 294 142zM300 -350v170h620v-170h-620z" />
    <glyph glyph-name="uni1E58" unicode="&#x1e58;" horiz-adv-x="1372" 
d="M190 1400h576q241 0 368.5 -104.5t127.5 -300.5q0 -178 -126.5 -288t-340.5 -118l461 -589h-280l-446 589h-114v-589h-226v1400zM760 1188h-344v-394h344q136 0 201.5 49.5t65.5 151.5q0 99 -66.5 146t-200.5 47zM646 1827q66 0 111 -45t45 -111q0 -65 -45 -109t-111 -44
q-65 0 -109 44t-44 109q0 66 44 111t109 45z" />
    <glyph glyph-name="uni1E59" unicode="&#x1e59;" horiz-adv-x="859" 
d="M649 983q93 0 161 -27l-50 -207q-67 35 -159 35q-102 0 -165 -68.5t-63 -188.5v-527h-209v958h207v-108q92 133 278 133zM489 1437q62 0 105 -43t43 -105t-43 -104t-105 -42t-104 42t-42 104t42 105t104 43z" />
    <glyph glyph-name="uni1E5A" unicode="&#x1e5a;" horiz-adv-x="1372" 
d="M190 1400h576q241 0 368.5 -104.5t127.5 -300.5q0 -178 -126.5 -288t-340.5 -118l461 -589h-280l-446 589h-114v-589h-226v1400zM760 1188h-344v-394h344q136 0 201.5 49.5t65.5 151.5q0 99 -66.5 146t-200.5 47zM675 -123q62 0 105 -43t43 -105t-43 -104t-105 -42
t-104 42t-42 104t42 105t104 43z" />
    <glyph glyph-name="uni1E5B" unicode="&#x1e5b;" horiz-adv-x="859" 
d="M649 983q93 0 161 -27l-50 -207q-67 35 -159 35q-102 0 -165 -68.5t-63 -188.5v-527h-209v958h207v-108q92 133 278 133zM271 -123q62 0 105 -43t43 -105t-43 -104t-105 -42t-104 42t-42 104t42 105t104 43z" />
    <glyph glyph-name="uni1E5C" unicode="&#x1e5c;" horiz-adv-x="1372" 
d="M190 1400h576q241 0 368.5 -104.5t127.5 -300.5q0 -178 -126.5 -288t-340.5 -118l461 -589h-280l-446 589h-114v-589h-226v1400zM760 1188h-344v-394h344q136 0 201.5 49.5t65.5 151.5q0 99 -66.5 146t-200.5 47zM675 -123q62 0 105 -43t43 -105t-43 -104t-105 -42
t-104 42t-42 104t42 105t104 43zM358 1580v170h620v-170h-620z" />
    <glyph glyph-name="uni1E5D" unicode="&#x1e5d;" horiz-adv-x="859" 
d="M649 983q93 0 161 -27l-50 -207q-67 35 -159 35q-102 0 -165 -68.5t-63 -188.5v-527h-209v958h207v-108q92 133 278 133zM180 1165v170h620v-170h-620zM271 -123q62 0 105 -43t43 -105t-43 -104t-105 -42t-104 42t-42 104t42 105t104 43z" />
    <glyph glyph-name="uni1E5E" unicode="&#x1e5e;" horiz-adv-x="1372" 
d="M190 1400h576q241 0 368.5 -104.5t127.5 -300.5q0 -178 -126.5 -288t-340.5 -118l461 -589h-280l-446 589h-114v-589h-226v1400zM760 1188h-344v-394h344q136 0 201.5 49.5t65.5 151.5q0 99 -66.5 146t-200.5 47zM366 -350v170h620v-170h-620z" />
    <glyph glyph-name="uni1E5F" unicode="&#x1e5f;" horiz-adv-x="859" 
d="M649 983q93 0 161 -27l-50 -207q-67 35 -159 35q-102 0 -165 -68.5t-63 -188.5v-527h-209v958h207v-108q92 133 278 133zM-39 -350v170h620v-170h-620z" />
    <glyph glyph-name="uni1E62" unicode="&#x1e62;" horiz-adv-x="1352" 
d="M1222 1273l-115 -183q-188 120 -393 120q-141 0 -228 -57t-87 -152q0 -82 72 -124t219 -63l97 -13q451 -62 451 -385q0 -138 -78 -240t-203.5 -151.5t-279.5 -49.5q-150 0 -304.5 49t-258.5 139l123 180q73 -67 196 -110.5t243 -43.5q141 0 234 56.5t93 150.5
q0 80 -77.5 123.5t-237.5 65.5l-109 15q-66 9 -123.5 26t-112.5 48t-93.5 72.5t-62 103.5t-23.5 137q0 136 75.5 237t199 150.5t277.5 49.5q280 0 506 -151zM692 -123q62 0 105 -43t43 -105t-43 -104t-105 -42t-104 42t-42 104t42 105t104 43z" />
    <glyph glyph-name="uni1E63" unicode="&#x1e63;" horiz-adv-x="1011" 
d="M906 881l-90 -163q-51 32 -132.5 57t-163.5 25q-84 0 -132.5 -31t-48.5 -83q0 -24 11.5 -41.5t35 -28.5t49 -17t62.5 -12l99 -15q333 -48 333 -283q0 -141 -116 -227t-320 -86q-245 0 -411 123l97 157q128 -98 316 -98q106 0 162 31t56 86q0 83 -166 106l-100 13
q-159 22 -242 93.5t-83 187.5q0 142 106.5 224.5t289.5 82.5q232 0 388 -101zM526 -123q62 0 105 -43t43 -105t-43 -104t-105 -42t-104 42t-42 104t42 105t104 43z" />
    <glyph glyph-name="uni1E6C" unicode="&#x1e6c;" horiz-adv-x="1208" 
d="M1170 1400v-214h-453v-1186h-226v1186h-453v214h1132zM603 -123q62 0 105 -43t43 -105t-43 -104t-105 -42t-104 42t-42 104t42 105t104 43z" />
    <glyph glyph-name="uni1E6D" unicode="&#x1e6d;" horiz-adv-x="908" 
d="M817 958v-190h-367v-417q0 -92 42 -135.5t110 -43.5q90 0 193 65l83 -167q-141 -95 -294 -95q-166 0 -255 92t-89 280v421h-191v190h191v290h210v-290h367zM548 -123q62 0 105 -43t43 -105t-43 -104t-105 -42t-104 42t-42 104t42 105t104 43z" />
    <glyph glyph-name="uni1E6E" unicode="&#x1e6e;" horiz-adv-x="1208" 
d="M1170 1400v-214h-453v-1186h-226v1186h-453v214h1132zM294 -350v170h620v-170h-620z" />
    <glyph glyph-name="uni1E6F" unicode="&#x1e6f;" horiz-adv-x="908" 
d="M817 958v-190h-367v-417q0 -92 42 -135.5t110 -43.5q90 0 193 65l83 -167q-141 -95 -294 -95q-166 0 -255 92t-89 280v421h-191v190h191v290h210v-290h367zM238 -350v170h620v-170h-620z" />
    <glyph glyph-name="Wgrave" unicode="&#x1e80;" horiz-adv-x="2180" 
d="M2132 1400l-427 -1400h-280l-335 1093l-335 -1093h-280l-427 1400h237l333 -1139l346 1139h257l345 -1139l334 1139h232zM1027 1525l-251 300h266l191 -300h-206z" />
    <glyph glyph-name="wgrave" unicode="&#x1e81;" horiz-adv-x="1674" 
d="M956 958l239 -732l226 732h218l-317 -958h-250l-237 722l-237 -722h-246l-317 958h223l225 -728l236 728h237zM769 1110l-251 300h266l191 -300h-206z" />
    <glyph glyph-name="Wacute" unicode="&#x1e82;" horiz-adv-x="2180" 
d="M2132 1400l-427 -1400h-280l-335 1093l-335 -1093h-280l-427 1400h237l333 -1139l346 1139h257l345 -1139l334 1139h232zM1138 1525h-206l191 300h266z" />
    <glyph glyph-name="wacute" unicode="&#x1e83;" horiz-adv-x="1674" 
d="M956 958l239 -732l226 732h218l-317 -958h-250l-237 722l-237 -722h-246l-317 958h223l225 -728l236 728h237zM892 1110h-206l191 300h266z" />
    <glyph glyph-name="Wdieresis" unicode="&#x1e84;" horiz-adv-x="2180" 
d="M2132 1400l-427 -1400h-280l-335 1093l-335 -1093h-280l-427 1400h237l333 -1139l346 1139h257l345 -1139l334 1139h232zM889 1814q62 0 105 -43t43 -105t-43 -104t-105 -42t-104 42t-42 104t42 105t104 43zM1289 1814q62 0 105 -43t43 -105t-43 -104t-105 -42t-104 42
t-42 104t42 105t104 43z" />
    <glyph glyph-name="wdieresis" unicode="&#x1e85;" horiz-adv-x="1674" 
d="M956 958l239 -732l226 732h218l-317 -958h-250l-237 722l-237 -722h-246l-317 958h223l225 -728l236 728h237zM636 1399q62 0 105 -43t43 -105t-43 -104t-105 -42t-104 42t-42 104t42 105t104 43zM1036 1399q62 0 105 -43t43 -105t-43 -104t-105 -42t-104 42t-42 104
t42 105t104 43z" />
    <glyph glyph-name="uni1E88" unicode="&#x1e88;" horiz-adv-x="2180" 
d="M2132 1400l-427 -1400h-280l-335 1093l-335 -1093h-280l-427 1400h237l333 -1139l346 1139h257l345 -1139l334 1139h232zM1089 -123q62 0 105 -43t43 -105t-43 -104t-105 -42t-104 42t-42 104t42 105t104 43z" />
    <glyph glyph-name="uni1E89" unicode="&#x1e89;" horiz-adv-x="1674" 
d="M956 958l239 -732l226 732h218l-317 -958h-250l-237 722l-237 -722h-246l-317 958h223l225 -728l236 728h237zM835 -123q62 0 105 -43t43 -105t-43 -104t-105 -42t-104 42t-42 104t42 105t104 43z" />
    <glyph glyph-name="uni1E92" unicode="&#x1e92;" horiz-adv-x="1292" 
d="M1178 1400v-175l-764 -1011h764v-214h-1064v175l764 1011h-762v214h1062zM645 -123q62 0 105 -43t43 -105t-43 -104t-105 -42t-104 42t-42 104t42 105t104 43z" />
    <glyph glyph-name="uni1E93" unicode="&#x1e93;" horiz-adv-x="1041" 
d="M916 958v-152l-523 -616h533v-190h-811v152l532 616h-516v190h785zM521 -123q62 0 105 -43t43 -105t-43 -104t-105 -42t-104 42t-42 104t42 105t104 43z" />
    <glyph glyph-name="uni1E94" unicode="&#x1e94;" horiz-adv-x="1292" 
d="M1178 1400v-175l-764 -1011h764v-214h-1064v175l764 1011h-762v214h1062zM336 -350v170h620v-170h-620z" />
    <glyph glyph-name="uni1E95" unicode="&#x1e95;" horiz-adv-x="1041" 
d="M916 958v-152l-523 -616h533v-190h-811v152l532 616h-516v190h785zM211 -350v170h620v-170h-620z" />
    <glyph glyph-name="uni1E96" unicode="&#x1e96;" horiz-adv-x="1209" 
d="M374 1440v-596q97 139 292 139q171 0 280 -106.5t109 -274.5v-602h-210v533q0 120 -58.5 185.5t-164.5 65.5t-177 -67.5t-71 -185.5v-531h-210v1440h210zM300 -350v170h620v-170h-620z" />
    <glyph glyph-name="uni1E9E" unicode="&#x1e9e;" horiz-adv-x="1462" 
d="M661 600v168l329 372q-84 68 -253 68q-161 0 -250 -83t-89 -219v-906h-227v919q0 80 21 153.5t66 138t110.5 112t161 75t211.5 27.5q191 0 326 -63.5t233 -188.5l-348 -382q176 -30 286 -133.5t110 -263.5q0 -125 -72 -221.5t-191 -146.5t-263 -50q-162 0 -274 27l53 215
q89 -25 186 -25q155 0 238.5 52t83.5 149q0 101 -83.5 153.5t-238.5 52.5h-126z" />
    <glyph glyph-name="Ygrave" unicode="&#x1ef2;" horiz-adv-x="1328" 
d="M1319 1400l-540 -832v-568h-226v572l-544 828h270l388 -627l389 627h263zM604 1525l-251 300h266l191 -300h-206z" />
    <glyph glyph-name="ygrave" unicode="&#x1ef3;" horiz-adv-x="1098" 
d="M1086 958l-756 -1364h-232l343 603l-425 761h235l308 -550l297 550h230zM486 1110l-251 300h266l191 -300h-206z" />
    <glyph glyph-name="uni1EF4" unicode="&#x1ef4;" horiz-adv-x="1328" 
d="M1319 1400l-540 -832v-568h-226v572l-544 828h270l388 -627l389 627h263zM665 -123q62 0 105 -43t43 -105t-43 -104t-105 -42t-104 42t-42 104t42 105t104 43z" />
    <glyph glyph-name="uni1EF5" unicode="&#x1ef5;" horiz-adv-x="1098" 
d="M1086 958l-756 -1364h-232l343 603l-425 761h235l308 -550l297 550h230zM812 -123q62 0 105 -43t43 -105t-43 -104t-105 -42t-104 42t-42 104t42 105t104 43z" />
    <glyph glyph-name="uni2007" unicode="&#x2007;" horiz-adv-x="1423" 
 />
    <glyph glyph-name="uni2008" unicode="&#x2008;" horiz-adv-x="529" 
 />
    <glyph glyph-name="uni2009" unicode="&#x2009;" horiz-adv-x="180" 
 />
    <glyph glyph-name="uni200B" unicode="&#x200b;" horiz-adv-x="0" 
 />
    <glyph glyph-name="uni2010" unicode="&#x2010;" horiz-adv-x="846" 
d="M713 628v-190h-580v190h580z" />
    <glyph glyph-name="uni2011" unicode="&#x2011;" horiz-adv-x="846" 
d="M713 628v-190h-580v190h580z" />
    <glyph glyph-name="figuredash" unicode="&#x2012;" horiz-adv-x="1200" 
d="M1075 628v-190h-950v190h950z" />
    <glyph glyph-name="endash" unicode="&#x2013;" horiz-adv-x="1178" 
d="M1064 628v-190h-950v190h950z" />
    <glyph glyph-name="emdash" unicode="&#x2014;" horiz-adv-x="1614" 
d="M1557 628v-190h-1500v190h1500z" />
    <glyph glyph-name="quoteleft" unicode="&#x2018;" horiz-adv-x="505" 
d="M350 895h-245l120 545h180z" />
    <glyph glyph-name="quoteright" unicode="&#x2019;" horiz-adv-x="505" 
d="M155 1440h245l-120 -545h-180z" />
    <glyph glyph-name="quotesinglbase" unicode="&#x201a;" horiz-adv-x="505" 
d="M155 271h245l-120 -545h-180z" />
    <glyph glyph-name="quotedblleft" unicode="&#x201c;" horiz-adv-x="895" 
d="M350 895h-245l120 545h180zM740 895h-245l120 545h180z" />
    <glyph glyph-name="quotedblright" unicode="&#x201d;" horiz-adv-x="895" 
d="M545 1440h245l-120 -545h-180zM155 1440h245l-120 -545h-180z" />
    <glyph glyph-name="quotedblbase" unicode="&#x201e;" horiz-adv-x="895" 
d="M545 271h245l-120 -545h-180zM155 271h245l-120 -545h-180z" />
    <glyph glyph-name="dagger" unicode="&#x2020;" horiz-adv-x="789" 
d="M481 627h-173v431h-213v169h213v213h173v-213h213v-169h-213v-431z" />
    <glyph glyph-name="daggerdbl" unicode="&#x2021;" horiz-adv-x="789" 
d="M481 1440v-173h213v-169h-213v-129h213v-169h-213v-173h-173v173h-213v169h213v129h-213v169h213v173h173z" />
    <glyph glyph-name="bullet" unicode="&#x2022;" horiz-adv-x="846" 
d="M423 821q119 0 203.5 -84t84.5 -204t-84.5 -204t-203.5 -84q-120 0 -204 84t-84 204t84 204t204 84z" />
    <glyph glyph-name="uni2023" unicode="&#x2023;" horiz-adv-x="1055" 
d="M940 533l-717 -415v830z" />
    <glyph glyph-name="ellipsis" unicode="&#x2026;" horiz-adv-x="1629" 
d="M265 325q70 0 122 -52t52 -122q0 -71 -52 -123.5t-122 -52.5t-122.5 53t-52.5 123t52.5 122t122.5 52zM815 325q70 0 122 -52t52 -122q0 -71 -52 -123.5t-122 -52.5t-122.5 53t-52.5 123t52.5 122t122.5 52zM1365 325q70 0 122 -52t52 -122q0 -71 -52 -123.5t-122 -52.5
t-122.5 53t-52.5 123t52.5 122t122.5 52z" />
    <glyph glyph-name="perthousand" unicode="&#x2030;" horiz-adv-x="2834" 
d="M477 1425q167 0 278 -108t111 -270q0 -163 -111 -271t-278 -108q-166 0 -276 108t-110 271q0 161 110.5 269.5t275.5 108.5zM477 1240q-82 0 -135.5 -54t-53.5 -139q0 -86 53.5 -140t135.5 -54q84 0 138 54t54 140q0 85 -54 139t-138 54zM1542 1400l-883 -1400h-219
l883 1400h219zM1503 732q166 0 277.5 -109.5t111.5 -268.5q0 -163 -111 -271t-278 -108q-166 0 -276 108t-110 271q0 161 110.5 269.5t275.5 108.5zM1503 547q-82 0 -135.5 -54t-53.5 -139q0 -86 53.5 -140t135.5 -54q84 0 138 54t54 140q0 85 -54 139t-138 54zM2354 732
q167 0 278 -108t111 -270q0 -163 -111 -271t-278 -108q-166 0 -276 108t-110 271q0 161 110.5 269.5t275.5 108.5zM2354 547q-82 0 -135.5 -54t-53.5 -139q0 -86 53.5 -140t135.5 -54q84 0 138 54t54 140q0 85 -54 139t-138 54z" />
    <glyph glyph-name="minute" unicode="&#x2032;" horiz-adv-x="545" 
d="M240 1400h200l-140 -659h-200z" />
    <glyph glyph-name="second" unicode="&#x2033;" horiz-adv-x="885" 
d="M580 1400h200l-140 -659h-200zM240 1400h200l-140 -659h-200z" />
    <glyph glyph-name="uni2034" unicode="&#x2034;" horiz-adv-x="1185" 
d="M560 1400h200l-140 -659h-200zM880 1400h200l-140 -659h-200zM240 1400h200l-140 -659h-200z" />
    <glyph glyph-name="guilsinglleft" unicode="&#x2039;" horiz-adv-x="637" 
d="M330 533l189 -379h-225l-189 379l189 379h225z" />
    <glyph glyph-name="guilsinglright" unicode="&#x203a;" horiz-adv-x="637" 
d="M307 533l-189 379h225l189 -379l-189 -379h-225z" />
    <glyph glyph-name="fraction" unicode="&#x2044;" horiz-adv-x="462" 
d="M777 1400l-883 -1400h-209l883 1400h209z" />
    <glyph glyph-name="uni2070" unicode="&#x2070;" horiz-adv-x="909" 
d="M454 1414q155 0 257.5 -114t102.5 -306t-102.5 -306t-257.5 -114q-154 0 -256.5 114t-102.5 306t102.5 306t256.5 114zM454 1249q-78 0 -128.5 -67t-50.5 -188t50.5 -188t128.5 -67q79 0 129.5 67t50.5 188t-50.5 188t-129.5 67z" />
    <glyph glyph-name="uni2071" unicode="&#x2071;" horiz-adv-x="396" 
d="M284 1264v-676h-172v676h172zM197 1602q48 0 81 -32.5t33 -80.5t-33 -80t-81 -32q-47 0 -79.5 32t-32.5 80t32.5 80.5t79.5 32.5z" />
    <glyph glyph-name="uni2074" unicode="&#x2074;" horiz-adv-x="724" 
d="M576 1107v-218h110v-158h-110v-143h-173v143h-365v124l281 544h191l-268 -510h161v218h173z" />
    <glyph glyph-name="uni2075" unicode="&#x2075;" horiz-adv-x="749" 
d="M616 1400v-159h-330l-3 -145h79q144 0 223 -67.5t79 -176.5q0 -128 -87 -203.5t-220 -75.5q-183 0 -295 117l102 115q36 -32 87.5 -52.5t104.5 -20.5q62 0 95.5 29.5t33.5 77.5q0 103 -159 103h-200l10 458h480z" />
    <glyph glyph-name="uni2076" unicode="&#x2076;" horiz-adv-x="749" 
d="M570 1400l-202 -278q9 1 29 1q129 0 209.5 -77.5t80.5 -192.5q0 -120 -90 -199.5t-225 -79.5t-225 78t-90 197q0 103 80 221l225 330h208zM372 977q-58 0 -96.5 -35.5t-38.5 -89.5q0 -55 38.5 -90.5t96.5 -35.5t96.5 35.5t38.5 90.5q0 54 -38.5 89.5t-96.5 35.5z" />
    <glyph glyph-name="uni2077" unicode="&#x2077;" horiz-adv-x="694" 
d="M646 1400v-135l-335 -677h-205l336 651h-385v161h589z" />
    <glyph glyph-name="uni2078" unicode="&#x2078;" horiz-adv-x="814" 
d="M407 1414q131 0 218.5 -63t87.5 -170q0 -126 -126 -183q146 -58 146 -189q0 -108 -93.5 -171.5t-232.5 -63.5q-140 0 -233 63.5t-93 171.5q0 132 145 189q-125 56 -125 183q0 107 87.5 170t218.5 63zM407 929q-60 0 -99.5 -27t-39.5 -75q0 -50 39.5 -78t99.5 -28
q59 0 99 28t40 78q0 48 -40 75t-99 27zM407 1264q-53 0 -87.5 -26t-34.5 -73q0 -45 34.5 -70.5t87.5 -25.5t87.5 25.5t34.5 70.5q0 47 -34.5 73t-87.5 26z" />
    <glyph glyph-name="uni2079" unicode="&#x2079;" horiz-adv-x="749" 
d="M179 588l201 278q-9 -1 -28 -1q-129 0 -209.5 77.5t-80.5 192.5q0 120 90 199.5t225 79.5t225 -78t90 -197q0 -103 -80 -221l-225 -330h-208zM377 1011q58 0 96 35t38 90t-38 90.5t-96 35.5t-96.5 -35.5t-38.5 -90.5q0 -54 38.5 -89.5t96.5 -35.5z" />
    <glyph glyph-name="uni207F" unicode="&#x207f;" horiz-adv-x="852" 
d="M481 1282q117 0 191.5 -74t74.5 -191v-429h-173v373q0 76 -36.5 117t-102.5 41q-65 0 -108 -41.5t-43 -117.5v-372h-173v676h169v-80q66 98 201 98z" />
    <glyph glyph-name="uni2080" unicode="&#x2080;" horiz-adv-x="909" 
d="M454 440q155 0 257.5 -114t102.5 -306t-102.5 -306t-257.5 -114q-154 0 -256.5 114t-102.5 306t102.5 306t256.5 114zM454 275q-78 0 -128.5 -67t-50.5 -188t50.5 -188t128.5 -67q79 0 129.5 67t50.5 188t-50.5 188t-129.5 67z" />
    <glyph glyph-name="uni2081" unicode="&#x2081;" horiz-adv-x="565" 
d="M413 439v-825h-173v585l-192 -74v171z" />
    <glyph glyph-name="uni2082" unicode="&#x2082;" horiz-adv-x="721" 
d="M174 191l-112 108q113 141 290 141q130 0 206.5 -72t76.5 -190q0 -69 -30.5 -125t-92.5 -117l-164 -161h307v-161h-554v135l290 285q65 65 65 130q0 49 -33 80t-86 31q-51 0 -88.5 -22t-74.5 -62z" />
    <glyph glyph-name="uni2083" unicode="&#x2083;" horiz-adv-x="730" 
d="M333 440q133 0 215.5 -64t82.5 -169q0 -128 -122 -184q66 -26 103 -74t37 -111q0 -114 -90.5 -176t-219.5 -62q-190 0 -291 118l100 114q74 -77 183 -77q61 0 99.5 25t38.5 72q0 45 -44 70t-110 25h-95v153h96q59 0 97.5 24.5t38.5 68.5t-35 68t-92 24q-101 0 -168 -80
l-104 111q100 124 280 124z" />
    <glyph glyph-name="uni2084" unicode="&#x2084;" horiz-adv-x="724" 
d="M576 133v-218h110v-158h-110v-143h-173v143h-365v124l281 544h191l-268 -510h161v218h173z" />
    <glyph glyph-name="uni2085" unicode="&#x2085;" horiz-adv-x="749" 
d="M616 426v-159h-330l-3 -145h79q144 0 223 -67.5t79 -176.5q0 -128 -87 -203.5t-220 -75.5q-183 0 -295 117l102 115q36 -32 87.5 -52.5t104.5 -20.5q62 0 95.5 29.5t33.5 77.5q0 103 -159 103h-200l10 458h480z" />
    <glyph glyph-name="uni2086" unicode="&#x2086;" horiz-adv-x="749" 
d="M570 426l-202 -278q9 1 29 1q129 0 209.5 -77.5t80.5 -192.5q0 -120 -90 -199.5t-225 -79.5t-225 78t-90 197q0 103 80 221l225 330h208zM372 3q-58 0 -96.5 -35.5t-38.5 -89.5q0 -55 38.5 -90.5t96.5 -35.5t96.5 35.5t38.5 90.5q0 54 -38.5 89.5t-96.5 35.5z" />
    <glyph glyph-name="uni2087" unicode="&#x2087;" horiz-adv-x="694" 
d="M646 426v-135l-335 -677h-205l336 651h-385v161h589z" />
    <glyph glyph-name="uni2088" unicode="&#x2088;" horiz-adv-x="814" 
d="M407 440q131 0 218.5 -63t87.5 -170q0 -126 -126 -183q146 -58 146 -189q0 -108 -93.5 -171.5t-232.5 -63.5q-140 0 -233 63.5t-93 171.5q0 132 145 189q-125 56 -125 183q0 107 87.5 170t218.5 63zM407 -45q-60 0 -99.5 -27t-39.5 -75q0 -50 39.5 -78t99.5 -28
q59 0 99 28t40 78q0 48 -40 75t-99 27zM407 290q-53 0 -87.5 -26t-34.5 -73q0 -45 34.5 -70.5t87.5 -25.5t87.5 25.5t34.5 70.5q0 47 -34.5 73t-87.5 26z" />
    <glyph glyph-name="uni2089" unicode="&#x2089;" horiz-adv-x="749" 
d="M179 -386l201 278q-9 -1 -28 -1q-129 0 -209.5 77.5t-80.5 192.5q0 120 90 199.5t225 79.5t225 -78t90 -197q0 -103 -80 -221l-225 -330h-208zM377 37q58 0 96 35t38 90t-38 90.5t-96 35.5t-96.5 -35.5t-38.5 -90.5q0 -54 38.5 -89.5t96.5 -35.5z" />
    <glyph glyph-name="Euro" unicode="&#x20ac;" horiz-adv-x="1400" 
d="M1041 622v-173h-554q47 -129 142.5 -200.5t226.5 -71.5q193 0 330 170l138 -146q-183 -225 -468 -225q-225 0 -383 126.5t-217 346.5h-183v173h155q-3 38 -3 78q0 39 3 78h-155v173h183q59 220 217 346.5t383 126.5q288 0 473 -218l-145 -153q-135 170 -329 170
q-131 0 -226.5 -71.5t-141.5 -200.5h554v-173h-591q-3 -38 -3 -78t3 -78h591z" />
    <glyph glyph-name="uni20BA" unicode="&#x20ba;" horiz-adv-x="1400" 
d="M1009 831v-185l-465 -210v-228h190q122 0 213.5 60.5t165.5 198.5l186 -104q-109 -194 -246.5 -278.5t-335.5 -84.5h-390v338l-185 -83v185l185 83v151l-185 -83v185l185 83v541h217v-443l465 211v-186l-465 -210v-151z" />
    <glyph glyph-name="uni2100" unicode="&#x2100;" horiz-adv-x="2000" 
d="M521 1425q146 0 228.5 -76t82.5 -218v-400h-169v70q-83 -88 -210 -88q-111 0 -174.5 60.5t-63.5 158.5q0 95 75 150.5t203 55.5h165q-12 134 -157 134q-95 0 -185 -65l-68 133q115 85 273 85zM493 855q96 0 168 83v80h-143q-63 0 -92.5 -23.5t-29.5 -58.5q0 -33 24.5 -57
t72.5 -24zM1586 1400l-883 -1400h-209l883 1400h209zM1520 687q170 0 266 -122l-122 -107q-65 68 -148 68q-76 0 -127 -54.5t-51 -140.5t50.5 -140t126.5 -54q86 0 152 69l119 -109q-99 -122 -266 -122q-160 0 -259.5 100.5t-99.5 255.5t99.5 255.5t259.5 100.5z" />
    <glyph glyph-name="uni2101" unicode="&#x2101;" horiz-adv-x="2000" 
d="M529 1425q146 0 228.5 -76t82.5 -218v-400h-169v70q-83 -88 -210 -88q-111 0 -174.5 60.5t-63.5 158.5q0 95 75 150.5t203 55.5h165q-12 134 -157 134q-95 0 -185 -65l-68 133q115 85 273 85zM501 855q96 0 168 83v80h-143q-63 0 -92.5 -23.5t-29.5 -58.5q0 -33 24.5 -57
t72.5 -24zM1594 1400l-883 -1400h-209l883 1400h209zM1752 619l-62 -134q-110 56 -214 56q-53 0 -81.5 -18t-28.5 -49q0 -28 27.5 -40.5t82.5 -20.5l63 -9q230 -35 230 -202q0 -104 -82.5 -165.5t-227.5 -61.5q-185 0 -298 81l71 131q97 -67 229 -67t132 69q0 49 -114 65
l-59 8q-233 33 -233 203q0 103 76 162t209 59q151 0 280 -67z" />
    <glyph glyph-name="uni2105" unicode="&#x2105;" horiz-adv-x="2000" 
d="M531 1425q170 0 266 -122l-122 -107q-65 68 -148 68q-76 0 -127 -54.5t-51 -140.5t50.5 -140t126.5 -54q86 0 152 69l119 -109q-99 -122 -266 -122q-160 0 -259.5 100.5t-99.5 255.5t99.5 255.5t259.5 100.5zM1533 1400l-883 -1400h-209l883 1400h209zM1464 687
q157 0 261 -101.5t104 -254.5t-104 -254.5t-261 -101.5t-261 101.5t-104 254.5t104 254.5t261 101.5zM1464 526q-82 0 -135 -54.5t-53 -140.5q0 -85 53.5 -139.5t134.5 -54.5t135 54.5t54 139.5t-54 140t-135 55z" />
    <glyph glyph-name="uni2106" unicode="&#x2106;" horiz-adv-x="2000" 
d="M527 1425q170 0 266 -122l-122 -107q-65 68 -148 68q-76 0 -127 -54.5t-51 -140.5t50.5 -140t126.5 -54q86 0 152 69l119 -109q-99 -122 -266 -122q-160 0 -259.5 100.5t-99.5 255.5t99.5 255.5t259.5 100.5zM1529 1400l-883 -1400h-209l883 1400h209zM1833 669v-388
q0 -151 -91.5 -228.5t-226.5 -77.5t-226.5 77.5t-91.5 228.5v388h173v-373q0 -81 39.5 -120t105.5 -39t106 39t40 120v373h172z" />
    <glyph glyph-name="uni2113" unicode="&#x2113;" horiz-adv-x="1057" 
d="M195 365l-77 180q71 26 154 67l2 464q1 169 93.5 279t246.5 110q143 0 234 -91.5t91 -233.5q0 -186 -123.5 -347t-333.5 -287v-156q0 -92 42 -135.5t110 -43.5q90 0 193 65l83 -167q-141 -95 -294 -95q-166 0 -255 92t-89 280v51q-62 -26 -77 -32zM484 1076l-1 -335
q241 186 241 399q0 61 -28.5 95t-81.5 34q-57 0 -93.5 -51t-36.5 -142z" />
    <glyph glyph-name="uni2116" unicode="&#x2116;" horiz-adv-x="2466" 
d="M2376 586v-190h-687v190h687zM2032 1418q157 0 261 -101.5t104 -254.5t-104 -254.5t-261 -101.5q-156 0 -260 102t-104 254t104 254t260 102zM2032 1259q-82 0 -136 -55.5t-54 -141.5t54 -141.5t136 -55.5t137 55.5t55 141.5t-55 141.5t-137 55.5zM1402 1400v-1400h-204
l-781 1013l-1 -1013h-226v1400h204l782 -1013v1013h226z" />
    <glyph glyph-name="uni2117" unicode="&#x2117;" horiz-adv-x="1912" 
d="M956 1522q167 0 318.5 -64.5t261 -173t174.5 -258.5t65 -315t-65 -315.5t-174.5 -259.5t-261 -173.5t-318.5 -64.5t-318.5 64.5t-261 173.5t-174.5 259.5t-65 315.5t65 315t174.5 258.5t261 173t318.5 64.5zM956 1337q-128 0 -244 -49.5t-200.5 -133t-134 -199.5
t-49.5 -244q0 -171 84 -315.5t228.5 -228.5t315.5 -84t315.5 84t228.5 228.5t84 315.5q0 128 -49.5 244t-134 199.5t-200.5 133t-244 49.5zM647 1130h371q169 0 260.5 -73.5t91.5 -200.5q0 -125 -91 -198t-260 -73h-185v-311h-187v856zM1014 961h-180v-210h180
q164 0 164 105t-164 105z" />
    <glyph glyph-name="uni2120" unicode="&#x2120;" horiz-adv-x="1624" 
d="M662 1351l-67 -123q-104 50 -192 50q-56 0 -91 -16.5t-35 -47.5q0 -16 10 -27t32.5 -18t42.5 -10.5t56 -8.5l35 -4q103 -11 165 -56.5t62 -122.5q0 -75 -43 -126.5t-107 -73.5t-144 -22q-179 0 -291 75l74 123q99 -62 218 -62q57 0 93.5 16.5t36.5 48.5q0 29 -34 43
t-109 21l-41 4q-102 11 -161 57.5t-59 128.5q0 97 80.5 155t205.5 58q142 0 263 -62zM1548 760h-150v444l-144 -383h-159l-144 382v-443h-150v640h215l159 -410l158 410h215v-640z" />
    <glyph glyph-name="trademark" unicode="&#x2122;" horiz-adv-x="1580" 
d="M1504 760h-150v444l-144 -383h-159l-144 382v-443h-150v640h215l159 -410l158 410h215v-640zM429 760h-150v502h-203v138h556v-138h-203v-502z" />
    <glyph glyph-name="Omega" unicode="&#x2126;" horiz-adv-x="1722" 
d="M76 214h269q-104 92 -160.5 216.5t-56.5 269.5q0 207 93 372.5t260.5 259.5t379.5 94t379.5 -94t260.5 -259.5t93 -372.5q0 -145 -56.5 -269.5t-160.5 -216.5h269v-214h-626v184q153 49 245 184t92 322q0 229 -140 374t-356 145t-356 -145t-140 -374q0 -187 92 -322
t245 -184v-184h-626v214z" />
    <glyph glyph-name="estimated" unicode="&#x212e;" horiz-adv-x="2000" 
d="M475 660v-329q0 -83 25.5 -141t87.5 -100q178 -120 412 -120q188 0 346 81.5t255 226.5l64 -49q-109 -160 -284 -249.5t-381 -89.5q-221 0 -403.5 100t-291.5 286.5t-109 423.5t109 423.5t291.5 286.5t403.5 100t403.5 -100t291.5 -286.5t109 -423.5q0 -27 -1 -40h-1328z
M475 740h1064v316q0 82 -24 140t-84 101q-183 133 -431 133q-234 0 -412 -120q-62 -42 -87.5 -100t-25.5 -141v-329z" />
    <glyph glyph-name="uni214D" unicode="&#x214d;" horiz-adv-x="2000" 
d="M633 1400l265 -728h-184l-48 144h-276l-48 -144h-181l265 728h207zM1819 671l-74 -144q-104 57 -206 57q-56 0 -91 -17.5t-35 -49.5q0 -17 10.5 -28t37 -19t45 -11.5t61.5 -10.5l33 -5q239 -36 239 -206q0 -64 -26.5 -113t-71.5 -78.5t-100.5 -44t-117.5 -14.5
q-194 0 -315 85l83 142q112 -70 234 -70q57 0 92 17.5t35 51.5q0 31 -33.5 44.5t-115.5 24.5l-39 5q-237 30 -237 214q0 108 85 174t219 66q89 0 154.5 -17.5t133.5 -52.5zM528 1232l-86 -259h172zM1626 1400l-883 -1400h-209l883 1400h209z" />
    <glyph glyph-name="uni2150" unicode="&#x2150;" horiz-adv-x="1781" 
d="M1372 1400l-883 -1400h-209l883 1400h209zM1733 812v-135l-335 -677h-205l336 651h-385v161h589zM413 1413v-825h-173v585l-192 -74v171z" />
    <glyph glyph-name="uni2151" unicode="&#x2151;" horiz-adv-x="1806" 
d="M1372 1400l-883 -1400h-209l883 1400h209zM1236 0l201 278q-9 -1 -28 -1q-129 0 -209.5 77.5t-80.5 192.5q0 120 90 199.5t225 79.5t225 -78t90 -197q0 -103 -80 -221l-225 -330h-208zM1434 423q58 0 96 35t38 90t-38 90.5t-96 35.5t-96.5 -35.5t-38.5 -90.5
q0 -54 38.5 -89.5t96.5 -35.5zM413 1413v-825h-173v585l-192 -74v171z" />
    <glyph glyph-name="uni2152" unicode="&#x2152;" horiz-adv-x="2551" 
d="M1372 1400l-883 -1400h-209l883 1400h209zM1490 825v-825h-173v585l-192 -74v171zM2096 826q155 0 257.5 -114t102.5 -306t-102.5 -306t-257.5 -114q-154 0 -256.5 114t-102.5 306t102.5 306t256.5 114zM2096 661q-78 0 -128.5 -67t-50.5 -188t50.5 -188t128.5 -67
q79 0 129.5 67t50.5 188t-50.5 188t-129.5 67zM413 1413v-825h-173v585l-192 -74v171z" />
    <glyph glyph-name="onethird" unicode="&#x2153;" horiz-adv-x="1787" 
d="M1372 1400l-883 -1400h-209l883 1400h209zM1390 826q133 0 215.5 -64t82.5 -169q0 -128 -122 -184q66 -26 103 -74t37 -111q0 -114 -90.5 -176t-219.5 -62q-190 0 -291 118l100 114q74 -77 183 -77q61 0 99.5 25t38.5 72q0 45 -44 70t-110 25h-95v153h96q59 0 97.5 24.5
t38.5 68.5t-35 68t-92 24q-101 0 -168 -80l-104 111q100 124 280 124zM413 1413v-825h-173v585l-192 -74v171z" />
    <glyph glyph-name="twothirds" unicode="&#x2154;" horiz-adv-x="1943" 
d="M1528 1400l-883 -1400h-209l883 1400h209zM1546 826q133 0 215.5 -64t82.5 -169q0 -128 -122 -184q66 -26 103 -74t37 -111q0 -114 -90.5 -176t-219.5 -62q-190 0 -291 118l100 114q74 -77 183 -77q61 0 99.5 25t38.5 72q0 45 -44 70t-110 25h-95v153h96q59 0 97.5 24.5
t38.5 68.5t-35 68t-92 24q-101 0 -168 -80l-104 111q100 124 280 124zM174 1165l-112 108q113 141 290 141q130 0 206.5 -72t76.5 -190q0 -69 -30.5 -125t-92.5 -117l-164 -161h307v-161h-554v135l290 285q65 65 65 130q0 49 -33 80t-86 31q-51 0 -88.5 -22t-74.5 -62z" />
    <glyph glyph-name="uni2155" unicode="&#x2155;" horiz-adv-x="1806" 
d="M1372 1400l-883 -1400h-209l883 1400h209zM1673 812v-159h-330l-3 -145h79q144 0 223 -67.5t79 -176.5q0 -128 -87 -203.5t-220 -75.5q-183 0 -295 117l102 115q36 -32 87.5 -52.5t104.5 -20.5q62 0 95.5 29.5t33.5 77.5q0 103 -159 103h-200l10 458h480zM413 1413v-825
h-173v585l-192 -74v171z" />
    <glyph glyph-name="uni2156" unicode="&#x2156;" horiz-adv-x="1962" 
d="M1528 1400l-883 -1400h-209l883 1400h209zM1829 812v-159h-330l-3 -145h79q144 0 223 -67.5t79 -176.5q0 -128 -87 -203.5t-220 -75.5q-183 0 -295 117l102 115q36 -32 87.5 -52.5t104.5 -20.5q62 0 95.5 29.5t33.5 77.5q0 103 -159 103h-200l10 458h480zM174 1165
l-112 108q113 141 290 141q130 0 206.5 -72t76.5 -190q0 -69 -30.5 -125t-92.5 -117l-164 -161h307v-161h-554v135l290 285q65 65 65 130q0 49 -33 80t-86 31q-51 0 -88.5 -22t-74.5 -62z" />
    <glyph glyph-name="uni2157" unicode="&#x2157;" horiz-adv-x="1941" 
d="M1507 1400l-883 -1400h-209l883 1400h209zM1808 812v-159h-330l-3 -145h79q144 0 223 -67.5t79 -176.5q0 -128 -87 -203.5t-220 -75.5q-183 0 -295 117l102 115q36 -32 87.5 -52.5t104.5 -20.5q62 0 95.5 29.5t33.5 77.5q0 103 -159 103h-200l10 458h480zM333 1414
q133 0 215.5 -64t82.5 -169q0 -128 -122 -184q66 -26 103 -74t37 -111q0 -114 -90.5 -176t-219.5 -62q-190 0 -291 118l100 114q74 -77 183 -77q61 0 99.5 25t38.5 72q0 45 -44 70t-110 25h-95v153h96q59 0 97.5 24.5t38.5 68.5t-35 68t-92 24q-101 0 -168 -80l-104 111
q100 124 280 124z" />
    <glyph glyph-name="uni2158" unicode="&#x2158;" horiz-adv-x="1935" 
d="M1501 1400l-883 -1400h-209l883 1400h209zM1802 812v-159h-330l-3 -145h79q144 0 223 -67.5t79 -176.5q0 -128 -87 -203.5t-220 -75.5q-183 0 -295 117l102 115q36 -32 87.5 -52.5t104.5 -20.5q62 0 95.5 29.5t33.5 77.5q0 103 -159 103h-200l10 458h480zM576 1107v-218
h110v-158h-110v-143h-173v143h-365v124l281 544h191l-268 -510h161v218h173z" />
    <glyph glyph-name="uni2159" unicode="&#x2159;" horiz-adv-x="1716" 
d="M1372 1400l-883 -1400h-209l883 1400h209zM1537 812l-202 -278q9 1 29 1q129 0 209.5 -77.5t80.5 -192.5q0 -120 -90 -199.5t-225 -79.5t-225 78t-90 197q0 103 80 221l225 330h208zM1339 389q-58 0 -96.5 -35.5t-38.5 -89.5q0 -55 38.5 -90.5t96.5 -35.5t96.5 35.5
t38.5 90.5q0 54 -38.5 89.5t-96.5 35.5zM413 1413v-825h-173v585l-192 -74v171z" />
    <glyph glyph-name="uni215A" unicode="&#x215a;" horiz-adv-x="1860" 
d="M1516 1400l-883 -1400h-209l883 1400h209zM1681 812l-202 -278q9 1 29 1q129 0 209.5 -77.5t80.5 -192.5q0 -120 -90 -199.5t-225 -79.5t-225 78t-90 197q0 103 80 221l225 330h208zM1483 389q-58 0 -96.5 -35.5t-38.5 -89.5q0 -55 38.5 -90.5t96.5 -35.5t96.5 35.5
t38.5 90.5q0 54 -38.5 89.5t-96.5 35.5zM616 1400v-159h-330l-3 -145h79q144 0 223 -67.5t79 -176.5q0 -128 -87 -203.5t-220 -75.5q-183 0 -295 117l102 115q36 -32 87.5 -52.5t104.5 -20.5q62 0 95.5 29.5t33.5 77.5q0 103 -159 103h-200l10 458h480z" />
    <glyph glyph-name="oneeighth" unicode="&#x215b;" horiz-adv-x="1841" 
d="M1372 1400l-883 -1400h-209l883 1400h209zM1434 826q131 0 218.5 -63t87.5 -170q0 -126 -126 -183q146 -58 146 -189q0 -108 -93.5 -171.5t-232.5 -63.5q-140 0 -233 63.5t-93 171.5q0 132 145 189q-125 56 -125 183q0 107 87.5 170t218.5 63zM1434 341q-60 0 -99.5 -27
t-39.5 -75q0 -50 39.5 -78t99.5 -28q59 0 99 28t40 78q0 48 -40 75t-99 27zM1434 676q-53 0 -87.5 -26t-34.5 -73q0 -45 34.5 -70.5t87.5 -25.5t87.5 25.5t34.5 70.5q0 47 -34.5 73t-87.5 26zM413 1413v-825h-173v585l-192 -74v171z" />
    <glyph glyph-name="threeeighths" unicode="&#x215c;" horiz-adv-x="1976" 
d="M1507 1400l-883 -1400h-209l883 1400h209zM1569 826q131 0 218.5 -63t87.5 -170q0 -126 -126 -183q146 -58 146 -189q0 -108 -93.5 -171.5t-232.5 -63.5q-140 0 -233 63.5t-93 171.5q0 132 145 189q-125 56 -125 183q0 107 87.5 170t218.5 63zM1569 341q-60 0 -99.5 -27
t-39.5 -75q0 -50 39.5 -78t99.5 -28q59 0 99 28t40 78q0 48 -40 75t-99 27zM1569 676q-53 0 -87.5 -26t-34.5 -73q0 -45 34.5 -70.5t87.5 -25.5t87.5 25.5t34.5 70.5q0 47 -34.5 73t-87.5 26zM333 1414q133 0 215.5 -64t82.5 -169q0 -128 -122 -184q66 -26 103 -74t37 -111
q0 -114 -90.5 -176t-219.5 -62q-190 0 -291 118l100 114q74 -77 183 -77q61 0 99.5 25t38.5 72q0 45 -44 70t-110 25h-95v153h96q59 0 97.5 24.5t38.5 68.5t-35 68t-92 24q-101 0 -168 -80l-104 111q100 124 280 124z" />
    <glyph glyph-name="fiveeighths" unicode="&#x215d;" horiz-adv-x="1985" 
d="M1516 1400l-883 -1400h-209l883 1400h209zM1578 826q131 0 218.5 -63t87.5 -170q0 -126 -126 -183q146 -58 146 -189q0 -108 -93.5 -171.5t-232.5 -63.5q-140 0 -233 63.5t-93 171.5q0 132 145 189q-125 56 -125 183q0 107 87.5 170t218.5 63zM1578 341q-60 0 -99.5 -27
t-39.5 -75q0 -50 39.5 -78t99.5 -28q59 0 99 28t40 78q0 48 -40 75t-99 27zM1578 676q-53 0 -87.5 -26t-34.5 -73q0 -45 34.5 -70.5t87.5 -25.5t87.5 25.5t34.5 70.5q0 47 -34.5 73t-87.5 26zM616 1400v-159h-330l-3 -145h79q144 0 223 -67.5t79 -176.5q0 -128 -87 -203.5
t-220 -75.5q-183 0 -295 117l102 115q36 -32 87.5 -52.5t104.5 -20.5q62 0 95.5 29.5t33.5 77.5q0 103 -159 103h-200l10 458h480z" />
    <glyph glyph-name="seveneighths" unicode="&#x215e;" horiz-adv-x="1830" 
d="M1361 1400l-883 -1400h-209l883 1400h209zM1423 826q131 0 218.5 -63t87.5 -170q0 -126 -126 -183q146 -58 146 -189q0 -108 -93.5 -171.5t-232.5 -63.5q-140 0 -233 63.5t-93 171.5q0 132 145 189q-125 56 -125 183q0 107 87.5 170t218.5 63zM1423 341q-60 0 -99.5 -27
t-39.5 -75q0 -50 39.5 -78t99.5 -28q59 0 99 28t40 78q0 48 -40 75t-99 27zM1423 676q-53 0 -87.5 -26t-34.5 -73q0 -45 34.5 -70.5t87.5 -25.5t87.5 25.5t34.5 70.5q0 47 -34.5 73t-87.5 26zM646 1400v-135l-335 -677h-205l336 651h-385v161h589z" />
    <glyph glyph-name="uni215F" unicode="&#x215f;" horiz-adv-x="1057" 
d="M1372 1400l-883 -1400h-209l883 1400h209zM413 1413v-825h-173v585l-192 -74v171z" />
    <glyph glyph-name="uni2189" unicode="&#x2189;" horiz-adv-x="2041" 
d="M1626 1400l-883 -1400h-209l883 1400h209zM1644 826q133 0 215.5 -64t82.5 -169q0 -128 -122 -184q66 -26 103 -74t37 -111q0 -114 -90.5 -176t-219.5 -62q-190 0 -291 118l100 114q74 -77 183 -77q61 0 99.5 25t38.5 72q0 45 -44 70t-110 25h-95v153h96q59 0 97.5 24.5
t38.5 68.5t-35 68t-92 24q-101 0 -168 -80l-104 111q100 124 280 124zM454 1414q155 0 257.5 -114t102.5 -306t-102.5 -306t-257.5 -114q-154 0 -256.5 114t-102.5 306t102.5 306t256.5 114zM454 1249q-78 0 -128.5 -67t-50.5 -188t50.5 -188t128.5 -67q79 0 129.5 67
t50.5 188t-50.5 188t-129.5 67z" />
    <glyph glyph-name="arrowleft" unicode="&#x2190;" horiz-adv-x="2000" 
d="M1816 570h-1019q-148 0 -278 8q102 -82 271 -251l169 -169l-134 -134l-641 641l641 641l134 -134l-169 -169q-169 -169 -271 -251q130 8 278 8h1019v-190z" />
    <glyph glyph-name="arrowup" unicode="&#x2191;" horiz-adv-x="2000" 
d="M905 -111v1019q0 148 8 278q-82 -102 -251 -271l-169 -169l-134 134l641 641l641 -641l-134 -134l-169 169q-169 169 -251 271q8 -130 8 -278v-1019h-190z" />
    <glyph glyph-name="arrowright" unicode="&#x2192;" horiz-adv-x="2000" 
d="M184 760h1019q148 0 278 -8q-102 82 -271 251l-169 169l134 134l641 -641l-641 -641l-134 134l169 169q169 169 271 251q-130 -8 -278 -8h-1019v190z" />
    <glyph glyph-name="arrowdown" unicode="&#x2193;" horiz-adv-x="2000" 
d="M1095 1521v-1019q0 -148 -8 -278q82 102 251 271l169 169l134 -134l-641 -641l-641 641l134 134l169 -169q169 -169 251 -271q-8 130 -8 278v1019h190z" />
    <glyph glyph-name="uni2196" unicode="&#x2196;" horiz-adv-x="2000" 
d="M1475 35l-720 720q-105 105 -191 202q14 -132 14 -369v-239h-189v907h906v-190h-239q-236 0 -369 15q98 -87 202 -191l721 -721z" />
    <glyph glyph-name="uni2197" unicode="&#x2197;" horiz-adv-x="2000" 
d="M356 156l720 720q105 105 202 191q-132 -14 -369 -14h-239v189h907v-906h-190v239q0 236 15 369q-87 -98 -191 -202l-721 -721z" />
    <glyph glyph-name="uni2198" unicode="&#x2198;" horiz-adv-x="2000" 
d="M491 1309l720 -720q105 -105 191 -202q-14 132 -14 369v239h189v-907h-906v190h239q236 0 369 -15q-98 87 -202 191l-721 721z" />
    <glyph glyph-name="uni2199" unicode="&#x2199;" horiz-adv-x="2000" 
d="M1611 1160l-720 -720q-105 -105 -202 -191q132 14 369 14h239v-189h-907v906h190v-239q0 -236 -15 -369q87 98 191 202l721 721z" />
    <glyph glyph-name="partialdiff" unicode="&#x2202;" horiz-adv-x="1210" 
d="M281 1285l94 168q173 -66 307 -158.5t215 -190t133 -209t71.5 -208t19.5 -195.5q0 -145 -67 -263.5t-185 -186t-264 -67.5q-221 0 -368 140t-147 349q0 212 137 353t341 141q165 0 280 -124q-132 278 -567 451zM605 761q-130 0 -215 -82.5t-85 -213.5q0 -129 85.5 -211
t214.5 -82t215 82t86 211q0 131 -85.5 213.5t-215.5 82.5z" />
    <glyph glyph-name="uni2300" unicode="&#x2205;" horiz-adv-x="1456" 
d="M1132 1058l134 -134l-122 -122q87 -128 87 -282q0 -136 -67.5 -252t-183.5 -183.5t-252 -67.5q-155 0 -282 87l-122 -122l-134 134l121 121q-87 128 -87 283q0 136 67.5 252t183.5 184t253 68q156 0 282 -88zM414 520q0 -83 40 -154l426 427q-71 41 -152 41
q-130 0 -222 -92.5t-92 -221.5zM728 207q129 0 221 92t92 221q0 79 -40 151l-424 -425q70 -39 151 -39z" />
    <glyph glyph-name="uni2300" unicode="&#x2300;" horiz-adv-x="1456" 
d="M1132 1058l134 -134l-122 -122q87 -128 87 -282q0 -136 -67.5 -252t-183.5 -183.5t-252 -67.5q-155 0 -282 87l-122 -122l-134 134l121 121q-87 128 -87 283q0 136 67.5 252t183.5 184t253 68q156 0 282 -88zM414 520q0 -83 40 -154l426 427q-71 41 -152 41
q-130 0 -222 -92.5t-92 -221.5zM728 207q129 0 221 92t92 221q0 79 -40 151l-424 -425q70 -39 151 -39z" />
    <glyph glyph-name="Delta" unicode="&#x2206;" horiz-adv-x="1399" 
d="M841 1400l482 -1225v-175h-1247v175l483 1225h282zM700 1174l-370 -960h739z" />
    <glyph glyph-name="product" unicode="&#x220f;" horiz-adv-x="1488" 
d="M1298 1400v-1665h-226v1451h-656v-1451h-226v1665h1108z" />
    <glyph glyph-name="summation" unicode="&#x2211;" horiz-adv-x="1310" 
d="M1191 1400v-214h-741l503 -546v-125l-508 -566h751v-214h-1082v175l598 662l-593 653v175h1072z" />
    <glyph glyph-name="minus" unicode="&#x2212;" horiz-adv-x="1200" 
d="M1050 628v-190h-900v190h900z" />
    <glyph glyph-name="uni2219" unicode="&#x2219;" horiz-adv-x="1200" 
d="M600 821q119 0 203.5 -84t84.5 -204t-84.5 -204t-203.5 -84q-120 0 -204 84t-84 204t84 204t204 84z" />
    <glyph glyph-name="radical" unicode="&#x221a;" horiz-adv-x="1266" 
d="M1236 1440l-549 -1705h-282l-382 1000h249l273 -735l461 1440h230z" />
    <glyph glyph-name="infinity" unicode="&#x221e;" horiz-adv-x="1700" 
d="M48 520q0 120 55 214t144.5 142.5t195.5 48.5q47 0 92 -14t80 -34t79 -58.5t75 -70.5t81 -87q51 56 81 87t74.5 70.5t79.5 59t80 33.5t92 14q106 0 195.5 -48.5t144.5 -142.5t55 -214t-55 -214t-144.5 -142.5t-195.5 -48.5q-47 0 -92 14t-80 33.5t-79 58.5t-74.5 70
t-81.5 87q-50 -55 -81 -87t-74.5 -70t-79 -58t-80.5 -34t-92 -14q-106 0 -195.5 48.5t-144.5 142.5t-55 214zM248 520q0 -100 55.5 -157.5t139.5 -57.5q56 0 111.5 45.5t167.5 169.5q-63 69 -92 98.5t-66.5 62.5t-64 43.5t-56.5 10.5q-84 0 -139.5 -57.5t-55.5 -157.5z
M1452 520q0 100 -55.5 157.5t-139.5 57.5q-56 0 -109 -44t-169 -171h1l-1 -1q117 -127 169.5 -170.5t108.5 -43.5q84 0 139.5 57.5t55.5 157.5z" />
    <glyph glyph-name="integral" unicode="&#x222b;" horiz-adv-x="646" 
d="M634 1412l-57 -190q-24 6 -50 6q-61 0 -93 -38.5t-32 -109.5v-1025q0 -153 -80.5 -249t-240.5 -96q-68 0 -121 13l57 190q24 -6 50 -6q61 0 93 38.5t32 109.5v1025q0 153 80.5 249t240.5 96q68 0 121 -13z" />
    <glyph glyph-name="congruent" unicode="&#x2245;" horiz-adv-x="1200" 
d="M1050 428v-190h-900v190h900zM1050 828v-190h-900v190h900zM954 1267l114 -133q-60 -63 -126.5 -92.5t-153.5 -29.5q-82 0 -149 19.5t-124 39t-116 19.5q-65 0 -152 -75l-114 133q60 63 126.5 92.5t153.5 29.5q83 0 149.5 -19.5t123.5 -39t116 -19.5q65 0 152 75z" />
    <glyph glyph-name="approxequal" unicode="&#x2248;" horiz-adv-x="1200" 
d="M954 855l114 -133q-60 -63 -126.5 -92.5t-153.5 -29.5q-82 0 -149 19.5t-124 39t-116 19.5q-65 0 -152 -75l-114 133q60 63 126.5 92.5t153.5 29.5q83 0 149.5 -19.5t123.5 -39t116 -19.5q65 0 152 75zM954 458l114 -133q-60 -63 -126.5 -92.5t-153.5 -29.5
q-82 0 -149 19.5t-124 39t-116 19.5q-65 0 -152 -75l-114 133q60 63 126.5 92.5t153.5 29.5q83 0 149.5 -19.5t123.5 -39t116 -19.5q65 0 152 75z" />
    <glyph glyph-name="uni2259" unicode="&#x2259;" horiz-adv-x="1200" 
d="M1050 428v-190h-900v190h900zM1050 828v-190h-900v190h900zM954 1006h-223l-131 163l-131 -163h-223l211 300h286z" />
    <glyph glyph-name="notequal" unicode="&#x2260;" horiz-adv-x="1200" 
d="M1050 428v-190h-494l-116 -238h-200l116 238h-206v190h298l103 210h-401v190h494l116 238h200l-116 -238h206v-190h-299l-103 -210h402z" />
    <glyph glyph-name="lessequal" unicode="&#x2264;" horiz-adv-x="1200" 
d="M1008 1096v-222l-577 -211l577 -210v-222l-815 330v205zM193 0v190h815v-190h-815z" />
    <glyph glyph-name="greaterequal" unicode="&#x2265;" horiz-adv-x="1200" 
d="M193 874v222l815 -330v-205l-815 -330v222l577 210zM1008 190v-190h-815v190h815z" />
    <glyph glyph-name="dotmath" unicode="&#x22c5;" horiz-adv-x="1200" 
d="M600 708q70 0 122 -52t52 -122q0 -71 -52 -123.5t-122 -52.5t-122.5 53t-52.5 123t52.5 122t122.5 52z" />
    <glyph glyph-name="uni2460" unicode="&#x2460;" horiz-adv-x="2050" 
d="M1025 1594q183 0 350 -71t287.5 -190.5t191.5 -285t71 -346.5q0 -182 -71 -347.5t-191.5 -285.5t-287.5 -191t-350 -71t-350 71t-287.5 191t-191.5 285.5t-71 347.5q0 181 71 346.5t191.5 285t287.5 190.5t350 71zM1025 1398q-190 0 -350.5 -93t-254 -253.5t-93.5 -350.5
t93.5 -351t254 -254.5t350.5 -93.5t350.5 93.5t254 254.5t93.5 351t-93.5 350.5t-254 253.5t-350.5 93zM1158 1151v-867h-186v609l-225 -83v184z" />
    <glyph glyph-name="uni2461" unicode="&#x2461;" horiz-adv-x="2050" 
d="M1025 1594q183 0 350 -71t287.5 -190.5t191.5 -285t71 -346.5q0 -182 -71 -347.5t-191.5 -285.5t-287.5 -191t-350 -71t-350 71t-287.5 191t-191.5 285.5t-71 347.5q0 181 71 346.5t191.5 285t287.5 190.5t350 71zM1025 1398q-190 0 -350.5 -93t-254 -253.5t-93.5 -350.5
t93.5 -351t254 -254.5t350.5 -93.5t350.5 93.5t254 254.5t93.5 351t-93.5 350.5t-254 253.5t-350.5 93zM836 888l-123 116q121 149 312 149q139 0 222 -76.5t83 -202.5q0 -74 -35 -133.5t-100 -120.5l-173 -163h328v-173h-596v146l312 296q70 65 70 135q0 51 -35.5 82.5
t-91.5 31.5q-54 0 -93.5 -23t-79.5 -64z" />
    <glyph glyph-name="uni2462" unicode="&#x2462;" horiz-adv-x="2050" 
d="M1025 1594q183 0 350 -71t287.5 -190.5t191.5 -285t71 -346.5q0 -182 -71 -347.5t-191.5 -285.5t-287.5 -191t-350 -71t-350 71t-287.5 191t-191.5 285.5t-71 347.5q0 181 71 346.5t191.5 285t287.5 190.5t350 71zM1025 1398q-190 0 -350.5 -93t-254 -253.5t-93.5 -350.5
t93.5 -351t254 -254.5t350.5 -93.5t350.5 93.5t254 254.5t93.5 351t-93.5 350.5t-254 253.5t-350.5 93zM1016 1153q143 0 231.5 -67.5t88.5 -178.5q0 -137 -134 -193q72 -26 112.5 -76t40.5 -118q0 -81 -48 -140t-122 -85.5t-163 -26.5q-204 0 -312 125l107 121
q79 -81 197 -81q65 0 106.5 25.5t41.5 73.5t-47 75t-118 27h-103v161h104q64 0 105 25.5t41 71.5q0 45 -38 69.5t-99 24.5q-108 0 -179 -83l-113 120q107 130 301 130z" />
    <glyph glyph-name="uni2463" unicode="&#x2463;" horiz-adv-x="2050" 
d="M1025 1594q183 0 350 -71t287.5 -190.5t191.5 -285t71 -346.5q0 -182 -71 -347.5t-191.5 -285.5t-287.5 -191t-350 -71t-350 71t-287.5 191t-191.5 285.5t-71 347.5q0 181 71 346.5t191.5 285t287.5 190.5t350 71zM1025 1398q-190 0 -350.5 -93t-254 -253.5t-93.5 -350.5
t93.5 -351t254 -254.5t350.5 -93.5t350.5 93.5t254 254.5t93.5 351t-93.5 350.5t-254 253.5t-350.5 93zM1239 832v-226h118v-173h-118v-149h-186v149h-393v132l302 572h206l-285 -531h170v226h186z" />
    <glyph glyph-name="uni2464" unicode="&#x2464;" horiz-adv-x="2050" 
d="M1025 1594q183 0 350 -71t287.5 -190.5t191.5 -285t71 -346.5q0 -182 -71 -347.5t-191.5 -285.5t-287.5 -191t-350 -71t-350 71t-287.5 191t-191.5 285.5t-71 347.5q0 181 71 346.5t191.5 285t287.5 190.5t350 71zM1025 1398q-190 0 -350.5 -93t-254 -253.5t-93.5 -350.5
t93.5 -351t254 -254.5t350.5 -93.5t350.5 93.5t254 254.5t93.5 351t-93.5 350.5t-254 253.5t-350.5 93zM1308 1138v-172h-353l-4 -149h96q150 0 231.5 -70.5t81.5 -184.5q0 -134 -93.5 -214t-236.5 -80q-196 0 -317 123l99 134q37 -35 97 -60.5t120 -25.5q67 0 102 30.5
t35 79.5q0 105 -170 105h-214l10 484h516z" />
    <glyph glyph-name="uni2465" unicode="&#x2465;" horiz-adv-x="2050" 
d="M1025 1594q183 0 350 -71t287.5 -190.5t191.5 -285t71 -346.5q0 -182 -71 -347.5t-191.5 -285.5t-287.5 -191t-350 -71t-350 71t-287.5 191t-191.5 285.5t-71 347.5q0 181 71 346.5t191.5 285t287.5 190.5t350 71zM1025 1398q-190 0 -350.5 -93t-254 -253.5t-93.5 -350.5
t93.5 -351t254 -254.5t350.5 -93.5t350.5 93.5t254 254.5t93.5 351t-93.5 350.5t-254 253.5t-350.5 93zM1226 1138l-214 -292q18 2 27 2q135 0 222 -82t87 -202q0 -128 -96 -212t-239 -84q-144 0 -240 83t-96 208q0 110 86 234l238 345h225zM1013 689q-60 0 -100.5 -36
t-40.5 -91q0 -56 40 -91.5t101 -35.5q60 0 100.5 36t40.5 91t-40.5 91t-100.5 36z" />
    <glyph glyph-name="uni2466" unicode="&#x2466;" horiz-adv-x="2050" 
d="M1025 1594q183 0 350 -71t287.5 -190.5t191.5 -285t71 -346.5q0 -182 -71 -347.5t-191.5 -285.5t-287.5 -191t-350 -71t-350 71t-287.5 191t-191.5 285.5t-71 347.5q0 181 71 346.5t191.5 285t287.5 190.5t350 71zM1025 1398q-190 0 -350.5 -93t-254 -253.5t-93.5 -350.5
t93.5 -351t254 -254.5t350.5 -93.5t350.5 93.5t254 254.5t93.5 351t-93.5 350.5t-254 253.5t-350.5 93zM1370 1138v-146l-360 -708h-221l361 681h-413v173h633z" />
    <glyph glyph-name="uni2467" unicode="&#x2467;" horiz-adv-x="2050" 
d="M1025 1594q183 0 350 -71t287.5 -190.5t191.5 -285t71 -346.5q0 -182 -71 -347.5t-191.5 -285.5t-287.5 -191t-350 -71t-350 71t-287.5 191t-191.5 285.5t-71 347.5q0 181 71 346.5t191.5 285t287.5 190.5t350 71zM1025 1398q-190 0 -350.5 -93t-254 -253.5t-93.5 -350.5
t93.5 -351t254 -254.5t350.5 -93.5t350.5 93.5t254 254.5t93.5 351t-93.5 350.5t-254 253.5t-350.5 93zM1025 1153q138 0 232 -67t94 -179q0 -130 -138 -192q160 -61 160 -199q0 -113 -100.5 -180.5t-247.5 -67.5t-247 67.5t-100 180.5q0 139 159 198q-138 62 -138 193
q0 112 94 179t232 67zM1025 642q-61 0 -103 -28t-42 -78q0 -49 42 -76.5t103 -27.5t103.5 27.5t42.5 76.5q0 50 -42.5 78t-103.5 28zM1025 988q-55 0 -91.5 -26t-36.5 -72t36.5 -73t91.5 -27t92 27t37 73t-36.5 72t-92.5 26z" />
    <glyph glyph-name="uni2468" unicode="&#x2468;" horiz-adv-x="2050" 
d="M1025 1594q183 0 350 -71t287.5 -190.5t191.5 -285t71 -346.5q0 -182 -71 -347.5t-191.5 -285.5t-287.5 -191t-350 -71t-350 71t-287.5 191t-191.5 285.5t-71 347.5q0 181 71 346.5t191.5 285t287.5 190.5t350 71zM1025 1398q-190 0 -350.5 -93t-254 -253.5t-93.5 -350.5
t93.5 -351t254 -254.5t350.5 -93.5t350.5 93.5t254 254.5t93.5 351t-93.5 350.5t-254 253.5t-350.5 93zM821 284l214 291q-9 -1 -27 -1q-136 0 -222.5 81.5t-86.5 202.5q0 128 96 211.5t240 83.5q143 0 239 -82.5t96 -207.5q0 -110 -86 -235l-238 -344h-225zM1035 733
q60 0 100 36t40 91t-40 91t-100 36t-101 -36t-41 -91t41 -91t101 -36z" />
    <glyph glyph-name="uni24EA" unicode="&#x24ea;" horiz-adv-x="2050" 
d="M1025 1594q183 0 350 -71t287.5 -190.5t191.5 -285t71 -346.5q0 -182 -71 -347.5t-191.5 -285.5t-287.5 -191t-350 -71t-350 71t-287.5 191t-191.5 285.5t-71 347.5q0 181 71 346.5t191.5 285t287.5 190.5t350 71zM1025 1398q-190 0 -350.5 -93t-254 -253.5t-93.5 -350.5
t93.5 -351t254 -254.5t350.5 -93.5t350.5 93.5t254 254.5t93.5 351t-93.5 350.5t-254 253.5t-350.5 93zM1025 1153q166 0 276.5 -120t110.5 -322t-110.5 -322.5t-276.5 -120.5q-165 0 -275.5 120.5t-110.5 322.5t110.5 322t275.5 120zM1025 974q-84 0 -138 -69.5t-54 -194.5
t54 -194.5t138 -69.5t138.5 69.5t54.5 194.5t-54.5 194.5t-138.5 69.5z" />
    <glyph glyph-name="uni24FF" unicode="&#x24ff;" horiz-adv-x="2050" 
d="M1025 1153q-165 0 -275.5 -120t-110.5 -322t110.5 -322.5t275.5 -120.5q166 0 276.5 120.5t110.5 322.5t-110.5 322t-276.5 120zM1025 974q84 0 138.5 -69.5t54.5 -194.5t-54.5 -194.5t-138.5 -69.5t-138 69.5t-54 194.5t54 194.5t138 69.5zM1025 1576q180 0 343.5 -69.5
t281.5 -187t187.5 -279t69.5 -339.5q0 -143 -44.5 -276.5t-126 -241.5t-190 -189t-243 -125.5t-278.5 -44.5t-278.5 44.5t-243 125.5t-190 189t-126 241.5t-44.5 276.5q0 178 69.5 339.5t187.5 279t281.5 187t343.5 69.5z" />
    <glyph glyph-name="uni2715" unicode="&#x2573;" horiz-adv-x="2141" 
d="M1218 700l943 -943l-147 -148l-943 944l-944 -944l-147 148l943 943l-943 943l147 148l944 -943l943 943l147 -148z" />
    <glyph glyph-name="uni2715" unicode="&#x2715;" horiz-adv-x="2141" 
d="M1218 700l943 -943l-147 -148l-943 944l-944 -944l-147 148l943 943l-943 943l147 148l944 -943l943 943l147 -148z" />
    <glyph glyph-name="uni25AE" unicode="&#x258c;" horiz-adv-x="1800" 
d="M200 1400h700v-1400h-700v1400z" />
    <glyph glyph-name="uni25AE" unicode="&#x25ae;" horiz-adv-x="1800" 
d="M200 1400h700v-1400h-700v1400z" />
    <glyph glyph-name="filledbox" unicode="&#x25a0;" horiz-adv-x="1800" 
d="M200 1400h1400v-1400h-1400v1400z" />
    <glyph glyph-name="uni25A1" unicode="&#x25a1;" horiz-adv-x="1800" 
d="M200 1400h1400v-1400h-1400v1400zM394 1206v-1012h1012v1012h-1012z" />
    <glyph glyph-name="triagup" unicode="&#x25b2;" horiz-adv-x="1800" 
d="M900 1420l820 -1420h-1640z" />
    <glyph glyph-name="uni25B3" unicode="&#x25b3;" horiz-adv-x="1800" 
d="M900 1420l820 -1420h-1640zM900 1032l-484 -838h968z" />
    <glyph glyph-name="uni25B4" unicode="&#x25b4;" horiz-adv-x="1200" 
d="M601 1024l414 -716h-829z" />
    <glyph glyph-name="uni25B8" unicode="&#x25b8;" horiz-adv-x="1200" 
d="M1020 665l-717 -415v830z" />
    <glyph glyph-name="triagdn" unicode="&#x25bc;" horiz-adv-x="1800" 
d="M900 -20l-820 1420h1640z" />
    <glyph glyph-name="uni25BD" unicode="&#x25bd;" horiz-adv-x="1800" 
d="M900 -20l-820 1420h1640zM900 368l484 838h-968z" />
    <glyph glyph-name="uni25BE" unicode="&#x25be;" horiz-adv-x="1200" 
d="M599 307l-414 716h829z" />
    <glyph glyph-name="uni25C2" unicode="&#x25c2;" horiz-adv-x="1200" 
d="M180 665l717 415v-830z" />
    <glyph glyph-name="uni25C6" unicode="&#x25c6;" horiz-adv-x="1800" 
d="M900 1438l738 -738l-738 -738l-738 738z" />
    <glyph glyph-name="uni25C7" unicode="&#x25c7;" horiz-adv-x="1800" 
d="M900 1438l738 -738l-738 -738l-738 738zM900 1164l-464 -464l464 -464l464 464z" />
    <glyph glyph-name="lozenge" unicode="&#x25ca;" horiz-adv-x="1547" 
d="M1452 700l-558 -700h-242l-557 700l558 700h242zM1178 700l-409 506l-399 -505l408 -507z" />
    <glyph glyph-name="circle" unicode="&#x25cb;" horiz-adv-x="1800" 
d="M900 -39q-151 0 -287.5 58.5t-235.5 157.5t-157.5 236t-58.5 287t58.5 287t157.5 236t235.5 157.5t287.5 58.5q150 0 287 -58.5t236 -157.5t157.5 -236t58.5 -287t-58.5 -287t-157.5 -236t-236 -157.5t-287 -58.5zM900 155q148 0 273.5 73t198.5 198.5t73 273.5
t-73 273.5t-198.5 198.5t-273.5 73t-274 -73t-198.5 -198.5t-72.5 -273.5t72.5 -273.5t198.5 -198.5t274 -73z" />
    <glyph glyph-name="uni25CF" unicode="&#x25cf;" horiz-adv-x="1800" 
d="M900 -39q-151 0 -287.5 58.5t-235.5 157.5t-157.5 236t-58.5 287t58.5 287t157.5 236t235.5 157.5t287.5 58.5q150 0 287 -58.5t236 -157.5t157.5 -236t58.5 -287t-58.5 -287t-157.5 -236t-236 -157.5t-287 -58.5z" />
    <glyph glyph-name="uni25D0" unicode="&#x25d0;" horiz-adv-x="1800" 
d="M900 -39q-151 0 -287.5 58.5t-235.5 157.5t-157.5 236t-58.5 287t58.5 287t157.5 236t235.5 157.5t287.5 58.5q150 0 287 -58.5t236 -157.5t157.5 -236t58.5 -287t-58.5 -287t-157.5 -236t-236 -157.5t-287 -58.5zM900 1245v-1090q148 0 273.5 73t198.5 198.5t73 273.5
t-73 273.5t-198.5 198.5t-273.5 73z" />
    <glyph glyph-name="uni25D6" unicode="&#x25d6;" horiz-adv-x="1800" 
d="M900 1439v-1478q-151 0 -287.5 58.5t-235.5 157.5t-157.5 236t-58.5 287t58.5 287t157.5 236t235.5 157.5t287.5 58.5z" />
    <glyph glyph-name="uni25E7" unicode="&#x25e7;" horiz-adv-x="1800" 
d="M200 1400h1400v-1400h-1400v1400zM900 1206v-1012h506v1012h-506z" />
    <glyph glyph-name="uni2610" unicode="&#x2610;" horiz-adv-x="2200" 
d="M253 1547h1694v-1694h-1694v1694zM413 1387v-1374h1374v1374h-1374z" />
    <glyph glyph-name="uni2611" unicode="&#x2611;" horiz-adv-x="2200" 
d="M253 1547h1694v-1694h-1694v1694zM413 1387v-1374h1374v1374h-1374zM1525 1177l130 -94l-669 -918l-418 506l123 102l287 -347z" />
    <glyph glyph-name="uni2612" unicode="&#x2612;" horiz-adv-x="2200" 
d="M1947 1547v-1694h-1694v1694h1694zM1787 1387h-1374v-1374h1374v1374zM623 337l363 363l-363 363l114 114l363 -364l363 364l114 -114l-364 -363l364 -363l-114 -114l-363 363l-363 -363z" />
    <glyph glyph-name="heart" unicode="&#x2665;" horiz-adv-x="1800" 
d="M1202 1236q132 0 219.5 -90t87.5 -224q0 -95 -48.5 -202t-134 -210t-193 -199.5t-233.5 -185.5q-126 89 -233.5 185.5t-193 199.5t-134 210t-48.5 202q0 134 87.5 224t219.5 90q120 0 211 -71t91 -167q0 96 91 167t211 71z" />
    <glyph glyph-name="uni2713" unicode="&#x2713;" horiz-adv-x="2200" 
d="M1585 1311l153 -113l-823 -1110l-453 494l140 129l298 -325z" />
    <glyph glyph-name="uni2717" unicode="&#x2717;" horiz-adv-x="2200" 
d="M1234 700l441 -441l-134 -134l-441 441l-441 -441l-134 134l441 441l-441 441l134 134l441 -441l441 441l134 -134z" />
    <glyph glyph-name="uni2776" unicode="&#x2776;" horiz-adv-x="2050" 
d="M1158 1151l-411 -157v-184l225 83v-609h186v867zM1025 1576q180 0 343.5 -69.5t281.5 -187t187.5 -279t69.5 -339.5q0 -143 -44.5 -276.5t-126 -241.5t-190 -189t-243 -125.5t-278.5 -44.5t-278.5 44.5t-243 125.5t-190 189t-126 241.5t-44.5 276.5q0 178 69.5 339.5
t187.5 279t281.5 187t343.5 69.5z" />
    <glyph glyph-name="uni2777" unicode="&#x2777;" horiz-adv-x="2050" 
d="M713 1004l123 -116q40 41 79.5 64t93.5 23q56 0 91.5 -31.5t35.5 -82.5q0 -70 -70 -135l-312 -296v-146h596v173h-328l173 163q65 61 100 120.5t35 133.5q0 126 -83 202.5t-222 76.5q-191 0 -312 -149zM1025 1576q180 0 343.5 -69.5t281.5 -187t187.5 -279t69.5 -339.5
q0 -143 -44.5 -276.5t-126 -241.5t-190 -189t-243 -125.5t-278.5 -44.5t-278.5 44.5t-243 125.5t-190 189t-126 241.5t-44.5 276.5q0 178 69.5 339.5t187.5 279t281.5 187t343.5 69.5z" />
    <glyph glyph-name="uni2778" unicode="&#x2778;" horiz-adv-x="2050" 
d="M1025 1576q180 0 343.5 -69.5t281.5 -187t187.5 -279t69.5 -339.5q0 -143 -44.5 -276.5t-126 -241.5t-190 -189t-243 -125.5t-278.5 -44.5t-278.5 44.5t-243 125.5t-190 189t-126 241.5t-44.5 276.5q0 178 69.5 339.5t187.5 279t281.5 187t343.5 69.5zM1016 1153
q-194 0 -301 -130l113 -120q71 83 179 83q61 0 99 -24.5t38 -69.5q0 -46 -41 -71.5t-105 -25.5h-104v-161h103q71 0 118 -27t47 -75t-41.5 -73.5t-106.5 -25.5q-118 0 -197 81l-107 -121q108 -125 312 -125q89 0 163 26.5t122 85.5t48 140q0 68 -40.5 118t-112.5 76
q134 56 134 193q0 111 -88.5 178.5t-231.5 67.5z" />
    <glyph glyph-name="uni2779" unicode="&#x2779;" horiz-adv-x="2050" 
d="M1025 1576q180 0 343.5 -69.5t281.5 -187t187.5 -279t69.5 -339.5q0 -143 -44.5 -276.5t-126 -241.5t-190 -189t-243 -125.5t-278.5 -44.5t-278.5 44.5t-243 125.5t-190 189t-126 241.5t-44.5 276.5q0 178 69.5 339.5t187.5 279t281.5 187t343.5 69.5zM1239 832h-186
v-226h-170l285 531h-206l-302 -572v-132h393v-149h186v149h118v173h-118v226z" />
    <glyph glyph-name="uni277A" unicode="&#x277a;" horiz-adv-x="2050" 
d="M1308 1138h-516l-10 -484h214q170 0 170 -105q0 -49 -35 -79.5t-102 -30.5q-60 0 -120 25.5t-97 60.5l-99 -134q121 -123 317 -123q143 0 236.5 80t93.5 214q0 114 -81.5 184.5t-231.5 70.5h-96l4 149h353v172zM1025 1576q180 0 343.5 -69.5t281.5 -187t187.5 -279
t69.5 -339.5q0 -143 -44.5 -276.5t-126 -241.5t-190 -189t-243 -125.5t-278.5 -44.5t-278.5 44.5t-243 125.5t-190 189t-126 241.5t-44.5 276.5q0 178 69.5 339.5t187.5 279t281.5 187t343.5 69.5z" />
    <glyph glyph-name="uni277B" unicode="&#x277b;" horiz-adv-x="2050" 
d="M1025 1576q180 0 343.5 -69.5t281.5 -187t187.5 -279t69.5 -339.5q0 -143 -44.5 -276.5t-126 -241.5t-190 -189t-243 -125.5t-278.5 -44.5t-278.5 44.5t-243 125.5t-190 189t-126 241.5t-44.5 276.5q0 178 69.5 339.5t187.5 279t281.5 187t343.5 69.5zM1226 1138h-225
l-238 -345q-86 -124 -86 -234q0 -125 96 -208t240 -83q143 0 239 84t96 212q0 120 -87 202t-222 82q-9 0 -27 -2zM1013 689q60 0 100.5 -36t40.5 -91t-40.5 -91t-100.5 -36q-61 0 -101 35.5t-40 91.5q0 55 40.5 91t100.5 36z" />
    <glyph glyph-name="uni277C" unicode="&#x277c;" horiz-adv-x="2050" 
d="M1370 1138h-633v-173h413l-361 -681h221l360 708v146zM1025 1576q180 0 343.5 -69.5t281.5 -187t187.5 -279t69.5 -339.5q0 -143 -44.5 -276.5t-126 -241.5t-190 -189t-243 -125.5t-278.5 -44.5t-278.5 44.5t-243 125.5t-190 189t-126 241.5t-44.5 276.5
q0 178 69.5 339.5t187.5 279t281.5 187t343.5 69.5z" />
    <glyph glyph-name="uni277D" unicode="&#x277d;" horiz-adv-x="2050" 
d="M1025 1576q180 0 343.5 -69.5t281.5 -187t187.5 -279t69.5 -339.5q0 -143 -44.5 -276.5t-126 -241.5t-190 -189t-243 -125.5t-278.5 -44.5t-278.5 44.5t-243 125.5t-190 189t-126 241.5t-44.5 276.5q0 178 69.5 339.5t187.5 279t281.5 187t343.5 69.5zM1025 1153
q-138 0 -232 -67t-94 -179q0 -131 138 -193q-159 -59 -159 -198q0 -113 100 -180.5t247 -67.5t247.5 67.5t100.5 180.5q0 138 -160 199q138 62 138 192q0 112 -94 179t-232 67zM1025 642q61 0 103.5 -28t42.5 -78q0 -49 -42.5 -76.5t-103.5 -27.5t-103 27.5t-42 76.5
q0 50 42 78t103 28zM1025 988q56 0 92.5 -26t36.5 -72t-37 -73t-92 -27t-91.5 27t-36.5 73t36.5 72t91.5 26z" />
    <glyph glyph-name="uni277E" unicode="&#x277e;" horiz-adv-x="2050" 
d="M1025 1576q180 0 343.5 -69.5t281.5 -187t187.5 -279t69.5 -339.5q0 -143 -44.5 -276.5t-126 -241.5t-190 -189t-243 -125.5t-278.5 -44.5t-278.5 44.5t-243 125.5t-190 189t-126 241.5t-44.5 276.5q0 178 69.5 339.5t187.5 279t281.5 187t343.5 69.5zM821 284h225
l238 344q86 125 86 235q0 125 -96 207.5t-239 82.5q-144 0 -240 -83.5t-96 -211.5q0 -121 86.5 -202.5t222.5 -81.5q18 0 27 1zM1035 733q-60 0 -101 36t-41 91t41 91t101 36t100 -36t40 -91t-40 -91t-100 -36z" />
    <glyph glyph-name="uni278A" unicode="&#x278a;" horiz-adv-x="2050" 
d="M1158 1151l-411 -157v-184l225 83v-609h186v867zM1025 1576q180 0 343.5 -69.5t281.5 -187t187.5 -279t69.5 -339.5q0 -143 -44.5 -276.5t-126 -241.5t-190 -189t-243 -125.5t-278.5 -44.5t-278.5 44.5t-243 125.5t-190 189t-126 241.5t-44.5 276.5q0 178 69.5 339.5
t187.5 279t281.5 187t343.5 69.5z" />
    <glyph glyph-name="uni278B" unicode="&#x278b;" horiz-adv-x="2050" 
d="M713 1004l123 -116q40 41 79.5 64t93.5 23q56 0 91.5 -31.5t35.5 -82.5q0 -70 -70 -135l-312 -296v-146h596v173h-328l173 163q65 61 100 120.5t35 133.5q0 126 -83 202.5t-222 76.5q-191 0 -312 -149zM1025 1576q180 0 343.5 -69.5t281.5 -187t187.5 -279t69.5 -339.5
q0 -143 -44.5 -276.5t-126 -241.5t-190 -189t-243 -125.5t-278.5 -44.5t-278.5 44.5t-243 125.5t-190 189t-126 241.5t-44.5 276.5q0 178 69.5 339.5t187.5 279t281.5 187t343.5 69.5z" />
    <glyph glyph-name="uni278C" unicode="&#x278c;" horiz-adv-x="2050" 
d="M1025 1576q180 0 343.5 -69.5t281.5 -187t187.5 -279t69.5 -339.5q0 -143 -44.5 -276.5t-126 -241.5t-190 -189t-243 -125.5t-278.5 -44.5t-278.5 44.5t-243 125.5t-190 189t-126 241.5t-44.5 276.5q0 178 69.5 339.5t187.5 279t281.5 187t343.5 69.5zM1016 1153
q-194 0 -301 -130l113 -120q71 83 179 83q61 0 99 -24.5t38 -69.5q0 -46 -41 -71.5t-105 -25.5h-104v-161h103q71 0 118 -27t47 -75t-41.5 -73.5t-106.5 -25.5q-118 0 -197 81l-107 -121q108 -125 312 -125q89 0 163 26.5t122 85.5t48 140q0 68 -40.5 118t-112.5 76
q134 56 134 193q0 111 -88.5 178.5t-231.5 67.5z" />
    <glyph glyph-name="uni278D" unicode="&#x278d;" horiz-adv-x="2050" 
d="M1025 1576q180 0 343.5 -69.5t281.5 -187t187.5 -279t69.5 -339.5q0 -143 -44.5 -276.5t-126 -241.5t-190 -189t-243 -125.5t-278.5 -44.5t-278.5 44.5t-243 125.5t-190 189t-126 241.5t-44.5 276.5q0 178 69.5 339.5t187.5 279t281.5 187t343.5 69.5zM1239 832h-186
v-226h-170l285 531h-206l-302 -572v-132h393v-149h186v149h118v173h-118v226z" />
    <glyph glyph-name="uni278E" unicode="&#x278e;" horiz-adv-x="2050" 
d="M1308 1138h-516l-10 -484h214q170 0 170 -105q0 -49 -35 -79.5t-102 -30.5q-60 0 -120 25.5t-97 60.5l-99 -134q121 -123 317 -123q143 0 236.5 80t93.5 214q0 114 -81.5 184.5t-231.5 70.5h-96l4 149h353v172zM1025 1576q180 0 343.5 -69.5t281.5 -187t187.5 -279
t69.5 -339.5q0 -143 -44.5 -276.5t-126 -241.5t-190 -189t-243 -125.5t-278.5 -44.5t-278.5 44.5t-243 125.5t-190 189t-126 241.5t-44.5 276.5q0 178 69.5 339.5t187.5 279t281.5 187t343.5 69.5z" />
    <glyph glyph-name="uni278F" unicode="&#x278f;" horiz-adv-x="2050" 
d="M1025 1576q180 0 343.5 -69.5t281.5 -187t187.5 -279t69.5 -339.5q0 -143 -44.5 -276.5t-126 -241.5t-190 -189t-243 -125.5t-278.5 -44.5t-278.5 44.5t-243 125.5t-190 189t-126 241.5t-44.5 276.5q0 178 69.5 339.5t187.5 279t281.5 187t343.5 69.5zM1226 1138h-225
l-238 -345q-86 -124 -86 -234q0 -125 96 -208t240 -83q143 0 239 84t96 212q0 120 -87 202t-222 82q-9 0 -27 -2zM1013 689q60 0 100.5 -36t40.5 -91t-40.5 -91t-100.5 -36q-61 0 -101 35.5t-40 91.5q0 55 40.5 91t100.5 36z" />
    <glyph glyph-name="uni2790" unicode="&#x2790;" horiz-adv-x="2050" 
d="M1370 1138h-633v-173h413l-361 -681h221l360 708v146zM1025 1576q180 0 343.5 -69.5t281.5 -187t187.5 -279t69.5 -339.5q0 -143 -44.5 -276.5t-126 -241.5t-190 -189t-243 -125.5t-278.5 -44.5t-278.5 44.5t-243 125.5t-190 189t-126 241.5t-44.5 276.5
q0 178 69.5 339.5t187.5 279t281.5 187t343.5 69.5z" />
    <glyph glyph-name="uni2791" unicode="&#x2791;" horiz-adv-x="2050" 
d="M1025 1576q180 0 343.5 -69.5t281.5 -187t187.5 -279t69.5 -339.5q0 -143 -44.5 -276.5t-126 -241.5t-190 -189t-243 -125.5t-278.5 -44.5t-278.5 44.5t-243 125.5t-190 189t-126 241.5t-44.5 276.5q0 178 69.5 339.5t187.5 279t281.5 187t343.5 69.5zM1025 1153
q-138 0 -232 -67t-94 -179q0 -131 138 -193q-159 -59 -159 -198q0 -113 100 -180.5t247 -67.5t247.5 67.5t100.5 180.5q0 138 -160 199q138 62 138 192q0 112 -94 179t-232 67zM1025 642q61 0 103.5 -28t42.5 -78q0 -49 -42.5 -76.5t-103.5 -27.5t-103 27.5t-42 76.5
q0 50 42 78t103 28zM1025 988q56 0 92.5 -26t36.5 -72t-37 -73t-92 -27t-91.5 27t-36.5 73t36.5 72t91.5 26z" />
    <glyph glyph-name="uni2792" unicode="&#x2792;" horiz-adv-x="2050" 
d="M1025 1576q180 0 343.5 -69.5t281.5 -187t187.5 -279t69.5 -339.5q0 -143 -44.5 -276.5t-126 -241.5t-190 -189t-243 -125.5t-278.5 -44.5t-278.5 44.5t-243 125.5t-190 189t-126 241.5t-44.5 276.5q0 178 69.5 339.5t187.5 279t281.5 187t343.5 69.5zM821 284h225
l238 344q86 125 86 235q0 125 -96 207.5t-239 82.5q-144 0 -240 -83.5t-96 -211.5q0 -121 86.5 -202.5t222.5 -81.5q18 0 27 1zM1035 733q-60 0 -101 36t-41 91t41 91t101 36t100 -36t40 -91t-40 -91t-100 -36z" />
    <glyph glyph-name="uni2B51" unicode="&#x2b51;" horiz-adv-x="1800" 
d="M1082 893h586l-474 -345l182 -559l-475 346l-474 -346l181 559l-476 345h588l181 559z" />
    <glyph glyph-name="uni2B52" unicode="&#x2b52;" horiz-adv-x="1800" 
d="M1082 893h586l-474 -345l182 -559l-475 346l-474 -346l181 559l-476 345h588l181 559zM989 765l-88 271l-88 -271h-286l231 -168l-88 -272l231 168l231 -168l-88 272l231 168h-286z" />
    <glyph glyph-name="uni2E17" unicode="&#x2e17;" horiz-adv-x="920" 
d="M747 916v-184l-574 -209v184zM747 589v-184l-574 -209v184z" />
    <glyph glyph-name="uni2E38" unicode="&#x2e38;" horiz-adv-x="789" 
d="M308 1440h173v-431h213v-169h-213v-213h-173v213h-213v169h213v431z" />
    <glyph glyph-name="uniEA00" unicode="&#xea00;" horiz-adv-x="1800" 
d="M1082 893h586l-474 -345l182 -559l-475 346l-474 -346l181 559l-476 345h588l181 559zM989 765l-88 271v-543l231 -168l-88 272l231 168h-286z" />
    <glyph glyph-name="uniEA01" unicode="&#xea01;" horiz-adv-x="1800" 
d="M901 335l-474 -346l181 559l-476 345h588l181 559v-1117z" />
    <glyph glyph-name="uniFB00" unicode="&#xfb00;" horiz-adv-x="1668" 
d="M779 958v-190h-328v-768h-210v768h-192v190h192v162q0 153 80.5 249t240.5 96q145 0 267 -72l-74 -176q-89 51 -179 51q-61 0 -93 -38.5t-32 -109.5v-162h328zM1603 958v-190h-328v-768h-210v768h-192v190h192v162q0 153 80.5 249t240.5 96q145 0 267 -72l-74 -176
q-89 51 -179 51q-61 0 -93 -38.5t-32 -109.5v-162h328z" />
    <glyph glyph-name="fi" unicode="&#xfb01;" horiz-adv-x="1382" 
d="M779 958v-190h-328v-768h-210v768h-192v190h192v162q0 153 80.5 249t240.5 96q145 0 267 -72l-74 -176q-89 51 -179 51q-61 0 -93 -38.5t-32 -109.5v-162h328zM1218 958v-958h-210v958h210zM1112 1437q62 0 105 -43t43 -105t-43 -104t-105 -42t-104 42t-42 104t42 105
t104 43z" />
    <glyph glyph-name="fl" unicode="&#xfb02;" horiz-adv-x="1382" 
d="M779 958v-190h-328v-768h-210v768h-192v190h192v162q0 153 80.5 249t240.5 96q145 0 267 -72l-74 -176q-89 51 -179 51q-61 0 -93 -38.5t-32 -109.5v-162h328zM1218 1440v-1440h-210v1440h210z" />
    <glyph glyph-name="uniFB03" unicode="&#xfb03;" horiz-adv-x="2206" 
d="M779 958v-190h-328v-768h-210v768h-192v190h192v162q0 153 80.5 249t240.5 96q145 0 267 -72l-74 -176q-89 51 -179 51q-61 0 -93 -38.5t-32 -109.5v-162h328zM1603 958v-190h-328v-768h-210v768h-192v190h192v162q0 153 80.5 249t240.5 96q145 0 267 -72l-74 -176
q-89 51 -179 51q-61 0 -93 -38.5t-32 -109.5v-162h328zM2042 958v-958h-210v958h210zM1936 1437q62 0 105 -43t43 -105t-43 -104t-105 -42t-104 42t-42 104t42 105t104 43z" />
    <glyph glyph-name="uniFB04" unicode="&#xfb04;" horiz-adv-x="2206" 
d="M779 958v-190h-328v-768h-210v768h-192v190h192v162q0 153 80.5 249t240.5 96q145 0 267 -72l-74 -176q-89 51 -179 51q-61 0 -93 -38.5t-32 -109.5v-162h328zM1603 958v-190h-328v-768h-210v768h-192v190h192v162q0 153 80.5 249t240.5 96q145 0 267 -72l-74 -176
q-89 51 -179 51q-61 0 -93 -38.5t-32 -109.5v-162h328zM2042 1440v-1440h-210v1440h210z" />
    <glyph glyph-name="uniFB05" unicode="&#xfb05;" horiz-adv-x="1463" 
d="M1372 958v-190h-367v-417q0 -92 42 -135.5t110 -43.5q90 0 193 65l83 -167q-141 -95 -294 -95q-166 0 -255 92t-89 280v421h-187v190h187v67q0 126 -58.5 184.5t-155.5 58.5t-155.5 -58.5t-58.5 -184.5v-1025h-210v1039q0 109 36 193.5t97 134t134.5 74t156.5 24.5
t156.5 -24.5t134.5 -74t97 -134t36 -193.5v-81h367z" />
    <glyph glyph-name="uniFB06" unicode="&#xfb06;" horiz-adv-x="1919" 
d="M906 881l-90 -163q-51 32 -132.5 57t-163.5 25q-84 0 -132.5 -31t-48.5 -83q0 -24 11.5 -41.5t35 -28.5t49 -17t62.5 -12l99 -15q333 -48 333 -283q0 -141 -116 -227t-320 -86q-245 0 -411 123l97 157q128 -98 316 -98q106 0 162 31t56 86q0 83 -166 106l-100 13
q-159 22 -242 93.5t-83 187.5q0 142 106.5 224.5t289.5 82.5q232 0 388 -101zM1828 958v-190h-367v-417q0 -92 42 -135.5t110 -43.5q90 0 193 65l83 -167q-141 -95 -294 -95q-166 0 -255 92t-89 280v421h-191v190h191v290h210v-290h367z" />
    <glyph glyph-name="uniFEFF" unicode="&#xfeff;" horiz-adv-x="0" 
 />
    <glyph glyph-name="Iogonek.alt001" horiz-adv-x="0" 
 />
    <glyph glyph-name="iogonek.alt001" horiz-adv-x="0" 
 />
    <glyph glyph-name="uni030C.alt001" 
d="M-543 1050h-176v390h216z" />
    <glyph glyph-name="uni0328.alt001" 
d="M-498 -201l111 -136q-89 -82 -210 -82q-104 0 -170 52t-66 139q0 93 67 162.5t211 145.5l49 -80q-129 -96 -129 -185q0 -25 15.5 -39.5t41.5 -14.5q40 0 80 38z" />
    <glyph glyph-name="uni0328.alt002" 
d="M-522 102l25 -81q-96 -43 -137 -86.5t-41 -93.5q0 -35 26 -57.5t72 -22.5q68 0 126 49l111 -136q-102 -93 -250 -93q-129 0 -209.5 63t-80.5 158q0 106 86 174.5t272 125.5z" />
    <glyph glyph-name="uni0328.alt003" 
d="M-498 -201l111 -136q-89 -82 -210 -82q-104 0 -170 52t-66 139q0 92 81.5 161.5t256.5 146.5l49 -80q-189 -98 -189 -185q0 -25 15.5 -39.5t41.5 -14.5q40 0 80 38z" />
    <glyph glyph-name="uni0328.alt004" 
d="M-451 -190l111 -136q-102 -93 -250 -93q-129 0 -209.5 63t-80.5 158q0 106 86 174.5t272 125.5l25 -81q-96 -43 -137 -86.5t-41 -93.5q0 -35 26 -57.5t72 -22.5q68 0 126 49z" />
    <glyph glyph-name="i.latn_TRK" horiz-adv-x="538" 
d="M374 958v-958h-210v958h210zM268 1437q62 0 105 -43t43 -105t-43 -104t-105 -42t-104 42t-42 104t42 105t104 43z" />
    <glyph glyph-name="j.latn_NLD" horiz-adv-x="544" 
d="M380 958v-1076q0 -144 -77 -222.5t-204 -78.5q-84 0 -145 29l49 182q37 -14 77 -14t65 28t25 86v1066h210zM329 1110h-206l191 300h266z" />
    <glyph glyph-name="Ldot.latn_CAT" horiz-adv-x="1229" 
d="M1191 214v-214h-1001v1400h226v-1186h775zM874 861q66 0 111 -45t45 -111q0 -65 -45 -109t-111 -44q-65 0 -109 44t-44 109q0 66 44 111t109 45z" />
    <glyph glyph-name="ldot.latn_CAT" horiz-adv-x="690" 
d="M374 1440v-1440h-210v1440h210zM609 878q62 0 105 -43t43 -105t-43 -104t-105 -42t-104 42t-42 104t42 105t104 43z" />
    <glyph glyph-name="zero.numr" horiz-adv-x="909" 
d="M454 1414q155 0 257.5 -114t102.5 -306t-102.5 -306t-257.5 -114q-154 0 -256.5 114t-102.5 306t102.5 306t256.5 114zM454 1249q-78 0 -128.5 -67t-50.5 -188t50.5 -188t128.5 -67q79 0 129.5 67t50.5 188t-50.5 188t-129.5 67z" />
    <glyph glyph-name="one.numr" horiz-adv-x="565" 
d="M413 1413v-825h-173v585l-192 -74v171z" />
    <glyph glyph-name="two.numr" horiz-adv-x="721" 
d="M174 1165l-112 108q113 141 290 141q130 0 206.5 -72t76.5 -190q0 -69 -30.5 -125t-92.5 -117l-164 -161h307v-161h-554v135l290 285q65 65 65 130q0 49 -33 80t-86 31q-51 0 -88.5 -22t-74.5 -62z" />
    <glyph glyph-name="three.numr" horiz-adv-x="730" 
d="M333 1414q133 0 215.5 -64t82.5 -169q0 -128 -122 -184q66 -26 103 -74t37 -111q0 -114 -90.5 -176t-219.5 -62q-190 0 -291 118l100 114q74 -77 183 -77q61 0 99.5 25t38.5 72q0 45 -44 70t-110 25h-95v153h96q59 0 97.5 24.5t38.5 68.5t-35 68t-92 24q-101 0 -168 -80
l-104 111q100 124 280 124z" />
    <glyph glyph-name="four.numr" horiz-adv-x="724" 
d="M576 1107v-218h110v-158h-110v-143h-173v143h-365v124l281 544h191l-268 -510h161v218h173z" />
    <glyph glyph-name="five.numr" horiz-adv-x="749" 
d="M616 1400v-159h-330l-3 -145h79q144 0 223 -67.5t79 -176.5q0 -128 -87 -203.5t-220 -75.5q-183 0 -295 117l102 115q36 -32 87.5 -52.5t104.5 -20.5q62 0 95.5 29.5t33.5 77.5q0 103 -159 103h-200l10 458h480z" />
    <glyph glyph-name="six.numr" horiz-adv-x="749" 
d="M570 1400l-202 -278q9 1 29 1q129 0 209.5 -77.5t80.5 -192.5q0 -120 -90 -199.5t-225 -79.5t-225 78t-90 197q0 103 80 221l225 330h208zM372 977q-58 0 -96.5 -35.5t-38.5 -89.5q0 -55 38.5 -90.5t96.5 -35.5t96.5 35.5t38.5 90.5q0 54 -38.5 89.5t-96.5 35.5z" />
    <glyph glyph-name="seven.numr" horiz-adv-x="694" 
d="M646 1400v-135l-335 -677h-205l336 651h-385v161h589z" />
    <glyph glyph-name="eight.numr" horiz-adv-x="814" 
d="M407 1414q131 0 218.5 -63t87.5 -170q0 -126 -126 -183q146 -58 146 -189q0 -108 -93.5 -171.5t-232.5 -63.5q-140 0 -233 63.5t-93 171.5q0 132 145 189q-125 56 -125 183q0 107 87.5 170t218.5 63zM407 929q-60 0 -99.5 -27t-39.5 -75q0 -50 39.5 -78t99.5 -28
q59 0 99 28t40 78q0 48 -40 75t-99 27zM407 1264q-53 0 -87.5 -26t-34.5 -73q0 -45 34.5 -70.5t87.5 -25.5t87.5 25.5t34.5 70.5q0 47 -34.5 73t-87.5 26z" />
    <glyph glyph-name="nine.numr" horiz-adv-x="749" 
d="M179 588l201 278q-9 -1 -28 -1q-129 0 -209.5 77.5t-80.5 192.5q0 120 90 199.5t225 79.5t225 -78t90 -197q0 -103 -80 -221l-225 -330h-208zM377 1011q58 0 96 35t38 90t-38 90.5t-96 35.5t-96.5 -35.5t-38.5 -90.5q0 -54 38.5 -89.5t96.5 -35.5z" />
    <glyph glyph-name="zero.dnom" horiz-adv-x="909" 
d="M454 826q155 0 257.5 -114t102.5 -306t-102.5 -306t-257.5 -114q-154 0 -256.5 114t-102.5 306t102.5 306t256.5 114zM454 661q-78 0 -128.5 -67t-50.5 -188t50.5 -188t128.5 -67q79 0 129.5 67t50.5 188t-50.5 188t-129.5 67z" />
    <glyph glyph-name="one.dnom" horiz-adv-x="565" 
d="M413 825v-825h-173v585l-192 -74v171z" />
    <glyph glyph-name="two.dnom" horiz-adv-x="721" 
d="M174 577l-112 108q113 141 290 141q130 0 206.5 -72t76.5 -190q0 -69 -30.5 -125t-92.5 -117l-164 -161h307v-161h-554v135l290 285q65 65 65 130q0 49 -33 80t-86 31q-51 0 -88.5 -22t-74.5 -62z" />
    <glyph glyph-name="three.dnom" horiz-adv-x="730" 
d="M333 826q133 0 215.5 -64t82.5 -169q0 -128 -122 -184q66 -26 103 -74t37 -111q0 -114 -90.5 -176t-219.5 -62q-190 0 -291 118l100 114q74 -77 183 -77q61 0 99.5 25t38.5 72q0 45 -44 70t-110 25h-95v153h96q59 0 97.5 24.5t38.5 68.5t-35 68t-92 24q-101 0 -168 -80
l-104 111q100 124 280 124z" />
    <glyph glyph-name="four.dnom" horiz-adv-x="724" 
d="M576 519v-218h110v-158h-110v-143h-173v143h-365v124l281 544h191l-268 -510h161v218h173z" />
    <glyph glyph-name="five.dnom" horiz-adv-x="749" 
d="M616 812v-159h-330l-3 -145h79q144 0 223 -67.5t79 -176.5q0 -128 -87 -203.5t-220 -75.5q-183 0 -295 117l102 115q36 -32 87.5 -52.5t104.5 -20.5q62 0 95.5 29.5t33.5 77.5q0 103 -159 103h-200l10 458h480z" />
    <glyph glyph-name="six.dnom" horiz-adv-x="749" 
d="M570 812l-202 -278q9 1 29 1q129 0 209.5 -77.5t80.5 -192.5q0 -120 -90 -199.5t-225 -79.5t-225 78t-90 197q0 103 80 221l225 330h208zM372 389q-58 0 -96.5 -35.5t-38.5 -89.5q0 -55 38.5 -90.5t96.5 -35.5t96.5 35.5t38.5 90.5q0 54 -38.5 89.5t-96.5 35.5z" />
    <glyph glyph-name="seven.dnom" horiz-adv-x="694" 
d="M646 812v-135l-335 -677h-205l336 651h-385v161h589z" />
    <glyph glyph-name="eight.dnom" horiz-adv-x="814" 
d="M407 826q131 0 218.5 -63t87.5 -170q0 -126 -126 -183q146 -58 146 -189q0 -108 -93.5 -171.5t-232.5 -63.5q-140 0 -233 63.5t-93 171.5q0 132 145 189q-125 56 -125 183q0 107 87.5 170t218.5 63zM407 341q-60 0 -99.5 -27t-39.5 -75q0 -50 39.5 -78t99.5 -28
q59 0 99 28t40 78q0 48 -40 75t-99 27zM407 676q-53 0 -87.5 -26t-34.5 -73q0 -45 34.5 -70.5t87.5 -25.5t87.5 25.5t34.5 70.5q0 47 -34.5 73t-87.5 26z" />
    <glyph glyph-name="nine.dnom" horiz-adv-x="749" 
d="M179 0l201 278q-9 -1 -28 -1q-129 0 -209.5 77.5t-80.5 192.5q0 120 90 199.5t225 79.5t225 -78t90 -197q0 -103 -80 -221l-225 -330h-208zM377 423q58 0 96 35t38 90t-38 90.5t-96 35.5t-96.5 -35.5t-38.5 -90.5q0 -54 38.5 -89.5t96.5 -35.5z" />
    <glyph glyph-name="space.frac" horiz-adv-x="108" 
 />
    <glyph glyph-name="b.ordn" horiz-adv-x="885" 
d="M485 1282q141 0 236 -102t95 -254t-95 -254t-236 -102q-131 0 -205 94v-76h-169v1008h172v-405q74 91 202 91zM456 1121q-81 0 -132 -55t-51 -140q0 -84 51 -139t132 -55q82 0 132 56t50 138q0 83 -50 139t-132 56z" />
    <glyph glyph-name="c.ordn" horiz-adv-x="763" 
d="M428 1282q170 0 266 -122l-122 -107q-65 68 -148 68q-76 0 -127 -54.5t-51 -140.5t50.5 -140t126.5 -54q86 0 152 69l119 -109q-99 -122 -266 -122q-160 0 -259.5 100.5t-99.5 255.5t99.5 255.5t259.5 100.5z" />
    <glyph glyph-name="d.ordn" horiz-adv-x="885" 
d="M400 1282q127 0 202 -92v406h172v-1008h-169v77q-75 -95 -206 -95q-141 0 -235.5 101.5t-94.5 254.5t95 254.5t236 101.5zM429 1121q-83 0 -133 -56t-50 -139t50 -138.5t133 -55.5q80 0 131 55t51 139q0 85 -51 140t-131 55z" />
    <glyph glyph-name="e.ordn" horiz-adv-x="805" 
d="M410 1282q145 0 235.5 -98.5t90.5 -256.5q0 -36 -3 -60h-485q14 -75 62.5 -112t118.5 -37q97 0 178 67l97 -114q-113 -101 -285 -101q-155 0 -252.5 97.5t-97.5 257.5q0 159 94.5 258t246.5 99zM408 1132q-67 0 -107.5 -38t-52.5 -106h314q-13 69 -52.5 106.5
t-101.5 37.5z" />
    <glyph glyph-name="h.ordn" horiz-adv-x="852" 
d="M284 1596v-406q67 92 197 92q117 0 191.5 -74t74.5 -191v-429h-173v373q0 76 -36.5 117t-102.5 41q-65 0 -108 -41.5t-43 -117.5v-372h-173v1008h173z" />
    <glyph glyph-name="l.ordn" horiz-adv-x="395" 
d="M284 1596v-1008h-173v1008h173z" />
    <glyph glyph-name="m.ordn" horiz-adv-x="1315" 
d="M941 1282q120 0 194.5 -73.5t74.5 -191.5v-429h-172v373q0 76 -36.5 117t-102.5 41q-65 0 -108.5 -41.5t-43.5 -117.5v-372h-173v373q0 76 -36.5 117t-102.5 41q-65 0 -108 -41.5t-43 -117.5v-372h-173v676h169v-80q66 98 201 98q73 0 132 -31.5t94 -86.5q71 118 234 118
z" />
    <glyph glyph-name="r.ordn" horiz-adv-x="611" 
d="M471 1282q61 0 100 -16l-29 -171q-51 23 -111 23q-68 0 -108 -42.5t-40 -117.5v-370h-172v676h168v-74q63 92 192 92z" />
    <glyph glyph-name="s.ordn" horiz-adv-x="730" 
d="M652 1215l-62 -134q-110 56 -214 56q-53 0 -81.5 -18t-28.5 -49q0 -28 27.5 -40.5t82.5 -20.5l63 -9q230 -35 230 -202q0 -104 -82.5 -165.5t-227.5 -61.5q-185 0 -298 81l71 131q97 -67 229 -67t132 69q0 49 -114 65l-59 8q-233 33 -233 203q0 103 76 162t209 59
q151 0 280 -67z" />
    <glyph glyph-name="t.ordn" horiz-adv-x="668" 
d="M593 1264v-154h-249v-260q0 -61 28.5 -89.5t74.5 -28.5q57 0 130 44l64 -136q-102 -70 -219 -70q-122 0 -186 68t-64 200v272h-132v154h132v202h172v-202h249z" />
    <glyph glyph-name="u.ordn" horiz-adv-x="858" 
d="M747 1264v-388q0 -151 -91.5 -228.5t-226.5 -77.5t-226.5 77.5t-91.5 228.5v388h173v-373q0 -81 39.5 -120t105.5 -39t106 39t40 120v373h172z" />
    <glyph glyph-name="egrave.ordn" horiz-adv-x="805" 
d="M410 1282q145 0 235.5 -98.5t90.5 -256.5q0 -36 -3 -60h-485q14 -75 62.5 -112t118.5 -37q97 0 178 67l97 -114q-113 -101 -285 -101q-155 0 -252.5 97.5t-97.5 257.5q0 159 94.5 258t246.5 99zM357 1364l-183 218h210l138 -218h-165zM408 1132q-67 0 -107.5 -38
t-52.5 -106h314q-13 69 -52.5 106.5t-101.5 37.5z" />
    <glyph glyph-name="zero.osf" horiz-adv-x="1370" 
d="M685 1085q156 0 284 -67.5t204.5 -195t76.5 -292.5t-76.5 -292.5t-204.5 -195t-284 -67.5t-284 67.5t-204.5 195t-76.5 292.5t76.5 292.5t204.5 195t284 67.5zM685 887q-151 0 -250.5 -97t-99.5 -260q0 -164 99.5 -260.5t250.5 -96.5t250.5 96.5t99.5 260.5
q0 163 -99.5 260t-250.5 97z" />
    <glyph glyph-name="one.osf" horiz-adv-x="779" 
d="M587 1087v-1087h-212v798l-309 -99v209z" />
    <glyph glyph-name="two.osf" horiz-adv-x="1101" 
d="M229 732l-151 130q29 39 66.5 73.5t92.5 70.5t130.5 57t159.5 21q188 0 312.5 -106.5t124.5 -269.5q0 -60 -19.5 -115t-48 -95.5t-72 -80.5t-80.5 -66t-86 -56l-152 -91h511v-204h-893v175l415 267q201 129 201 256q0 77 -59.5 129t-161.5 52q-96 0 -163 -38.5
t-127 -108.5z" />
    <glyph glyph-name="three.osf" horiz-adv-x="1128" 
d="M527 1084q210 0 338.5 -110.5t128.5 -291.5q0 -107 -55 -188.5t-152 -128.5q111 -45 175 -128.5t64 -195.5q0 -99 -40.5 -178.5t-109.5 -128.5t-155 -74.5t-181 -25.5q-154 0 -279 53t-201 149l140 143q60 -67 150.5 -105t185.5 -38q119 0 192.5 54.5t73.5 158.5
q0 103 -85 160.5t-214 57.5h-165v196h164q117 0 193 54t76 156q0 98 -74.5 154.5t-184.5 56.5q-89 0 -161 -43.5t-115 -107.5l-158 128q59 100 175 161.5t274 61.5z" />
    <glyph glyph-name="four.osf" horiz-adv-x="1151" 
d="M868 515v-313h235v-202h-235v-343h-212v343h-608v167l483 890h230l-460 -855h355v313h212z" />
    <glyph glyph-name="five.osf" horiz-adv-x="1161" 
d="M979 1057v-202h-585l-5 -342h188q119 0 212 -35.5t149.5 -95t85.5 -133.5t29 -156q0 -111 -40.5 -200.5t-108.5 -145.5t-155 -86t-184 -30q-306 0 -487 229l148 135q62 -75 153.5 -117t184.5 -42q66 0 118 20.5t83.5 55t47.5 76t16 86.5q0 48 -15 87.5t-49 74.5
t-99.5 54.5t-156.5 19.5h-322l11 747h781z" />
    <glyph glyph-name="six.osf" horiz-adv-x="1164" 
d="M863 1400l-358 -511q51 15 112 15q126 0 233.5 -60t171.5 -167.5t64 -237.5q0 -199 -144.5 -331.5t-362.5 -132.5q-217 0 -362 133t-145 332q0 161 126 352l403 608h262zM579 705q-123 0 -204.5 -74t-81.5 -191q0 -118 81.5 -192t204.5 -74t204.5 74.5t81.5 191.5
t-81.5 191t-204.5 74z" />
    <glyph glyph-name="seven.osf" horiz-adv-x="1103" 
d="M1031 1057v-166l-610 -1234h-248l603 1198h-704v202h959z" />
    <glyph glyph-name="eight.osf" horiz-adv-x="1225" 
d="M613 1425q202 0 340 -112.5t138 -290.5q0 -212 -209 -316q109 -46 175 -127t66 -198q0 -119 -69 -212.5t-185 -143.5t-256 -50q-215 0 -363 113.5t-148 292.5q0 117 66 198t175 127q-95 47 -151.5 126t-56.5 190q0 178 138 290.5t340 112.5zM613 608q-121 0 -203.5 -60.5
t-82.5 -157.5q0 -96 82.5 -155.5t203.5 -59.5q120 0 202.5 59.5t82.5 155.5q0 97 -82 157.5t-203 60.5zM613 1224q-107 0 -180.5 -58.5t-73.5 -151.5q0 -97 73 -156.5t181 -59.5q107 0 180 59.5t73 156.5q0 93 -73 151.5t-180 58.5z" />
    <glyph glyph-name="nine.osf" horiz-adv-x="1164" 
d="M301 -341l357 510q-46 -14 -111 -14q-126 0 -233.5 60t-171.5 167.5t-64 237.5q0 199 144.5 331.5t362.5 132.5q217 0 362 -133t145 -332q0 -161 -126 -352l-403 -608h-262zM585 354q123 0 204.5 74t81.5 191q0 118 -81.5 192t-204.5 74t-204.5 -74.5t-81.5 -191.5
t81.5 -191t204.5 -74z" />
    <glyph glyph-name="zero.tf" horiz-adv-x="1200" 
d="M604 1424q86 0 164 -26.5t145.5 -84t116.5 -141t77 -204.5t28 -268q0 -155 -28.5 -279t-77 -206t-116.5 -136.5t-144.5 -78.5t-164.5 -24q-89 0 -166.5 23.5t-147 78.5t-119 137t-78.5 206t-29 279t29 279t78.5 206.5t119 137t147 78t166.5 23.5zM604 1216
q-52 0 -96.5 -15t-85.5 -52.5t-70 -95t-46 -147.5t-17 -206t17 -206t46 -147.5t70 -95t85.5 -52.5t96.5 -15q50 0 93.5 15t83.5 52.5t68 95t44.5 147.5t16.5 206q0 259 -87.5 387.5t-218.5 128.5z" />
    <glyph glyph-name="one.tf" horiz-adv-x="1200" 
d="M204 206h357v919l-376 -135v221l593 211v-1216h336v-206h-910v206z" />
    <glyph glyph-name="two.tf" horiz-adv-x="1200" 
d="M273 1062l-155 128q24 33 48 60t65.5 61t86.5 57.5t110 39.5t137 16q214 0 339 -124.5t125 -325.5q0 -63 -16 -121t-46 -108t-57.5 -85.5t-66.5 -77.5l-351 -376h575v-206h-896v170l506 538q125 135 125 267q0 107 -66 174.5t-177 67.5q-67 0 -122.5 -23t-89.5 -53
t-74 -79z" />
    <glyph glyph-name="three.tf" horiz-adv-x="1200" 
d="M562 1424q214 0 345 -110t131 -290q0 -109 -56.5 -190.5t-156.5 -127.5q113 -45 179 -129t66 -196q0 -99 -41.5 -178t-111.5 -127.5t-157.5 -74t-184.5 -25.5q-155 0 -279.5 52.5t-202.5 147.5l139 145q62 -67 152 -105t186 -38q121 0 197 54.5t76 158.5q0 102 -86 158.5
t-217 56.5h-169v199h168q119 0 196 53.5t77 154.5q0 97 -75.5 153t-188.5 56q-92 0 -165 -43t-118 -108l-156 133q64 100 179.5 160t273.5 60z" />
    <glyph glyph-name="four.tf" horiz-adv-x="1200" 
d="M914 854v-376h214v-206h-214v-272h-217v272h-625v167l524 959h246l-509 -920h364v376h217z" />
    <glyph glyph-name="five.tf" horiz-adv-x="1200" 
d="M1000 1400v-205h-585l-7 -338h184q119 0 212.5 -34.5t151 -93.5t87 -133.5t29.5 -158.5q0 -110 -39.5 -199.5t-108 -146t-156.5 -86.5t-187 -30q-305 0 -487 224l144 141q62 -73 155 -115.5t187 -42.5q128 0 197 69t69 167q0 48 -15.5 88t-50.5 74t-100 53t-155 19h-322
l13 748h784z" />
    <glyph glyph-name="six.tf" horiz-adv-x="1200" 
d="M884 1400l-356 -508q52 14 108 14q194 0 332 -134t138 -331q0 -200 -145 -332.5t-363 -132.5t-363 133t-145 332q0 166 126 353l403 606h265zM598 705q-122 0 -203 -74t-81 -190t81 -190t203 -74q123 0 203.5 74t80.5 190t-80.5 190t-203.5 74z" />
    <glyph glyph-name="seven.tf" horiz-adv-x="1200" 
d="M1084 1400v-170l-606 -1230h-253l598 1195h-701v205h962z" />
    <glyph glyph-name="eight.tf" horiz-adv-x="1200" 
d="M600 1424q139 0 251.5 -47t180.5 -139t68 -214q0 -218 -215 -318q113 -44 180.5 -125t67.5 -201q0 -123 -72.5 -216.5t-192.5 -140.5t-268 -47t-268 47t-192.5 140.5t-72.5 216.5q0 121 67.5 201.5t180.5 124.5q-215 100 -215 318q0 122 68 214t180.5 139t251.5 47z
M600 609q-130 0 -216.5 -57t-86.5 -160q0 -102 86 -158.5t217 -56.5q130 0 216 56.5t86 158.5t-86 159.5t-216 57.5zM600 1222q-117 0 -193.5 -55.5t-76.5 -153.5q0 -102 76.5 -158t193.5 -56t194 56t77 158q0 98 -77 153.5t-194 55.5z" />
    <glyph glyph-name="nine.tf" horiz-adv-x="1200" 
d="M317 0l356 508q-47 -14 -108 -14q-194 0 -332 134t-138 331q0 200 145 332.5t363 132.5t363 -133t145 -332q0 -166 -126 -353l-403 -606h-265zM603 695q122 0 203 74t81 190t-81 190t-203 74q-123 0 -203.5 -74t-80.5 -190t80.5 -190t203.5 -74z" />
    <glyph glyph-name="uni2007.tf" horiz-adv-x="1200" 
 />
    <glyph glyph-name="zero.tosf" horiz-adv-x="1200" 
d="M599 1084q110 0 207.5 -39.5t170 -110.5t115 -176t42.5 -229t-42.5 -229.5t-115 -176.5t-170 -110.5t-207.5 -39.5q-147 0 -268 67.5t-193.5 195.5t-72.5 293t72.5 292.5t193.5 195t268 67.5zM599 891q-137 0 -228.5 -98t-91.5 -264q0 -167 91.5 -264.5t228.5 -97.5
q138 0 229 97.5t91 264.5q0 166 -91 264t-229 98z" />
    <glyph glyph-name="one.tosf" horiz-adv-x="1200" 
d="M207 204l340 1v609l-359 -105v214l571 164v-882l328 1v-206h-880v204z" />
    <glyph glyph-name="two.tosf" horiz-adv-x="1200" 
d="M288 732l-151 130q29 39 66.5 73.5t92.5 70.5t130.5 57t159.5 21q188 0 312.5 -106.5t124.5 -269.5q0 -60 -19.5 -115t-48 -95.5t-72 -80.5t-80.5 -66t-86 -56l-152 -91h511v-204h-893v175l415 267q201 129 201 256q0 77 -59.5 129t-161.5 52q-96 0 -163 -38.5
t-127 -108.5z" />
    <glyph glyph-name="three.tosf" horiz-adv-x="1200" 
d="M570 1084q210 0 338.5 -110.5t128.5 -291.5q0 -107 -55 -188.5t-152 -128.5q111 -45 175 -128.5t64 -195.5q0 -99 -40.5 -178.5t-109.5 -128.5t-155 -74.5t-181 -25.5q-154 0 -279 53t-201 149l140 143q60 -67 150.5 -105t185.5 -38q119 0 192.5 54.5t73.5 158.5
q0 103 -85 160.5t-214 57.5h-165v196h164q117 0 193 54t76 156q0 98 -74.5 154.5t-184.5 56.5q-89 0 -161 -43.5t-115 -107.5l-158 128q59 100 175 161.5t274 61.5z" />
    <glyph glyph-name="four.tosf" horiz-adv-x="1200" 
d="M909 515v-313h235v-202h-235v-343h-212v343h-608v167l483 890h230l-460 -855h355v313h212z" />
    <glyph glyph-name="five.tosf" horiz-adv-x="1200" 
d="M1003 1057v-202h-585l-5 -342h188q119 0 212 -35.5t149.5 -95t85.5 -133.5t29 -156q0 -111 -40.5 -200.5t-108.5 -145.5t-155 -86t-184 -30q-306 0 -487 229l148 135q62 -75 153.5 -117t184.5 -42q66 0 118 20.5t83.5 55t47.5 76t16 86.5q0 48 -15 87.5t-49 74.5
t-99.5 54.5t-156.5 19.5h-322l11 747h781z" />
    <glyph glyph-name="six.tosf" horiz-adv-x="1200" 
d="M892 1400l-358 -511q51 15 112 15q126 0 233.5 -60t171.5 -167.5t64 -237.5q0 -199 -144.5 -331.5t-362.5 -132.5q-217 0 -362 133t-145 332q0 161 126 352l403 608h262zM608 705q-123 0 -204.5 -74t-81.5 -191q0 -118 81.5 -192t204.5 -74t204.5 74.5t81.5 191.5
t-81.5 191t-204.5 74z" />
    <glyph glyph-name="seven.tosf" horiz-adv-x="1200" 
d="M1097 1057v-166l-610 -1234h-248l603 1198h-704v202h959z" />
    <glyph glyph-name="eight.tosf" horiz-adv-x="1200" 
d="M614 1425q202 0 340 -112.5t138 -290.5q0 -212 -209 -316q109 -46 175 -127t66 -198q0 -119 -69 -212.5t-185 -143.5t-256 -50q-215 0 -363 113.5t-148 292.5q0 117 66 198t175 127q-95 47 -151.5 126t-56.5 190q0 178 138 290.5t340 112.5zM614 608q-121 0 -203.5 -60.5
t-82.5 -157.5q0 -96 82.5 -155.5t203.5 -59.5q120 0 202.5 59.5t82.5 155.5q0 97 -82 157.5t-203 60.5zM614 1224q-107 0 -180.5 -58.5t-73.5 -151.5q0 -97 73 -156.5t181 -59.5q107 0 180 59.5t73 156.5q0 93 -73 151.5t-180 58.5z" />
    <glyph glyph-name="nine.tosf" horiz-adv-x="1200" 
d="M308 -341l357 510q-45 -14 -111 -14q-126 0 -233.5 60t-171.5 167.5t-64 237.5q0 199 144.5 331.5t362.5 132.5q217 0 362 -133t145 -332q0 -161 -126 -352l-403 -608h-262zM592 354q123 0 204.5 74t81.5 191q0 118 -81.5 192t-204.5 74t-204.5 -74.5t-81.5 -191.5
t81.5 -191t204.5 -74z" />
    <glyph glyph-name="uni2007.tosf" horiz-adv-x="1200" 
 />
    <glyph glyph-name="exclam.sc" horiz-adv-x="529" 
d="M382 1060l-28 -671h-178l-28 671h234zM265 282q62 0 107.5 -45.5t45.5 -107.5t-46 -108t-107 -46t-107.5 46.5t-46.5 107.5q0 62 46 107.5t108 45.5z" />
    <glyph glyph-name="numbersign.sc" horiz-adv-x="1216" 
d="M226 808h166l57 252h178l-56 -252h196l57 252h178l-56 -252h164l-35 -166h-166l-48 -218h164l-36 -167h-165l-57 -257h-179l57 257h-196l-57 -257h-179l57 257h-164l36 167h165l48 218h-165zM534 642l-48 -218h196l48 218h-196z" />
    <glyph glyph-name="dollar.sc" horiz-adv-x="1200" 
d="M526 1185h169v-141q172 -14 330 -105l-95 -161q-115 68 -235 84v-247q154 -22 248 -90t94 -188q0 -136 -97 -218t-245 -101v-149h-168v146q-106 9 -204.5 41.5t-169.5 85.5l103 157q113 -83 270 -103v249l-8 1q-329 52 -329 284q0 132 96.5 212.5t240.5 99.5v143z
M695 200q56 11 96.5 39.5t40.5 78.5q0 70 -137 101v-219zM393 745q0 -41 33 -65t100 -39v218q-62 -13 -97.5 -42.5t-35.5 -71.5z" />
    <glyph glyph-name="percent.sc" horiz-adv-x="1609" 
d="M392 1083q133 0 220.5 -82.5t87.5 -206.5q0 -125 -87.5 -207t-220.5 -82q-132 0 -219.5 82.5t-87.5 206.5t87.5 206.5t219.5 82.5zM392 926q-60 0 -99 -37.5t-39 -94.5q0 -58 39 -95.5t99 -37.5t99.5 37.5t39.5 95.5t-39.5 95t-99.5 37zM1265 1060l-728 -1060h-196
l728 1060h196zM1215 559q133 0 221 -82.5t88 -206.5t-88 -206.5t-221 -82.5q-131 0 -219 82.5t-88 206.5q0 123 88 206t219 83zM1215 403q-59 0 -98 -37.5t-39 -95.5t39 -95.5t98 -37.5q61 0 100.5 37.5t39.5 95.5t-39.5 95.5t-100.5 37.5z" />
    <glyph glyph-name="ampersand.sc" horiz-adv-x="1180" 
d="M1152 0h-261l-131 118q-146 -137 -338 -137q-156 0 -244 75t-88 206q0 86 51.5 156.5t141.5 137.5q-75 74 -108 131.5t-33 130.5q0 113 87.5 187t227.5 74t226 -71.5t86 -187.5q0 -77 -55 -140.5t-154 -132.5l189 -175l157 221l145 -94l-173 -246zM436 152q106 0 194 80
l-223 208q-117 -89 -117 -165q0 -56 39.5 -89.5t106.5 -33.5zM336 806q0 -32 20 -60.5t80 -85.5q70 47 106 82.5t36 71.5q0 43 -32 68.5t-89 25.5q-58 0 -89.5 -26.5t-31.5 -75.5z" />
    <glyph glyph-name="parenleft.sc" horiz-adv-x="698" 
d="M564 1196l63 -173q-151 -68 -233.5 -199.5t-82.5 -293.5t82.5 -293.5t233.5 -199.5l-63 -173q-208 78 -333 257t-125 409t125 409t333 257z" />
    </font>
</defs>
</svg>
