<?xml version="1.0" standalone="no"?>
<!DOCTYPE svg PUBLIC "-//W3C//DTD SVG 1.1//EN" "http://www.w3.org/Graphics/SVG/1.1/DTD/svg11.dtd" >
<svg xmlns="http://www.w3.org/2000/svg" xmlns:xlink="http://www.w3.org/1999/xlink" version="1.1">
<metadata>
Created by FontForge 20200314 at Sat Aug  6 00:44:06 2016
 By Unknown
2013 published by Monotype GmbH
</metadata>
<defs>
<font id="MarkPro" horiz-adv-x="1" >
  <font-face 
    font-family="Mark Pro"
    font-weight="400"
    font-stretch="normal"
    units-per-em="2000"
    panose-1="2 11 5 4 2 2 1 1 1 4"
    ascent="1580"
    descent="-420"
    x-height="947"
    cap-height="1400"
    bbox="-1349 -477 3132 2206"
    underline-thickness="136"
    underline-position="-532"
    unicode-range="U+000D-FEFF"
  />
<missing-glyph horiz-adv-x="1201" 
d="M175 0v1400h851v-1400h-851zM311 136h579v1128h-579v-1128z" />
    <glyph glyph-name=".notdef" horiz-adv-x="1201" 
d="M175 0v1400h851v-1400h-851zM311 136h579v1128h-579v-1128z" />
    <glyph glyph-name=".null" horiz-adv-x="0" 
 />
    <glyph glyph-name=".null" horiz-adv-x="0" 
 />
    <glyph glyph-name="nonmarkingreturn" horiz-adv-x="666" 
 />
    <glyph glyph-name="CR" unicode="&#xd;" horiz-adv-x="534" 
 />
    <glyph glyph-name="space" unicode=" " horiz-adv-x="534" 
 />
    <glyph glyph-name="exclam" unicode="!" horiz-adv-x="524" 
d="M353 1400l-24 -955h-135l-24 955h183zM262 233q50 0 87.5 -37.5t37.5 -87.5t-37.5 -88t-87.5 -38t-87.5 38t-37.5 88t37.5 87.5t87.5 37.5z" />
    <glyph glyph-name="quotedbl" unicode="&#x22;" horiz-adv-x="1049" 
d="M283 1440h149v-507h-149v507zM617 1440h149v-507h-149v507z" />
    <glyph glyph-name="numbersign" unicode="#" horiz-adv-x="1465" 
d="M261 1032h231l78 368h139l-78 -368h346l78 368h139l-78 -368h228l-29 -133h-228l-83 -391h227l-28 -133h-227l-80 -375h-139l80 375h-346l-80 -375h-139l80 375h-231l29 133h230l83 391h-230zM602 899l-83 -391h346l83 391h-346z" />
    <glyph glyph-name="dollar" unicode="$" horiz-adv-x="1400" 
d="M644 1580h138v-190q242 -16 435 -147l-79 -125q-158 108 -356 125v-474l32 -4q92 -12 167 -38t133 -68.5t89.5 -106.5t30.5 -145q-1 -116 -62.5 -203t-161 -134t-228.5 -59v-198h-138v196q-133 9 -263 54.5t-215 113.5l83 123q67 -53 175.5 -94.5t219.5 -50.5v479l-37 5
q-188 24 -295.5 113.5t-106.5 246.5q2 166 124.5 269t314.5 121v191zM1079 400q1 86 -75 140.5t-222 77.5v-461q134 15 215 77t82 166zM362 1003q-1 -87 68 -141.5t214 -76.5v457q-128 -15 -204.5 -78t-77.5 -161z" />
    <glyph glyph-name="percent" unicode="%" horiz-adv-x="1938" 
d="M463 1419q158 0 264 -103.5t106 -258.5q0 -156 -106 -260t-264 -104q-156 0 -261 104t-105 260q0 154 105 258t261 104zM463 1287q-97 0 -161.5 -65t-64.5 -165q0 -101 64.5 -166.5t161.5 -65.5q99 0 164 65t65 167q0 100 -65 165t-164 65zM1488 1400l-883 -1400h-156
l883 1400h156zM1471 707q158 0 264 -104t106 -259q0 -156 -106 -259.5t-264 -103.5q-156 0 -261 103.5t-105 259.5q0 155 105 259t261 104zM1471 575q-97 0 -161.5 -65t-64.5 -166t64.5 -166t161.5 -65q99 0 164.5 65t65.5 166t-65.5 166t-164.5 65z" />
    <glyph glyph-name="ampersand" unicode="&#x26;" horiz-adv-x="1406" 
d="M1370 0h-216l-213 207q-87 -106 -190 -166t-241 -60q-184 0 -291.5 94t-107.5 256q0 65 21.5 124.5t64 111t85.5 91t104 85.5q-112 109 -158.5 186.5t-46.5 174.5q0 133 99 224t254 91q154 0 252 -86.5t98 -220.5q0 -58 -21 -110.5t-63.5 -100t-83.5 -83t-104 -81.5
l314 -305l217 324l120 -76l-232 -350zM519 122q98 0 171.5 45.5t146.5 139.5l-350 338q-104 -78 -160 -150t-56 -159q0 -95 69 -154.5t179 -59.5zM342 1095q0 -60 34.5 -111t134.5 -150q106 78 160 139t54 132q0 77 -52.5 125t-138.5 48q-87 0 -139.5 -51t-52.5 -132z" />
    <glyph glyph-name="quotesingle" unicode="'" horiz-adv-x="715" 
d="M283 1440h149v-507h-149v507z" />
    <glyph glyph-name="parenleft" unicode="(" horiz-adv-x="817" 
d="M684 1430l52 -137q-130 -53 -228 -162.5t-150.5 -255t-52.5 -307.5t52.5 -307.5t150.5 -254.5t228 -162l-52 -138q-242 93 -390.5 328t-148.5 534t148.5 534t390.5 328z" />
    <glyph glyph-name="parenright" unicode=")" horiz-adv-x="817" 
d="M133 -292l-52 137q130 53 228 162.5t150.5 255t52.5 307.5t-52.5 307.5t-150.5 254.5t-228 162l52 138q242 -93 390.5 -328t148.5 -534t-148.5 -534t-390.5 -328z" />
    <glyph glyph-name="asterisk" unicode="*" horiz-adv-x="897" 
d="M136 1255l256 -84v269h114v-269l255 84l35 -110l-255 -83l158 -217l-93 -67l-158 217l-157 -217l-93 67l158 217l-255 83z" />
    <glyph glyph-name="plus" unicode="+" horiz-adv-x="1200" 
d="M668 96h-139v365h-364v136h364v368h139v-368h367v-136h-367v-365z" />
    <glyph glyph-name="comma" unicode="," horiz-adv-x="494" 
d="M187 248h174l-105 -507h-129z" />
    <glyph glyph-name="hyphen" unicode="-" horiz-adv-x="838" 
d="M697 597v-136h-556v136h556z" />
    <glyph glyph-name="period" unicode="." horiz-adv-x="523" 
d="M262 232q50 0 87.5 -37.5t37.5 -87.5t-37.5 -88t-87.5 -38t-87.5 38t-37.5 88t37.5 87.5t87.5 37.5z" />
    <glyph glyph-name="slash" unicode="/" horiz-adv-x="992" 
d="M1005 1540l-849 -1740h-165l849 1740h165z" />
    <glyph glyph-name="zero" unicode="0" horiz-adv-x="1419" 
d="M709 1418q120 0 225 -49.5t184 -140t124.5 -227.5t45.5 -301t-45.5 -300.5t-124.5 -227t-184 -140.5t-225 -50q-119 0 -224.5 50t-184 140.5t-124 227t-45.5 300.5t45.5 301t124 227.5t184 140t224.5 49.5zM709 1270q-179 0 -297.5 -152t-118.5 -418t118.5 -418
t297.5 -152q180 0 299 152t119 418t-119 418t-299 152z" />
    <glyph glyph-name="one" unicode="1" horiz-adv-x="844" 
d="M634 1417v-1417h-154v1193l-414 -179v161z" />
    <glyph glyph-name="two" unicode="2" horiz-adv-x="1099" 
d="M197 1096l-112 90q156 232 429 232q208 0 327.5 -121.5t119.5 -311.5q0 -117 -51.5 -211t-136.5 -185l-418 -442h652v-147h-881v121l529 558q144 151 144 306q0 125 -77 205.5t-213 80.5q-109 0 -181.5 -47t-130.5 -128z" />
    <glyph glyph-name="three" unicode="3" horiz-adv-x="1113" 
d="M507 1418q207 0 335 -106.5t128 -276.5q0 -120 -58 -202t-161 -126q115 -42 182.5 -127t67.5 -205q0 -78 -26.5 -143t-72 -110.5t-106.5 -77.5t-131 -47t-145 -15q-144 0 -260 48t-194 136l99 103q66 -68 157.5 -105.5t194.5 -37.5q139 0 231 66t92 190q0 118 -96.5 186
t-241.5 68h-184v141h183q135 0 221.5 65t86.5 185q0 111 -88 179t-223 68q-99 0 -178.5 -44.5t-130.5 -114.5l-111 95q64 95 174 151.5t255 56.5z" />
    <glyph glyph-name="four" unicode="4" horiz-adv-x="1152" 
d="M860 830v-390h239v-146h-239v-294h-154v294h-654v119l523 986h175l-513 -959h469v390h154z" />
    <glyph glyph-name="five" unicode="5" horiz-adv-x="1156" 
d="M974 1400v-146h-618l-13 -414h206q236 0 362.5 -117t126.5 -295q0 -139 -65 -242t-172.5 -154t-241.5 -51q-295 0 -474 218l103 100q68 -81 166 -126t205 -45q149 0 234 81.5t85 205.5q0 125 -91 202t-285 77h-305l18 706h759z" />
    <glyph glyph-name="six" unicode="6" horiz-adv-x="1157" 
d="M788 1400l-363 -547q77 40 177 40q197 0 333.5 -131t136.5 -325q0 -195 -141.5 -325t-354.5 -130q-214 0 -355.5 130t-141.5 325q0 147 104 310l417 653h188zM576 750q-146 0 -241.5 -88t-96.5 -225q0 -136 96 -224t242 -88t241.5 88t95.5 224q0 137 -95.5 225t-241.5 88
z" />
    <glyph glyph-name="seven" unicode="7" horiz-adv-x="1095" 
d="M1029 1400v-121l-633 -1279h-180l627 1254h-764v146h950z" />
    <glyph glyph-name="eight" unicode="8" horiz-adv-x="1261" 
d="M630 1418q135 0 244 -44t175.5 -132.5t66.5 -206.5q0 -122 -66.5 -204t-177.5 -124q125 -42 201 -125t76 -209q0 -121 -70.5 -211.5t-187 -135.5t-261.5 -45t-261.5 45t-187 135.5t-70.5 211.5q0 126 76 209t201 125q-111 42 -177.5 124t-66.5 204q0 118 66.5 206.5
t175.5 132.5t244 44zM630 638q-154 0 -255 -67.5t-101 -188.5q0 -122 101 -189.5t255 -67.5q153 0 254 67.5t101 189.5q0 121 -101 188.5t-254 67.5zM630 1274q-139 0 -231 -65.5t-92 -181.5q0 -121 91.5 -187.5t231.5 -66.5t231.5 66.5t91.5 187.5q0 116 -92 181.5
t-231 65.5z" />
    <glyph glyph-name="nine" unicode="9" horiz-adv-x="1157" 
d="M369 0l342 529q-66 -22 -144 -22q-208 0 -345 130t-137 326q0 195 141 325t355 130t355.5 -130t141.5 -325q0 -147 -104 -310l-417 -653h-188zM581 650q146 0 241.5 88t95.5 225q0 136 -95.5 224t-241.5 88t-241.5 -88t-95.5 -224t95.5 -224.5t241.5 -88.5z" />
    <glyph glyph-name="colon" unicode=":" horiz-adv-x="523" 
d="M262 966q50 0 87.5 -37t37.5 -88q0 -50 -37.5 -88t-87.5 -38t-87.5 38t-37.5 88q0 51 37.5 88t87.5 37zM262 233q50 0 87.5 -37.5t37.5 -87.5t-37.5 -88t-87.5 -38t-87.5 38t-37.5 88t37.5 87.5t87.5 37.5z" />
    <glyph glyph-name="semicolon" unicode=";" horiz-adv-x="494" 
d="M257 966q50 0 87.5 -37t37.5 -88q0 -50 -37.5 -88t-87.5 -38t-87.5 38t-37.5 88q0 51 37.5 88t87.5 37zM187 248h174l-105 -507h-129z" />
    <glyph glyph-name="less" unicode="&#x3c;" horiz-adv-x="1200" 
d="M994 243v-159l-787 372v147l787 372v-159l-636 -286z" />
    <glyph glyph-name="equal" unicode="=" horiz-adv-x="1200" 
d="M1035 412v-136h-870v136h870zM1035 782v-136h-870v136h870z" />
    <glyph glyph-name="greater" unicode="&#x3e;" horiz-adv-x="1200" 
d="M207 816v159l787 -372v-147l-787 -372v159l636 286z" />
    <glyph glyph-name="question" unicode="?" horiz-adv-x="864" 
d="M345 445h-135v314h64q171 0 267.5 69t96.5 192q0 115 -96.5 181t-261.5 66q-48 0 -137 -7l-13 153q81 11 158 11q237 0 376.5 -108t139.5 -289q0 -173 -117.5 -278.5t-333.5 -128.5zM278 232q50 0 87 -37.5t37 -87.5t-37.5 -88t-86.5 -38q-50 0 -88 38t-38 88t38 87.5
t88 37.5z" />
    <glyph glyph-name="at" unicode="@" horiz-adv-x="1976" 
d="M1365 884v-462q0 -107 29.5 -157t89.5 -50q83 0 134.5 82t51.5 237q0 142 -52 264t-143 207t-217 133t-271 48q-192 0 -348 -88t-245 -245.5t-89 -352.5q0 -148 52 -277.5t142.5 -220.5t217 -143t270.5 -52q234 0 432 136l70 -96q-219 -160 -502 -160
q-232 0 -419.5 106.5t-293 292.5t-105.5 414q0 169 62 318.5t170 256.5t260 169t326 62q233 0 420.5 -100t293 -276.5t105.5 -395.5q0 -191 -88.5 -314t-240.5 -123q-90 0 -146.5 40t-78.5 109q-103 -145 -295 -145q-163 0 -273.5 113.5t-110.5 285.5t110.5 285.5
t273.5 113.5q181 0 281 -134v119h127zM974 778q-118 0 -193.5 -79.5t-75.5 -198.5t75.5 -198.5t193.5 -79.5t194 79t76 199t-76 199t-194 79z" />
    <glyph glyph-name="A" unicode="A" horiz-adv-x="1421" 
d="M810 1400l575 -1400h-172l-159 390h-693l-158 -390h-167l575 1400h199zM708 1241l-285 -699h570z" />
    <glyph glyph-name="B" unicode="B" horiz-adv-x="1402" 
d="M202 1400h542q234 0 370 -89.5t136 -279.5q0 -115 -57 -195.5t-154 -114.5q110 -36 175.5 -121t65.5 -211q0 -198 -134.5 -293.5t-375.5 -95.5h-568v1400zM763 635h-400v-484h400q82 0 143.5 12t109 39t71.5 75t24 117q0 132 -89.5 186.5t-258.5 54.5zM738 1249h-375
v-464h376q77 0 135.5 10.5t107 35.5t74 72.5t25.5 115.5q0 66 -25.5 112.5t-74.5 71.5t-107.5 35.5t-135.5 10.5z" />
    <glyph glyph-name="C" unicode="C" horiz-adv-x="1530" 
d="M844 1420q183 0 336 -77.5t235 -212.5l-134 -90q-70 105 -185 165t-252 60q-117 0 -219 -41.5t-176 -114.5t-116.5 -179t-42.5 -230t42.5 -230t116.5 -179t176 -114.5t219 -41.5q138 0 252 59t185 165l130 -96q-88 -132 -237.5 -207.5t-329.5 -75.5q-154 0 -288 54
t-229.5 148.5t-150.5 228.5t-55 289t55 289t150.5 228.5t229.5 148.5t288 54z" />
    <glyph glyph-name="D" unicode="D" horiz-adv-x="1598" 
d="M202 1400h527q343 0 545 -190t202 -510t-202 -510t-545 -190h-527v1400zM729 1248h-366v-1096h366q278 0 428 148t150 400q0 253 -149.5 400.5t-428.5 147.5z" />
    <glyph glyph-name="E" unicode="E" horiz-adv-x="1348" 
d="M1187 151v-151h-985v1400h976v-151h-815v-469h790v-150h-790v-479h824z" />
    <glyph glyph-name="F" unicode="F" horiz-adv-x="1292" 
d="M1133 781v-152h-770v-629h-161v1400h969v-152h-808v-467h770z" />
    <glyph glyph-name="G" unicode="G" horiz-adv-x="1639" 
d="M844 1420q165 0 305.5 -61.5t237.5 -173.5l-119 -114q-75 91 -185 142.5t-239 51.5q-117 0 -219 -41.5t-176 -114.5t-116.5 -179t-42.5 -230t42.5 -230t116 -179t174 -114.5t214.5 -41.5q220 0 352.5 123t151.5 340h-436v150h610q2 -28 2 -41q0 -205 -81 -369
t-237 -260.5t-362 -96.5q-111 0 -216 31t-195.5 92.5t-158.5 146.5t-107 201t-39 248q0 207 94 372t259.5 256.5t369.5 91.5z" />
    <glyph glyph-name="H" unicode="H" horiz-adv-x="1573" 
d="M363 1400v-619h847v619h161v-1400h-161v629h-847v-629h-161v1400h161z" />
    <glyph glyph-name="I" unicode="I" horiz-adv-x="565" 
d="M363 1400v-1400h-161v1400h161z" />
    <glyph glyph-name="J" unicode="J" horiz-adv-x="1150" 
d="M958 1400v-901q0 -244 -136 -381t-350 -137q-269 0 -432 197l108 110q122 -153 323 -153q151 0 239 98t88 282v885h160z" />
    <glyph glyph-name="K" unicode="K" horiz-adv-x="1388" 
d="M1145 0l-616 628h-166v-628h-161v1400h161v-620h169l581 620h208l-658 -687l701 -713h-219z" />
    <glyph glyph-name="L" unicode="L" horiz-adv-x="1213" 
d="M1173 152v-152h-971v1400h161v-1248h810z" />
    <glyph glyph-name="M" unicode="M" horiz-adv-x="1870" 
d="M1668 1400v-1400h-161v1220l-488 -1065h-169l-487 1057v-1212h-161v1400h244l489 -1058l488 1058h245z" />
    <glyph glyph-name="N" unicode="N" horiz-adv-x="1577" 
d="M1375 1400v-1400h-145l-867 1124v-1124h-161v1400h145l867 -1124v1124h161z" />
    <glyph glyph-name="O" unicode="O" horiz-adv-x="1689" 
d="M844 1420q206 0 371 -91.5t258.5 -256.5t93.5 -372t-93.5 -372t-258.5 -256.5t-371 -91.5q-154 0 -288 54t-229.5 148.5t-150.5 228.5t-55 289t55 289t150.5 228.5t229.5 148.5t288 54zM844 1265q-117 0 -219 -41.5t-176 -114.5t-116.5 -179t-42.5 -230t42.5 -230
t116.5 -179t176 -114.5t219 -41.5q157 0 283 70t199 200t73 295t-73 295t-199 200t-283 70z" />
    <glyph glyph-name="P" unicode="P" horiz-adv-x="1328" 
d="M731 563h-368v-563h-161v1400h529q235 0 365 -111t130 -308t-130 -307.5t-365 -110.5zM726 1248h-363v-534h363q163 0 248 67t85 200t-85 200t-248 67z" />
    <glyph glyph-name="Q" unicode="Q" horiz-adv-x="1689" 
d="M844 1420q206 0 371 -91.5t258.5 -256.5t93.5 -372q0 -268 -156 -461l185 -239h-189l-105 131q-192 -151 -458 -151q-154 0 -288 54t-229.5 148.5t-150.5 228.5t-55 289t55 289t150.5 228.5t229.5 148.5t288 54zM844 1265q-117 0 -219 -41.5t-176 -114.5t-116.5 -179
t-42.5 -230t42.5 -230t116.5 -179t176 -114.5t219 -41.5q211 0 359 123l-324 415h192l235 -300q93 140 93 327q0 165 -73 295t-199 200t-283 70z" />
    <glyph glyph-name="R" unicode="R" horiz-adv-x="1353" 
d="M202 1400h549q236 0 362.5 -102.5t126.5 -292.5q0 -182 -131.5 -289t-355.5 -107h-23l503 -609h-200l-493 609h-177v-609h-161v1400zM749 1249h-386v-494h386q159 0 241.5 63.5t82.5 186.5q0 121 -83 182.5t-241 61.5z" />
    <glyph glyph-name="S" unicode="S" horiz-adv-x="1346" 
d="M1198 1265l-82 -130q-192 131 -422 131q-161 0 -261.5 -68t-100.5 -185q0 -97 79.5 -152t243.5 -75l133 -16q92 -11 166.5 -36t137.5 -67t98 -110t35 -155q0 -134 -76.5 -231t-200 -143.5t-277.5 -46.5q-151 0 -300.5 49.5t-249.5 130.5l88 128q77 -65 204 -110.5
t257 -45.5q170 0 279 67t109 188q0 100 -84.5 155t-254.5 74l-141 16q-190 22 -301.5 113t-111.5 257q0 129 72 224.5t191 143t267 47.5q284 0 503 -153z" />
    <glyph glyph-name="T" unicode="T" horiz-adv-x="1212" 
d="M1172 1400v-152h-486v-1248h-160v1248h-486v152h1132z" />
    <glyph glyph-name="U" unicode="U" horiz-adv-x="1517" 
d="M1335 1400v-852q0 -139 -45 -248.5t-124 -178t-182.5 -104.5t-225.5 -36t-225.5 36t-182.5 104.5t-123.5 178t-44.5 248.5v852h160v-840q0 -211 114 -318t302 -107t302 107t114 318v840h161z" />
    <glyph glyph-name="V" unicode="V" horiz-adv-x="1394" 
d="M1358 1400l-561 -1400h-199l-562 1400h171l492 -1240l493 1240h166z" />
    <glyph glyph-name="W" unicode="W" horiz-adv-x="2197" 
d="M2139 1400l-455 -1400h-198l-388 1186l-388 -1186h-197l-455 1400h168l387 -1218l396 1218h182l395 -1219l388 1219h165z" />
    <glyph glyph-name="X" unicode="X" horiz-adv-x="1367" 
d="M1284 1400l-502 -684l525 -716h-194l-431 593l-432 -593h-190l525 716l-501 684h194l407 -561l408 561h191z" />
    <glyph glyph-name="Y" unicode="Y" horiz-adv-x="1287" 
d="M1276 1400l-551 -813v-587h-160v589l-554 811h192l443 -664l443 664h187z" />
    <glyph glyph-name="Z" unicode="Z" horiz-adv-x="1314" 
d="M1190 1400v-124l-855 -1124h858v-152h-1072v124l856 1124h-846v152h1059z" />
    <glyph glyph-name="bracketleft" unicode="[" horiz-adv-x="752" 
d="M671 -125v-138h-469v1663h469v-138h-315v-1387h315z" />
    <glyph glyph-name="backslash" unicode="\" horiz-adv-x="992" 
d="M836 -200l-849 1740h165l849 -1740h-165z" />
    <glyph glyph-name="bracketright" unicode="]" horiz-adv-x="752" 
d="M81 1262v138h469v-1663h-469v138h315v1387h-315z" />
    <glyph glyph-name="asciicircum" unicode="^" horiz-adv-x="1200" 
d="M329 648h-158l356 752h146l356 -752h-162l-269 596z" />
    <glyph glyph-name="underscore" unicode="_" horiz-adv-x="937" 
d="M942 -136v-136h-947v136h947z" />
    <glyph glyph-name="grave" unicode="`" horiz-adv-x="939" 
d="M669 1092h-147l-251 300h189z" />
    <glyph glyph-name="a" unicode="a" horiz-adv-x="1246" 
d="M1071 947v-947h-149v141q-124 -160 -346 -160q-201 0 -337 140.5t-136 352.5t136 352t337 140q221 0 346 -160v141h149zM594 826q-150 0 -244.5 -101.5t-94.5 -250.5t95 -251t244 -102q147 0 242 100.5t95 252.5q0 151 -95 251.5t-242 100.5z" />
    <glyph glyph-name="b" unicode="b" horiz-adv-x="1246" 
d="M670 966q201 0 337 -140t136 -352t-136 -352.5t-337 -140.5q-221 0 -345 159v-140h-150v1440h150v-633q124 159 345 159zM652 826q-147 0 -242 -100.5t-95 -251.5q0 -152 95 -252.5t242 -100.5q150 0 244 101.5t94 251.5q0 149 -95 250.5t-243 101.5z" />
    <glyph glyph-name="c" unicode="c" horiz-adv-x="1024" 
d="M593 966q106 0 197 -38.5t154 -110.5l-96 -101q-113 110 -259 110q-143 0 -238.5 -100t-95.5 -252q0 -153 95.5 -253t238.5 -100q148 0 262 111l93 -102q-64 -72 -155 -110.5t-196 -38.5q-216 0 -353 140t-137 353q0 212 137 352t353 140z" />
    <glyph glyph-name="d" unicode="d" horiz-adv-x="1246" 
d="M576 966q221 0 346 -160v634h149v-1440h-149v141q-124 -160 -346 -160q-201 0 -337 140.5t-136 352.5t136 352t337 140zM594 826q-150 0 -244.5 -101.5t-94.5 -250.5t95 -251t244 -102q147 0 242 100.5t95 252.5q0 151 -95 251.5t-242 100.5z" />
    <glyph glyph-name="e" unicode="e" horiz-adv-x="1121" 
d="M573 966q193 0 318.5 -137t126.5 -352q0 -31 -3 -56h-759q15 -148 108 -228.5t227 -80.5q170 0 300 119l80 -102q-155 -148 -389 -148q-211 0 -345 136.5t-134 355.5q0 216 133 354.5t337 138.5zM570 833q-128 0 -211 -80t-101 -211h608q-14 133 -94.5 212t-201.5 79z
" />
    <glyph glyph-name="f" unicode="f" horiz-adv-x="863" 
d="M796 947v-135h-377v-812h-150v812h-216v135h216v162q0 161 77 255.5t238 94.5q143 0 259 -71l-54 -125q-95 56 -195 56q-175 0 -175 -210v-162h377z" />
    <glyph glyph-name="g" unicode="g" horiz-adv-x="1235" 
d="M572 966q220 0 338 -161v142h150v-882q0 -227 -138 -353.5t-363 -126.5q-114 0 -220.5 33.5t-178.5 93.5l66 120q147 -111 333 -111q158 0 254.5 88t96.5 250v97q-117 -161 -338 -161q-201 0 -335 136.5t-134 349.5t134 349t335 136zM589 826q-148 0 -241 -99.5
t-93 -245.5q0 -147 93 -246.5t241 -99.5q145 0 239.5 98.5t94.5 247.5q0 147 -94.5 246t-239.5 99z" />
    <glyph glyph-name="h" unicode="h" horiz-adv-x="1201" 
d="M325 1440v-625q55 78 139 114.5t178 36.5q176 0 285.5 -104t109.5 -275v-587h-149v538q0 135 -71.5 210.5t-201.5 75.5q-123 0 -206.5 -79.5t-83.5 -210.5v-534h-150v1440h150z" />
    <glyph glyph-name="i" unicode="i" horiz-adv-x="500" 
d="M325 947v-947h-150v947h150zM250 1389q44 0 75 -30.5t31 -75.5t-30.5 -75t-75.5 -30t-75 30t-30 75t30 75.5t75 30.5z" />
    <glyph glyph-name="j" unicode="j" horiz-adv-x="504" 
d="M329 947v-1103q0 -124 -63.5 -191.5t-172.5 -67.5q-79 0 -136 32l36 129q40 -20 87 -20q99 0 99 125v1096h150zM253 1389q44 0 75 -30.5t31 -75.5t-30.5 -75t-75.5 -30t-75 30t-30 75t30 75.5t75 30.5z" />
    <glyph glyph-name="k" unicode="k" horiz-adv-x="1058" 
d="M325 1440v-877h137l365 384h187l-430 -446l437 -501h-189l-371 427h-136v-427h-150v1440h150z" />
    <glyph glyph-name="l" unicode="l" horiz-adv-x="500" 
d="M325 1440v-1440h-150v1440h150z" />
    <glyph glyph-name="m" unicode="m" horiz-adv-x="1914" 
d="M1354 966q177 0 286.5 -104t109.5 -275v-587h-149v538q0 135 -72 210.5t-202 75.5q-123 0 -206.5 -79.5t-83.5 -210.5v-534h-149v538q0 135 -71.5 210.5t-201.5 75.5q-123 0 -206.5 -79.5t-83.5 -210.5v-534h-150v947h148v-135q54 80 139 117t180 37q123 0 216 -52.5
t139 -146.5q53 103 149.5 151t207.5 48z" />
    <glyph glyph-name="n" unicode="n" horiz-adv-x="1201" 
d="M642 966q176 0 285.5 -104t109.5 -275v-587h-149v538q0 135 -71.5 210.5t-201.5 75.5q-123 0 -206.5 -79.5t-83.5 -210.5v-534h-150v947h148v-135q54 80 139 117t180 37z" />
    <glyph glyph-name="o" unicode="o" horiz-adv-x="1203" 
d="M601 966q214 0 356.5 -141t142.5 -351q0 -211 -142.5 -352t-356.5 -141t-356 141t-142 352q0 210 142.5 351t355.5 141zM601 826q-148 0 -247 -100t-99 -252q0 -153 99 -253t247 -100t247 100t99 253q0 152 -99 252t-247 100z" />
    <glyph glyph-name="p" unicode="p" horiz-adv-x="1246" 
d="M670 966q201 0 337 -140t136 -352t-136 -352.5t-337 -140.5q-221 0 -345 159v-540h-150v1347h150v-140q124 159 345 159zM652 826q-147 0 -242 -100.5t-95 -251.5q0 -152 95 -252.5t242 -100.5q150 0 244 101.5t94 251.5q0 149 -95 250.5t-243 101.5z" />
    <glyph glyph-name="q" unicode="q" horiz-adv-x="1246" 
d="M576 966q221 0 346 -160v141h149v-1347h-149v541q-124 -160 -346 -160q-201 0 -337 140.5t-136 352.5t136 352t337 140zM594 826q-150 0 -244.5 -101.5t-94.5 -250.5t95 -251t244 -102q147 0 242 100.5t95 252.5q0 151 -95 251.5t-242 100.5z" />
    <glyph glyph-name="r" unicode="r" horiz-adv-x="830" 
d="M604 966q104 0 174 -32l-36 -147q-70 38 -164 38q-112 0 -183 -81t-71 -214v-530h-149v947h148v-133q49 73 121.5 112.5t159.5 39.5z" />
    <glyph glyph-name="s" unicode="s" horiz-adv-x="987" 
d="M876 862l-65 -116q-52 36 -136.5 62.5t-173.5 26.5q-102 0 -163 -40t-61 -109q0 -110 193 -133l112 -14q318 -41 318 -264q0 -135 -113 -214t-304 -79q-235 0 -395 121l69 112q132 -103 328 -103q122 0 191.5 39.5t69.5 113.5q0 114 -198 138l-113 13q-157 19 -235 86.5
t-78 175.5q0 133 103 210t275 77q109 0 207 -28t169 -75z" />
    <glyph glyph-name="t" unicode="t" horiz-adv-x="906" 
d="M818 947v-135h-409v-478q0 -107 51 -160t137 -53q107 0 199 67l70 -113q-124 -94 -281 -94q-156 0 -240.5 87.5t-84.5 262.5v481h-207v135h207v301h149v-301h409z" />
    <glyph glyph-name="u" unicode="u" horiz-adv-x="1188" 
d="M1024 947v-552q0 -102 -35 -182.5t-95 -130.5t-136.5 -75.5t-163.5 -25.5q-88 0 -164.5 25.5t-136.5 75.5t-94.5 130.5t-34.5 182.5v552h149v-538q0 -142 77 -215t204 -73t203.5 73t76.5 215v538h150z" />
    <glyph glyph-name="v" unicode="v" horiz-adv-x="1042" 
d="M1012 947l-403 -949h-175l-404 949h162l331 -797l331 797h158z" />
    <glyph glyph-name="w" unicode="w" horiz-adv-x="1706" 
d="M937 947l284 -792l285 792h155l-350 -947h-177l-283 787l-282 -787h-174l-350 947h159l283 -791l282 791h168z" />
    <glyph glyph-name="x" unicode="x" horiz-adv-x="1023" 
d="M977 947l-370 -462l381 -485h-183l-299 374l-296 -374h-175l380 484l-370 463h183l286 -359l287 359h176z" />
    <glyph glyph-name="y" unicode="y" horiz-adv-x="1054" 
d="M1039 947l-771 -1351h-165l353 609l-435 742h167l353 -594l334 594h164z" />
    <glyph glyph-name="z" unicode="z" horiz-adv-x="1055" 
d="M924 947v-109l-604 -703h613v-135h-811v108l610 704h-592v135h784z" />
    <glyph glyph-name="braceleft" unicode="{" horiz-adv-x="854" 
d="M773 1262h-59q-105 0 -165.5 -61t-53.5 -176l8 -134q7 -124 -46 -206t-158 -116q105 -34 158 -116t46 -206l-8 -134q-7 -115 53.5 -176t165.5 -61h59v-138h-59q-185 0 -283.5 102.5t-88.5 288.5l7 134q7 117 -54.5 177t-173.5 60v138q112 0 173.5 60t54.5 177l-7 134
q-10 186 88.5 288.5t283.5 102.5h59v-138z" />
    <glyph glyph-name="bar" unicode="|" horiz-adv-x="715" 
d="M432 1400v-1665h-149v1665h149z" />
    <glyph glyph-name="braceright" unicode="}" horiz-adv-x="854" 
d="M81 -124h59q105 0 165.5 61t53.5 176l-8 134q-7 124 46 206t158 116q-105 34 -158 116t-46 206l8 134q7 115 -53.5 176t-165.5 61h-59v138h59q185 0 283.5 -102.5t88.5 -288.5l-7 -134q-7 -117 54.5 -177t173.5 -60v-138q-112 0 -173.5 -60t-54.5 -177l7 -134
q10 -186 -88.5 -288.5t-283.5 -102.5h-59v138z" />
    <glyph glyph-name="asciitilde" unicode="~" horiz-adv-x="1200" 
d="M966 633l82 -94q-56 -61 -118 -89.5t-146 -28.5q-62 0 -116 13.5t-86.5 29.5t-79.5 29.5t-97 13.5q-47 0 -87 -20t-85 -63l-81 94q55 61 117 89.5t146 28.5q63 0 117 -13.5t86 -29.5t79 -29.5t97 -13.5q47 0 87 20t85 63z" />
    <glyph glyph-name="uni00A0" unicode="&#xa0;" horiz-adv-x="534" 
 />
    <glyph glyph-name="exclamdown" unicode="&#xa1;" horiz-adv-x="524" 
d="M171 -453l24 955h135l24 -955h-183zM262 714q-50 0 -87.5 37.5t-37.5 87.5t37.5 88t87.5 38t87.5 -38t37.5 -88t-37.5 -87.5t-87.5 -37.5z" />
    <glyph glyph-name="cent" unicode="&#xa2;" horiz-adv-x="1400" 
d="M679 1400h138v-211q199 -14 320 -146l-88 -97q-104 94 -232 107v-707q135 16 236 109l84 -98q-124 -133 -320 -147v-210h-138v216q-187 30 -300.5 163.5t-113.5 320.5t113.5 320t300.5 163v217zM412 700q0 -129 74 -222.5t193 -122.5v690q-119 -29 -193 -122.5
t-74 -222.5z" />
    <glyph glyph-name="sterling" unicode="&#xa3;" horiz-adv-x="1400" 
d="M1216 147v-147h-1032v147h179v485h-179v136h179v137q0 125 37 224t102 161.5t149 95t182 32.5q233 0 367 -162l-113 -100q-91 115 -254 115q-142 0 -229 -95t-87 -282v-126h528v-136h-528v-485h699z" />
    <glyph glyph-name="currency" unicode="&#xa4;" horiz-adv-x="1400" 
d="M205 1108l87 88l146 -145q118 87 264 87q148 0 263 -87l143 145l88 -88l-144 -144q89 -118 89 -264q0 -147 -88 -265l144 -143l-88 -88l-144 144q-115 -87 -263 -87t-265 88l-144 -145l-87 88l144 144q-88 117 -88 264q0 148 87 263zM702 383q131 0 223 92t92 225
q0 132 -92 224t-223 92q-133 0 -224.5 -92t-91.5 -224q0 -133 91.5 -225t224.5 -92z" />
    <glyph glyph-name="yen" unicode="&#xa5;" horiz-adv-x="1400" 
d="M1179 440v-123h-397v-317h-154v317h-397v123h397v197h-397v123h330l-454 640h184l414 -593l408 593h181l-448 -640h333v-123h-397v-197h397z" />
    <glyph glyph-name="brokenbar" unicode="&#xa6;" horiz-adv-x="715" 
d="M432 1400v-694h-149v694h149zM432 429v-694h-149v694h149z" />
    <glyph glyph-name="section" unicode="&#xa7;" horiz-adv-x="1309" 
d="M1130 1282l-73 -122q-177 119 -378 119q-145 0 -236.5 -56t-91.5 -150q0 -81 76 -125.5t226 -61.5l116 -13q83 -9 151 -31t124.5 -58.5t88 -93.5t31.5 -129q0 -164 -159 -257q138 -83 138 -234q0 -88 -40 -158t-109 -113.5t-158.5 -66.5t-192.5 -23q-141 0 -273.5 43
t-224.5 114l80 121q75 -59 185 -98.5t233 -39.5q153 0 250 54t98 155q0 152 -310 186l-126 14q-82 10 -148.5 32.5t-119 59.5t-81 93.5t-28.5 128.5q0 161 154 253q-134 83 -134 238q0 163 136.5 259t343.5 96q251 0 452 -136zM577 749q-49 5 -107 19q-66 -27 -103 -74.5
t-37 -111.5q0 -81 76 -125.5t226 -61.5l118 -13q66 -8 119 -22q67 26 105 74.5t38 114.5q0 150 -310 186z" />
    <glyph glyph-name="dieresis" unicode="&#xa8;" horiz-adv-x="953" 
d="M273 1343q44 0 75 -31t31 -76t-30.5 -75t-75.5 -30t-75.5 30t-30.5 75t30.5 76t75.5 31zM679 1343q44 0 75 -31t31 -76t-30.5 -75t-75.5 -30t-75 30t-30 75t30 76t75 31z" />
    <glyph glyph-name="copyright" unicode="&#xa9;" horiz-adv-x="1903" 
d="M951 1508q164 0 313 -63.5t257 -170.5t172 -255.5t64 -310.5q0 -163 -64 -311.5t-172 -256t-257 -171t-313 -63.5q-132 0 -255 40.5t-222 115t-173.5 173t-115 221t-40.5 252.5q0 163 63.5 311t171.5 255t257.5 170.5t313.5 63.5zM951 1376q-137 0 -261 -52.5
t-213.5 -142t-142.5 -213.5t-53 -260q0 -137 53 -261t142.5 -213.5t213.5 -142.5t261 -53q136 0 260 53t214 142.5t143 213.5t53 261q0 136 -53 260t-143 213t-214 142t-260 53zM1314 959l-111 -75q-39 58 -99 90t-133 32q-121 0 -202.5 -84t-81.5 -214q0 -136 82 -217.5
t202 -81.5q72 0 133 32.5t101 89.5l105 -82q-56 -80 -143.5 -125t-194.5 -45q-183 0 -304.5 121t-121.5 308t121.5 308t304.5 121q108 0 198.5 -47.5t143.5 -130.5z" />
    <glyph glyph-name="ordfeminine" unicode="&#xaa;" horiz-adv-x="785" 
d="M373 1292q137 0 215.5 -70.5t78.5 -208.5v-396h-121v89q-92 -103 -233 -103q-107 0 -170.5 57t-63.5 148t72 144t201 53h191q-3 177 -184 177q-107 0 -197 -71l-49 95q112 86 260 86zM341 705q118 0 204 100v113h-175q-82 0 -122 -30t-40 -77q0 -45 35 -75.5t98 -30.5z
" />
    <glyph glyph-name="guillemotleft" unicode="&#xab;" horiz-adv-x="1021" 
d="M683 529l191 -370h-160l-192 370l192 370h160zM287 529l191 -370h-160l-192 370l192 370h160z" />
    <glyph glyph-name="logicalnot" unicode="&#xac;" horiz-adv-x="1200" 
d="M1035 597v-450h-138v314h-732v136h870z" />
    <glyph glyph-name="uni00AD" unicode="&#xad;" horiz-adv-x="838" 
d="M697 597v-136h-556v136h556z" />
    <glyph glyph-name="registered" unicode="&#xae;" horiz-adv-x="930" 
d="M466 1435q172 0 293.5 -119.5t121.5 -288.5q0 -168 -122 -288t-293 -120q-175 0 -296.5 120t-121.5 288q0 170 121.5 289t296.5 119zM466 709q131 0 223 93t92 225q0 133 -92 225t-223 92q-134 0 -226.5 -92t-92.5 -225q0 -132 92.5 -225t226.5 -93zM490 1218
q72 0 112 -32.5t40 -88.5q0 -47 -32 -77.5t-89 -37.5l124 -143h-97l-115 142h-37v-142h-81v379h175zM489 1147h-93v-101h93q70 0 70 51q0 50 -70 50z" />
    <glyph glyph-name="macron" unicode="&#xaf;" horiz-adv-x="939" 
d="M171 1175v121h598v-121h-598z" />
    <glyph glyph-name="degree" unicode="&#xb0;" horiz-adv-x="795" 
d="M397 728q-145 0 -247 101t-102 245q0 143 102 244t247 101q144 0 246.5 -101t102.5 -244q0 -144 -102.5 -245t-246.5 -101zM397 850q90 0 155 65.5t65 158.5q0 92 -65 157.5t-155 65.5q-91 0 -156 -65t-65 -158t65 -158.5t156 -65.5z" />
    <glyph glyph-name="plusminus" unicode="&#xb1;" horiz-adv-x="1200" 
d="M668 293h-139v303h-364v135h364v348h139v-348h367v-135h-367v-303zM1035 181v-136h-870v136h870z" />
    <glyph glyph-name="twosuperior" unicode="&#xb2;" horiz-adv-x="681" 
d="M145 1200l-80 77q97 133 262 133q120 0 190 -68t70 -176q0 -67 -29 -120.5t-86 -110.5l-201 -203h340v-115h-517v97l291 291q74 74 74 151q0 60 -38.5 98t-104.5 38q-96 0 -171 -92z" />
    <glyph glyph-name="threesuperior" unicode="&#xb3;" horiz-adv-x="685" 
d="M308 1410q122 0 198 -59.5t76 -156.5q0 -65 -34 -112t-94 -71q67 -23 106 -70.5t39 -111.5q0 -107 -83.5 -165t-201.5 -58q-169 0 -264 106l72 82q74 -77 186 -77q70 0 116.5 31.5t46.5 90.5q0 55 -49 86.5t-122 31.5h-100v110h100q68 0 111 30.5t43 86.5q0 53 -42 84
t-110 31q-106 0 -174 -83l-74 79q91 115 254 115z" />
    <glyph glyph-name="acute" unicode="&#xb4;" horiz-adv-x="939" 
d="M418 1092h-147l209 300h189z" />
    <glyph glyph-name="mu" unicode="&#xb5;" horiz-adv-x="1201" 
d="M312 -400h-148v1347h149v-538q0 -135 71.5 -210.5t201.5 -75.5q123 0 206.5 79.5t83.5 210.5v534h150v-947h-148v135q-54 -80 -139 -117t-180 -37q-74 0 -140 24.5t-107 68.5v-474z" />
    <glyph glyph-name="paragraph" unicode="&#xb6;" horiz-adv-x="1172" 
d="M547 0v705q-192 1 -298 93t-106 254q0 163 106 255.5t298 92.5h119v-1400h-119zM770 0v1400h119v-1400h-119z" />
    <glyph glyph-name="periodcentered" unicode="&#xb7;" horiz-adv-x="715" 
d="M359 654q50 0 87 -37t37 -87q0 -51 -37 -88.5t-87 -37.5t-88 37.5t-38 88.5q0 50 38 87t88 37z" />
    <glyph glyph-name="cedilla" unicode="&#xb8;" horiz-adv-x="988" 
d="M623 5l-103 -328h-156l109 329z" />
    <glyph glyph-name="onesuperior" unicode="&#xb9;" horiz-adv-x="550" 
d="M391 1409v-792h-124v620l-217 -87v122z" />
    <glyph glyph-name="ordmasculine" unicode="&#xba;" horiz-adv-x="856" 
d="M428 1292q150 0 249.5 -98t99.5 -246t-99.5 -246.5t-249.5 -98.5t-249.5 98.5t-99.5 246.5t99.5 246t249.5 98zM428 1177q-96 0 -159.5 -65t-63.5 -164t63.5 -164t159.5 -65t160 65t64 164t-64 164t-160 65z" />
    <glyph glyph-name="guillemotright" unicode="&#xbb;" horiz-adv-x="1021" 
d="M338 529l-191 370h160l192 -370l-192 -370h-160zM734 529l-191 370h160l192 -370l-192 -370h-160z" />
    <glyph glyph-name="onequarter" unicode="&#xbc;" horiz-adv-x="1626" 
d="M1308 1400l-883 -1400h-149l883 1400h149zM1465 482v-217h121v-113h-121v-152h-124v152h-365v89l276 541h137l-267 -517h219v217h124zM391 1409v-792h-124v620l-217 -87v122z" />
    <glyph glyph-name="onehalf" unicode="&#xbd;" horiz-adv-x="1691" 
d="M1308 1400l-883 -1400h-149l883 1400h149zM1155 583l-80 77q97 133 262 133q120 0 190 -68t70 -176q0 -67 -29 -120.5t-86 -110.5l-201 -203h340v-115h-517v97l291 291q74 74 74 151q0 60 -38.5 98t-104.5 38q-96 0 -171 -92zM391 1409v-792h-124v620l-217 -87v122z" />
    <glyph glyph-name="threequarters" unicode="&#xbe;" horiz-adv-x="1736" 
d="M1419 1400l-883 -1400h-149l883 1400h149zM1575 482v-217h121v-113h-121v-152h-124v152h-365v89l276 541h137l-267 -517h219v217h124zM308 1410q122 0 198 -59.5t76 -156.5q0 -65 -34 -112t-94 -71q67 -23 106 -70.5t39 -111.5q0 -107 -83.5 -165t-201.5 -58
q-169 0 -264 106l72 82q74 -77 186 -77q70 0 116.5 31.5t46.5 90.5q0 55 -49 86.5t-122 31.5h-100v110h100q68 0 111 30.5t43 86.5q0 53 -42 84t-110 31q-106 0 -174 -83l-74 79q91 115 254 115z" />
    <glyph glyph-name="questiondown" unicode="&#xbf;" horiz-adv-x="864" 
d="M519 502h135v-314h-64q-171 0 -267.5 -69t-96.5 -192q0 -115 96.5 -181t261.5 -66q48 0 137 7l13 -153q-81 -11 -158 -11q-237 0 -376.5 108t-139.5 289q0 173 117.5 278.5t332.5 127.5zM586 715q-50 0 -87 37.5t-37 87.5t37.5 88t86.5 38q50 0 88 -38t38 -88t-38 -87.5
t-88 -37.5z" />
    <glyph glyph-name="Agrave" unicode="&#xc0;" horiz-adv-x="1421" 
d="M810 1400l575 -1400h-172l-159 390h-693l-158 -390h-167l575 1400h199zM708 1241l-285 -699h570zM694 1507l-251 300h189l210 -300h-148z" />
    <glyph glyph-name="Aacute" unicode="&#xc1;" horiz-adv-x="1421" 
d="M810 1400l575 -1400h-172l-159 390h-693l-158 -390h-167l575 1400h199zM708 1241l-285 -699h570zM718 1507h-148l209 300h190z" />
    <glyph glyph-name="Acircumflex" unicode="&#xc2;" horiz-adv-x="1421" 
d="M810 1400l575 -1400h-172l-159 390h-693l-158 -390h-167l575 1400h199zM708 1241l-285 -699h570zM1045 1508h-160l-174 189l-175 -189h-160l235 288h200z" />
    <glyph glyph-name="Atilde" unicode="&#xc3;" horiz-adv-x="1421" 
d="M810 1400l575 -1400h-172l-159 390h-693l-158 -390h-167l575 1400h199zM708 1241l-285 -699h570zM447 1564l-88 85q46 57 97.5 84t121.5 27q58 0 106.5 -20t87 -39.5t72.5 -19.5q66 0 130 67l89 -85q-46 -57 -98 -84t-121 -27q-57 0 -105.5 20t-87 40t-73.5 20
q-66 0 -131 -68z" />
    <glyph glyph-name="Adieresis" unicode="&#xc4;" horiz-adv-x="1421" 
d="M810 1400l575 -1400h-172l-159 390h-693l-158 -390h-167l575 1400h199zM708 1241l-285 -699h570zM508 1758q44 0 75 -31t31 -76t-30.5 -75t-75.5 -30t-75.5 30t-30.5 75t30.5 76t75.5 31zM914 1758q44 0 75 -31t31 -76t-30.5 -75t-75.5 -30t-75 30t-30 75t30 76t75 31z
" />
    <glyph glyph-name="Aring" unicode="&#xc5;" horiz-adv-x="1421" 
d="M810 1400l575 -1400h-172l-159 390h-693l-158 -390h-167l575 1400h199zM708 1241l-285 -699h570zM711 1487q-93 0 -160 66t-67 159q0 92 67 158t160 66q94 0 161 -66t67 -158q0 -93 -67 -159t-161 -66zM711 1582q53 0 90.5 38t37.5 92t-37.5 91.5t-90.5 37.5t-90 -37.5
t-37 -91.5q0 -55 37 -92.5t90 -37.5z" />
    <glyph glyph-name="AE" unicode="&#xc6;" horiz-adv-x="2283" 
d="M2122 151v-151h-985v365h-638l-276 -365h-194l1064 1400h1020v-151h-815v-469h790v-150h-790v-479h824zM614 517h523v690z" />
    <glyph glyph-name="Ccedilla" unicode="&#xc7;" horiz-adv-x="1530" 
d="M844 1420q183 0 336 -77.5t235 -212.5l-134 -90q-70 105 -185 165t-252 60q-117 0 -219 -41.5t-176 -114.5t-116.5 -179t-42.5 -230t42.5 -230t116.5 -179t176 -114.5t219 -41.5q138 0 252 59t185 165l130 -96q-78 -117 -205 -190t-281 -89l-96 -307h-163l103 307
q-285 25 -466.5 223.5t-181.5 492.5q0 155 55 289t150.5 228.5t229.5 148.5t288 54z" />
    <glyph glyph-name="Egrave" unicode="&#xc8;" horiz-adv-x="1348" 
d="M1187 151v-151h-985v1400h976v-151h-815v-469h790v-150h-790v-479h824zM668 1507l-251 300h189l210 -300h-148z" />
    <glyph glyph-name="Eacute" unicode="&#xc9;" horiz-adv-x="1348" 
d="M1187 151v-151h-985v1400h976v-151h-815v-469h790v-150h-790v-479h824zM692 1507h-148l209 300h190z" />
    <glyph glyph-name="Ecircumflex" unicode="&#xca;" horiz-adv-x="1348" 
d="M1187 151v-151h-985v1400h976v-151h-815v-469h790v-150h-790v-479h824zM1019 1508h-160l-174 189l-175 -189h-160l235 288h200z" />
    <glyph glyph-name="Edieresis" unicode="&#xcb;" horiz-adv-x="1348" 
d="M1187 151v-151h-985v1400h976v-151h-815v-469h790v-150h-790v-479h824zM482 1758q44 0 75 -31t31 -76t-30.5 -75t-75.5 -30t-75.5 30t-30.5 75t30.5 76t75.5 31zM888 1758q44 0 75 -31t31 -76t-30.5 -75t-75.5 -30t-75 30t-30 75t30 76t75 31z" />
    <glyph glyph-name="Igrave" unicode="&#xcc;" horiz-adv-x="565" 
d="M363 1400v-1400h-161v1400h161zM265 1507l-251 300h189l210 -300h-148z" />
    <glyph glyph-name="Iacute" unicode="&#xcd;" horiz-adv-x="565" 
d="M363 1400v-1400h-161v1400h161zM289 1507h-148l209 300h190z" />
    <glyph glyph-name="Icircumflex" unicode="&#xce;" horiz-adv-x="565" 
d="M363 1400v-1400h-161v1400h161zM616 1508h-160l-174 189l-175 -189h-160l235 288h200z" />
    <glyph glyph-name="Idieresis" unicode="&#xcf;" horiz-adv-x="565" 
d="M363 1400v-1400h-161v1400h161zM79 1758q44 0 75 -31t31 -76t-30.5 -75t-75.5 -30t-75.5 30t-30.5 75t30.5 76t75.5 31zM485 1758q44 0 75 -31t31 -76t-30.5 -75t-75.5 -30t-75 30t-30 75t30 76t75 31z" />
    <glyph glyph-name="Eth" unicode="&#xd0;" horiz-adv-x="1749" 
d="M353 1400h527q343 0 545 -190t202 -510t-202 -510t-545 -190h-527v629h-232v152h232v619zM917 781v-152h-403v-477h366q278 0 428 148t150 400q0 253 -149.5 400.5t-428.5 147.5h-366v-467h403z" />
    <glyph glyph-name="Ntilde" unicode="&#xd1;" horiz-adv-x="1577" 
d="M1375 1400v-1400h-145l-867 1124v-1124h-161v1400h145l867 -1124v1124h161zM524 1564l-88 85q46 57 97.5 84t121.5 27q58 0 106.5 -20t87 -39.5t72.5 -19.5q66 0 130 67l89 -85q-46 -57 -98 -84t-121 -27q-57 0 -105.5 20t-87 40t-73.5 20q-66 0 -131 -68z" />
    <glyph glyph-name="Ograve" unicode="&#xd2;" horiz-adv-x="1689" 
d="M844 1420q206 0 371 -91.5t258.5 -256.5t93.5 -372t-93.5 -372t-258.5 -256.5t-371 -91.5q-154 0 -288 54t-229.5 148.5t-150.5 228.5t-55 289t55 289t150.5 228.5t229.5 148.5t288 54zM844 1265q-117 0 -219 -41.5t-176 -114.5t-116.5 -179t-42.5 -230t42.5 -230
t116.5 -179t176 -114.5t219 -41.5q157 0 283 70t199 200t73 295t-73 295t-199 200t-283 70zM827 1507l-251 300h189l210 -300h-148z" />
    <glyph glyph-name="Oacute" unicode="&#xd3;" horiz-adv-x="1689" 
d="M844 1420q206 0 371 -91.5t258.5 -256.5t93.5 -372t-93.5 -372t-258.5 -256.5t-371 -91.5q-154 0 -288 54t-229.5 148.5t-150.5 228.5t-55 289t55 289t150.5 228.5t229.5 148.5t288 54zM844 1265q-117 0 -219 -41.5t-176 -114.5t-116.5 -179t-42.5 -230t42.5 -230
t116.5 -179t176 -114.5t219 -41.5q157 0 283 70t199 200t73 295t-73 295t-199 200t-283 70zM851 1507h-148l209 300h190z" />
    <glyph glyph-name="Ocircumflex" unicode="&#xd4;" horiz-adv-x="1689" 
d="M844 1420q206 0 371 -91.5t258.5 -256.5t93.5 -372t-93.5 -372t-258.5 -256.5t-371 -91.5q-154 0 -288 54t-229.5 148.5t-150.5 228.5t-55 289t55 289t150.5 228.5t229.5 148.5t288 54zM844 1265q-117 0 -219 -41.5t-176 -114.5t-116.5 -179t-42.5 -230t42.5 -230
t116.5 -179t176 -114.5t219 -41.5q157 0 283 70t199 200t73 295t-73 295t-199 200t-283 70zM1178 1508h-160l-174 189l-175 -189h-160l235 288h200z" />
    <glyph glyph-name="Otilde" unicode="&#xd5;" horiz-adv-x="1689" 
d="M844 1420q206 0 371 -91.5t258.5 -256.5t93.5 -372t-93.5 -372t-258.5 -256.5t-371 -91.5q-154 0 -288 54t-229.5 148.5t-150.5 228.5t-55 289t55 289t150.5 228.5t229.5 148.5t288 54zM844 1265q-117 0 -219 -41.5t-176 -114.5t-116.5 -179t-42.5 -230t42.5 -230
t116.5 -179t176 -114.5t219 -41.5q157 0 283 70t199 200t73 295t-73 295t-199 200t-283 70zM580 1564l-88 85q46 57 97.5 84t121.5 27q58 0 106.5 -20t87 -39.5t72.5 -19.5q66 0 130 67l89 -85q-46 -57 -98 -84t-121 -27q-57 0 -105.5 20t-87 40t-73.5 20q-66 0 -131 -68z
" />
    <glyph glyph-name="Odieresis" unicode="&#xd6;" horiz-adv-x="1689" 
d="M844 1420q206 0 371 -91.5t258.5 -256.5t93.5 -372t-93.5 -372t-258.5 -256.5t-371 -91.5q-154 0 -288 54t-229.5 148.5t-150.5 228.5t-55 289t55 289t150.5 228.5t229.5 148.5t288 54zM844 1265q-117 0 -219 -41.5t-176 -114.5t-116.5 -179t-42.5 -230t42.5 -230
t116.5 -179t176 -114.5t219 -41.5q157 0 283 70t199 200t73 295t-73 295t-199 200t-283 70zM641 1758q44 0 75 -31t31 -76t-30.5 -75t-75.5 -30t-75.5 30t-30.5 75t30.5 76t75.5 31zM1047 1758q44 0 75 -31t31 -76t-30.5 -75t-75.5 -30t-75 30t-30 75t30 76t75 31z" />
    <glyph glyph-name="multiply" unicode="&#xd7;" horiz-adv-x="1200" 
d="M306 139l-97 96l292 292l-293 294l99 99l293 -294l295 295l96 -96l-295 -295l296 -295l-99 -99l-296 295z" />
    <glyph glyph-name="Oslash" unicode="&#xd8;" horiz-adv-x="1689" 
d="M844 1420q267 0 461 -153l152 152l106 -106l-152 -152q156 -194 156 -461q0 -207 -93.5 -372t-258.5 -256.5t-371 -91.5q-267 0 -461 153l-151 -151l-107 105l151 151q-155 193 -155 462q0 155 55 289t150.5 228.5t229.5 148.5t288 54zM1399 700q0 198 -105 344
l-796 -796q144 -113 346 -113q157 0 283 70t199 200t73 295zM844 1265q-117 0 -219 -41.5t-176 -114.5t-116.5 -179t-42.5 -230q0 -199 104 -344l796 796q-148 113 -346 113z" />
    <glyph glyph-name="Ugrave" unicode="&#xd9;" horiz-adv-x="1517" 
d="M1335 1400v-852q0 -139 -45 -248.5t-124 -178t-182.5 -104.5t-225.5 -36t-225.5 36t-182.5 104.5t-123.5 178t-44.5 248.5v852h160v-840q0 -211 114 -318t302 -107t302 107t114 318v840h161zM741 1507l-251 300h189l210 -300h-148z" />
    <glyph glyph-name="Uacute" unicode="&#xda;" horiz-adv-x="1517" 
d="M1335 1400v-852q0 -139 -45 -248.5t-124 -178t-182.5 -104.5t-225.5 -36t-225.5 36t-182.5 104.5t-123.5 178t-44.5 248.5v852h160v-840q0 -211 114 -318t302 -107t302 107t114 318v840h161zM765 1507h-148l209 300h190z" />
    <glyph glyph-name="Ucircumflex" unicode="&#xdb;" horiz-adv-x="1517" 
d="M1335 1400v-852q0 -139 -45 -248.5t-124 -178t-182.5 -104.5t-225.5 -36t-225.5 36t-182.5 104.5t-123.5 178t-44.5 248.5v852h160v-840q0 -211 114 -318t302 -107t302 107t114 318v840h161zM1092 1508h-160l-174 189l-175 -189h-160l235 288h200z" />
    <glyph glyph-name="Udieresis" unicode="&#xdc;" horiz-adv-x="1517" 
d="M1335 1400v-852q0 -139 -45 -248.5t-124 -178t-182.5 -104.5t-225.5 -36t-225.5 36t-182.5 104.5t-123.5 178t-44.5 248.5v852h160v-840q0 -211 114 -318t302 -107t302 107t114 318v840h161zM555 1758q44 0 75 -31t31 -76t-30.5 -75t-75.5 -30t-75.5 30t-30.5 75t30.5 76
t75.5 31zM961 1758q44 0 75 -31t31 -76t-30.5 -75t-75.5 -30t-75 30t-30 75t30 76t75 31z" />
    <glyph glyph-name="Yacute" unicode="&#xdd;" horiz-adv-x="1287" 
d="M1276 1400l-551 -813v-587h-160v589l-554 811h192l443 -664l443 664h187zM653 1507h-148l209 300h190z" />
    <glyph glyph-name="Thorn" unicode="&#xde;" horiz-adv-x="1328" 
d="M363 1400v-266h368q235 0 365 -111t130 -308t-130 -308t-365 -111h-368v-296h-161v1400h161zM726 982h-363v-534h363q163 0 248 67t85 200t-85 200t-248 67z" />
    <glyph glyph-name="germandbls" unicode="&#xdf;" horiz-adv-x="1225" 
d="M166 0v1021q0 92 29 171t85 139t145 94t201 34q193 0 324 -107t131 -277q0 -124 -60 -212t-155 -127q110 -35 183 -128t73 -219q0 -186 -121 -297t-301 -111q-136 0 -236 42l36 135q84 -38 177 -38q134 0 213 71t79 203t-91.5 198.5t-249.5 66.5h-56v136h31
q67 0 122.5 13t102.5 41t73.5 80t26.5 124q0 127 -86.5 196.5t-218.5 69.5q-142 0 -225 -83t-83 -224v-1012h-149z" />
    <glyph glyph-name="agrave" unicode="&#xe0;" horiz-adv-x="1246" 
d="M1071 947v-947h-149v141q-124 -160 -346 -160q-201 0 -337 140.5t-136 352.5t136 352t337 140q221 0 346 -160v141h149zM594 826q-150 0 -244.5 -101.5t-94.5 -250.5t95 -251t244 -102q147 0 242 100.5t95 252.5q0 151 -95 251.5t-242 100.5zM581 1092l-251 300h189
l210 -300h-148z" />
    <glyph glyph-name="aacute" unicode="&#xe1;" horiz-adv-x="1246" 
d="M1071 947v-947h-149v141q-124 -160 -346 -160q-201 0 -337 140.5t-136 352.5t136 352t337 140q221 0 346 -160v141h149zM594 826q-150 0 -244.5 -101.5t-94.5 -250.5t95 -251t244 -102q147 0 242 100.5t95 252.5q0 151 -95 251.5t-242 100.5zM629 1092h-148l209 300h190z
" />
    <glyph glyph-name="acircumflex" unicode="&#xe2;" horiz-adv-x="1246" 
d="M1071 947v-947h-149v141q-124 -160 -346 -160q-201 0 -337 140.5t-136 352.5t136 352t337 140q221 0 346 -160v141h149zM594 826q-150 0 -244.5 -101.5t-94.5 -250.5t95 -251t244 -102q147 0 242 100.5t95 252.5q0 151 -95 251.5t-242 100.5zM945 1093h-160l-174 189
l-175 -189h-160l235 288h200z" />
    <glyph glyph-name="atilde" unicode="&#xe3;" horiz-adv-x="1246" 
d="M1071 947v-947h-149v141q-124 -160 -346 -160q-201 0 -337 140.5t-136 352.5t136 352t337 140q221 0 346 -160v141h149zM594 826q-150 0 -244.5 -101.5t-94.5 -250.5t95 -251t244 -102q147 0 242 100.5t95 252.5q0 151 -95 251.5t-242 100.5zM355 1149l-88 85
q46 57 97.5 84t121.5 27q46 0 86.5 -12.5t65.5 -27t55.5 -27t58.5 -12.5q66 0 130 67l89 -85q-46 -57 -98 -84t-121 -27q-57 0 -105.5 20t-87 40t-73.5 20q-66 0 -131 -68z" />
    <glyph glyph-name="adieresis" unicode="&#xe4;" horiz-adv-x="1246" 
d="M1071 947v-947h-149v141q-124 -160 -346 -160q-201 0 -337 140.5t-136 352.5t136 352t337 140q221 0 346 -160v141h149zM594 826q-150 0 -244.5 -101.5t-94.5 -250.5t95 -251t244 -102q147 0 242 100.5t95 252.5q0 151 -95 251.5t-242 100.5zM408 1343q44 0 75 -31
t31 -76t-30.5 -75t-75.5 -30t-75.5 30t-30.5 75t30.5 76t75.5 31zM814 1343q44 0 75 -31t31 -76t-30.5 -75t-75.5 -30t-75 30t-30 75t30 76t75 31z" />
    <glyph glyph-name="aring" unicode="&#xe5;" horiz-adv-x="1246" 
d="M1071 947v-947h-149v141q-124 -160 -346 -160q-201 0 -337 140.5t-136 352.5t136 352t337 140q221 0 346 -160v141h149zM594 826q-150 0 -244.5 -101.5t-94.5 -250.5t95 -251t244 -102q147 0 242 100.5t95 252.5q0 151 -95 251.5t-242 100.5zM610 1072q-93 0 -160 66
t-67 159q0 92 67 158t160 66q94 0 161 -66t67 -158q0 -93 -67 -159t-161 -66zM610 1167q53 0 90.5 38t37.5 92t-37.5 91.5t-90.5 37.5t-90 -37.5t-37 -91.5q0 -55 37 -92.5t90 -37.5z" />
    <glyph glyph-name="ae" unicode="&#xe6;" horiz-adv-x="1800" 
d="M1252 965q193 0 318 -136.5t127 -351.5q0 -5 -3 -56h-759q15 -148 108 -228.5t227 -80.5q170 0 300 119l79 -102q-153 -148 -388 -148q-123 0 -223.5 48.5t-164.5 137.5q-69 -85 -171 -135.5t-232 -50.5q-170 0 -268.5 79t-98.5 206q0 126 102.5 202.5t287.5 76.5h290v7
q0 140 -72.5 209.5t-209.5 69.5q-145 0 -274 -95l-70 111q158 119 363 119q275 0 360 -199q58 92 156.5 145t215.5 53zM493 113q89 0 176 43.5t146 119.5q-24 64 -32 145h-274q-128 0 -187.5 -43t-59.5 -112q0 -66 60.5 -109.5t170.5 -43.5zM1249 833q-128 0 -211 -80
t-101 -211h607q-13 132 -94 211.5t-201 79.5z" />
    <glyph glyph-name="ccedilla" unicode="&#xe7;" horiz-adv-x="1024" 
d="M593 966q106 0 197 -38.5t154 -110.5l-96 -101q-113 110 -259 110q-143 0 -238.5 -100t-95.5 -252q0 -153 95.5 -253t238.5 -100q148 0 262 111l93 -102q-110 -125 -290 -145l-96 -308h-156l103 311q-181 28 -291.5 162t-110.5 324q0 212 137 352t353 140z" />
    <glyph glyph-name="egrave" unicode="&#xe8;" horiz-adv-x="1121" 
d="M573 966q193 0 318.5 -137t126.5 -352q0 -31 -3 -56h-759q15 -148 108 -228.5t227 -80.5q170 0 300 119l80 -102q-155 -148 -389 -148q-211 0 -345 136.5t-134 355.5q0 216 133 354.5t337 138.5zM570 833q-128 0 -211 -80t-101 -211h608q-14 133 -94.5 212t-201.5 79z
M539 1092l-251 300h189l210 -300h-148z" />
    <glyph glyph-name="eacute" unicode="&#xe9;" horiz-adv-x="1121" 
d="M573 966q193 0 318.5 -137t126.5 -352q0 -31 -3 -56h-759q15 -148 108 -228.5t227 -80.5q170 0 300 119l80 -102q-155 -148 -389 -148q-211 0 -345 136.5t-134 355.5q0 216 133 354.5t337 138.5zM570 833q-128 0 -211 -80t-101 -211h608q-14 133 -94.5 212t-201.5 79z
M587 1092h-148l209 300h190z" />
    <glyph glyph-name="ecircumflex" unicode="&#xea;" horiz-adv-x="1121" 
d="M573 966q193 0 318.5 -137t126.5 -352q0 -31 -3 -56h-759q15 -148 108 -228.5t227 -80.5q170 0 300 119l80 -102q-155 -148 -389 -148q-211 0 -345 136.5t-134 355.5q0 216 133 354.5t337 138.5zM570 833q-128 0 -211 -80t-101 -211h608q-14 133 -94.5 212t-201.5 79z
M903 1093h-160l-174 189l-175 -189h-160l235 288h200z" />
    <glyph glyph-name="edieresis" unicode="&#xeb;" horiz-adv-x="1121" 
d="M573 966q193 0 318.5 -137t126.5 -352q0 -31 -3 -56h-759q15 -148 108 -228.5t227 -80.5q170 0 300 119l80 -102q-155 -148 -389 -148q-211 0 -345 136.5t-134 355.5q0 216 133 354.5t337 138.5zM570 833q-128 0 -211 -80t-101 -211h608q-14 133 -94.5 212t-201.5 79z
M366 1343q44 0 75 -31t31 -76t-30.5 -75t-75.5 -30t-75.5 30t-30.5 75t30.5 76t75.5 31zM772 1343q44 0 75 -31t31 -76t-30.5 -75t-75.5 -30t-75 30t-30 75t30 76t75 31z" />
    <glyph glyph-name="igrave" unicode="&#xec;" horiz-adv-x="500" 
d="M325 947v-947h-150v947h150zM220 1092l-251 300h189l210 -300h-148z" />
    <glyph glyph-name="iacute" unicode="&#xed;" horiz-adv-x="500" 
d="M325 947v-947h-150v947h150zM268 1092h-148l209 300h190z" />
    <glyph glyph-name="icircumflex" unicode="&#xee;" horiz-adv-x="500" 
d="M325 947v-947h-150v947h150zM584 1093h-160l-174 189l-175 -189h-160l235 288h200z" />
    <glyph glyph-name="idieresis" unicode="&#xef;" horiz-adv-x="500" 
d="M325 947v-947h-150v947h150zM47 1343q44 0 75 -31t31 -76t-30.5 -75t-75.5 -30t-75.5 30t-30.5 75t30.5 76t75.5 31zM453 1343q44 0 75 -31t31 -76t-30.5 -75t-75.5 -30t-75 30t-30 75t30 76t75 31z" />
    <glyph glyph-name="eth" unicode="&#xf0;" horiz-adv-x="1199" 
d="M872 1434l56 -91l-197 -117q165 -143 265 -337.5t100 -405.5q0 -214 -142 -358t-353 -144q-213 0 -355.5 138t-142.5 344q0 208 135.5 347t334.5 139q186 0 306 -125q-88 183 -274 327l-251 -149l-56 91l211 125q-102 64 -214 112l67 120q153 -62 279 -153zM601 808
q-149 0 -247.5 -97t-98.5 -247q0 -149 98.5 -246t247.5 -97q148 0 247 97t99 246q0 150 -99 247t-247 97z" />
    <glyph glyph-name="ntilde" unicode="&#xf1;" horiz-adv-x="1201" 
d="M642 966q176 0 285.5 -104t109.5 -275v-587h-149v538q0 135 -71.5 210.5t-201.5 75.5q-123 0 -206.5 -79.5t-83.5 -210.5v-534h-150v947h148v-135q54 80 139 117t180 37zM361 1149l-88 85q46 57 97.5 84t121.5 27q46 0 86.5 -12.5t65.5 -27t55.5 -27t58.5 -12.5
q66 0 130 67l89 -85q-46 -57 -98 -84t-121 -27q-57 0 -105.5 20t-87 40t-73.5 20q-66 0 -131 -68z" />
    <glyph glyph-name="ograve" unicode="&#xf2;" horiz-adv-x="1203" 
d="M601 966q214 0 356.5 -141t142.5 -351q0 -211 -142.5 -352t-356.5 -141t-356 141t-142 352q0 210 142.5 351t355.5 141zM601 826q-148 0 -247 -100t-99 -252q0 -153 99 -253t247 -100t247 100t99 253q0 152 -99 252t-247 100zM571 1092l-251 300h189l210 -300h-148z" />
    <glyph glyph-name="oacute" unicode="&#xf3;" horiz-adv-x="1203" 
d="M601 966q214 0 356.5 -141t142.5 -351q0 -211 -142.5 -352t-356.5 -141t-356 141t-142 352q0 210 142.5 351t355.5 141zM601 826q-148 0 -247 -100t-99 -252q0 -153 99 -253t247 -100t247 100t99 253q0 152 -99 252t-247 100zM619 1092h-148l209 300h190z" />
    <glyph glyph-name="ocircumflex" unicode="&#xf4;" horiz-adv-x="1203" 
d="M601 966q214 0 356.5 -141t142.5 -351q0 -211 -142.5 -352t-356.5 -141t-356 141t-142 352q0 210 142.5 351t355.5 141zM601 826q-148 0 -247 -100t-99 -252q0 -153 99 -253t247 -100t247 100t99 253q0 152 -99 252t-247 100zM935 1093h-160l-174 189l-175 -189h-160
l235 288h200z" />
    <glyph glyph-name="otilde" unicode="&#xf5;" horiz-adv-x="1203" 
d="M601 966q214 0 356.5 -141t142.5 -351q0 -211 -142.5 -352t-356.5 -141t-356 141t-142 352q0 210 142.5 351t355.5 141zM601 826q-148 0 -247 -100t-99 -252q0 -153 99 -253t247 -100t247 100t99 253q0 152 -99 252t-247 100zM345 1149l-88 85q46 57 97.5 84t121.5 27
q46 0 86.5 -12.5t65.5 -27t55.5 -27t58.5 -12.5q66 0 130 67l89 -85q-46 -57 -98 -84t-121 -27q-57 0 -105.5 20t-87 40t-73.5 20q-66 0 -131 -68z" />
    <glyph glyph-name="odieresis" unicode="&#xf6;" horiz-adv-x="1203" 
d="M601 966q214 0 356.5 -141t142.5 -351q0 -211 -142.5 -352t-356.5 -141t-356 141t-142 352q0 210 142.5 351t355.5 141zM601 826q-148 0 -247 -100t-99 -252q0 -153 99 -253t247 -100t247 100t99 253q0 152 -99 252t-247 100zM398 1343q44 0 75 -31t31 -76t-30.5 -75
t-75.5 -30t-75.5 30t-30.5 75t30.5 76t75.5 31zM804 1343q44 0 75 -31t31 -76t-30.5 -75t-75.5 -30t-75 30t-30 75t30 76t75 31z" />
    <glyph glyph-name="divide" unicode="&#xf7;" horiz-adv-x="1200" 
d="M1035 597v-136h-870v136h870zM601 953q41 0 72 -30.5t31 -73.5q0 -41 -31 -72.5t-72 -31.5q-42 0 -73.5 31.5t-31.5 72.5q0 42 31.5 73t73.5 31zM601 313q41 0 72 -30.5t31 -72.5t-31 -73.5t-72 -31.5q-42 0 -73.5 31.5t-31.5 73.5t31.5 72.5t73.5 30.5z" />
    <glyph glyph-name="oslash" unicode="&#xf8;" horiz-adv-x="1203" 
d="M601 966q173 0 306 -98l111 111l90 -90l-110 -110q102 -132 102 -305q0 -211 -142.5 -352t-356.5 -141q-174 0 -304 97l-111 -111l-91 89l110 110q-102 130 -102 308q0 210 142.5 351t355.5 141zM601 826q-148 0 -247 -100t-99 -252q0 -112 57 -201l491 491
q-91 62 -202 62zM947 474q0 108 -56 198l-491 -491q88 -60 201 -60q148 0 247 100t99 253z" />
    <glyph glyph-name="ugrave" unicode="&#xf9;" horiz-adv-x="1188" 
d="M1024 947v-552q0 -102 -35 -182.5t-95 -130.5t-136.5 -75.5t-163.5 -25.5q-88 0 -164.5 25.5t-136.5 75.5t-94.5 130.5t-34.5 182.5v552h149v-538q0 -142 77 -215t204 -73t203.5 73t76.5 215v538h150zM564 1092l-251 300h189l210 -300h-148z" />
    <glyph glyph-name="uacute" unicode="&#xfa;" horiz-adv-x="1188" 
d="M1024 947v-552q0 -102 -35 -182.5t-95 -130.5t-136.5 -75.5t-163.5 -25.5q-88 0 -164.5 25.5t-136.5 75.5t-94.5 130.5t-34.5 182.5v552h149v-538q0 -142 77 -215t204 -73t203.5 73t76.5 215v538h150zM612 1092h-148l209 300h190z" />
    <glyph glyph-name="ucircumflex" unicode="&#xfb;" horiz-adv-x="1188" 
d="M1024 947v-552q0 -102 -35 -182.5t-95 -130.5t-136.5 -75.5t-163.5 -25.5q-88 0 -164.5 25.5t-136.5 75.5t-94.5 130.5t-34.5 182.5v552h149v-538q0 -142 77 -215t204 -73t203.5 73t76.5 215v538h150zM928 1093h-160l-174 189l-175 -189h-160l235 288h200z" />
    <glyph glyph-name="udieresis" unicode="&#xfc;" horiz-adv-x="1188" 
d="M1024 947v-552q0 -102 -35 -182.5t-95 -130.5t-136.5 -75.5t-163.5 -25.5q-88 0 -164.5 25.5t-136.5 75.5t-94.5 130.5t-34.5 182.5v552h149v-538q0 -142 77 -215t204 -73t203.5 73t76.5 215v538h150zM391 1343q44 0 75 -31t31 -76t-30.5 -75t-75.5 -30t-75.5 30
t-30.5 75t30.5 76t75.5 31zM797 1343q44 0 75 -31t31 -76t-30.5 -75t-75.5 -30t-75 30t-30 75t30 76t75 31z" />
    <glyph glyph-name="yacute" unicode="&#xfd;" horiz-adv-x="1054" 
d="M1039 947l-771 -1351h-165l353 609l-435 742h167l353 -594l334 594h164zM550 1092h-148l209 300h190z" />
    <glyph glyph-name="thorn" unicode="&#xfe;" horiz-adv-x="1246" 
d="M670 966q201 0 337 -140t136 -352t-136 -352.5t-337 -140.5q-221 0 -345 159v-540h-150v1840h150v-633q124 159 345 159zM652 826q-147 0 -242 -100.5t-95 -251.5q0 -152 95 -252.5t242 -100.5q150 0 244 101.5t94 251.5q0 149 -95 250.5t-243 101.5z" />
    <glyph glyph-name="ydieresis" unicode="&#xff;" horiz-adv-x="1054" 
d="M1039 947l-771 -1351h-165l353 609l-435 742h167l353 -594l334 594h164zM329 1343q44 0 75 -31t31 -76t-30.5 -75t-75.5 -30t-75.5 30t-30.5 75t30.5 76t75.5 31zM735 1343q44 0 75 -31t31 -76t-30.5 -75t-75.5 -30t-75 30t-30 75t30 76t75 31z" />
    <glyph glyph-name="Amacron" unicode="&#x100;" horiz-adv-x="1421" 
d="M810 1400l575 -1400h-172l-159 390h-693l-158 -390h-167l575 1400h199zM708 1241l-285 -699h570zM412 1590v121h598v-121h-598z" />
    <glyph glyph-name="amacron" unicode="&#x101;" horiz-adv-x="1246" 
d="M1071 947v-947h-149v141q-124 -160 -346 -160q-201 0 -337 140.5t-136 352.5t136 352t337 140q221 0 346 -160v141h149zM594 826q-150 0 -244.5 -101.5t-94.5 -250.5t95 -251t244 -102q147 0 242 100.5t95 252.5q0 151 -95 251.5t-242 100.5zM312 1175v121h598v-121h-598
z" />
    <glyph glyph-name="Abreve" unicode="&#x102;" horiz-adv-x="1421" 
d="M810 1400l575 -1400h-172l-159 390h-693l-158 -390h-167l575 1400h199zM708 1241l-285 -699h570zM370 1781l120 37q56 -191 221 -191q166 0 222 191l120 -37q-38 -137 -126.5 -208.5t-215.5 -71.5q-126 0 -214.5 71.5t-126.5 208.5z" />
    <glyph glyph-name="abreve" unicode="&#x103;" horiz-adv-x="1246" 
d="M1071 947v-947h-149v141q-124 -160 -346 -160q-201 0 -337 140.5t-136 352.5t136 352t337 140q221 0 346 -160v141h149zM594 826q-150 0 -244.5 -101.5t-94.5 -250.5t95 -251t244 -102q147 0 242 100.5t95 252.5q0 151 -95 251.5t-242 100.5zM270 1366l120 37
q56 -191 221 -191q166 0 222 191l120 -37q-38 -137 -126.5 -208.5t-215.5 -71.5q-126 0 -214.5 71.5t-126.5 208.5z" />
    <glyph glyph-name="Aogonek" unicode="&#x104;" horiz-adv-x="1421" 
d="M1309 -236l79 -96q-83 -83 -194 -83q-94 0 -153.5 48t-59.5 128q0 76 56 134.5t171 116.5l-154 378h-693l-158 -390h-167l575 1402h199l575 -1402h-44q-113 -55 -166 -105.5t-53 -103.5q0 -35 23.5 -56t61.5 -21q55 0 102 50zM708 1243l-285 -701h570z" />
    <glyph glyph-name="aogonek" unicode="&#x105;" horiz-adv-x="1246" 
d="M1039 -236l79 -96q-83 -83 -194 -83q-94 0 -153.5 48t-59.5 128q0 73 52 130.5t159 112.5v137q-124 -160 -346 -160q-201 0 -337 140.5t-136 352.5t136 352t337 140q221 0 346 -160v141h149v-947q-113 -55 -166 -105.5t-53 -103.5q0 -35 23.5 -56t61.5 -21q55 0 102 50z
M594 826q-150 0 -244.5 -101.5t-94.5 -250.5t95 -251t244 -102q147 0 242 100.5t95 252.5q0 151 -95 251.5t-242 100.5z" />
    <glyph glyph-name="Cacute" unicode="&#x106;" horiz-adv-x="1530" 
d="M844 1420q183 0 336 -77.5t235 -212.5l-134 -90q-70 105 -185 165t-252 60q-117 0 -219 -41.5t-176 -114.5t-116.5 -179t-42.5 -230t42.5 -230t116.5 -179t176 -114.5t219 -41.5q138 0 252 59t185 165l130 -96q-88 -132 -237.5 -207.5t-329.5 -75.5q-154 0 -288 54
t-229.5 148.5t-150.5 228.5t-55 289t55 289t150.5 228.5t229.5 148.5t288 54zM845 1507h-148l209 300h190z" />
    <glyph glyph-name="cacute" unicode="&#x107;" horiz-adv-x="1024" 
d="M593 966q106 0 197 -38.5t154 -110.5l-96 -101q-113 110 -259 110q-143 0 -238.5 -100t-95.5 -252q0 -153 95.5 -253t238.5 -100q148 0 262 111l93 -102q-64 -72 -155 -110.5t-196 -38.5q-216 0 -353 140t-137 353q0 212 137 352t353 140zM601 1092h-148l209 300h190z
" />
    <glyph glyph-name="Ccircumflex" unicode="&#x108;" horiz-adv-x="1530" 
d="M844 1420q183 0 336 -77.5t235 -212.5l-134 -90q-70 105 -185 165t-252 60q-117 0 -219 -41.5t-176 -114.5t-116.5 -179t-42.5 -230t42.5 -230t116.5 -179t176 -114.5t219 -41.5q138 0 252 59t185 165l130 -96q-88 -132 -237.5 -207.5t-329.5 -75.5q-154 0 -288 54
t-229.5 148.5t-150.5 228.5t-55 289t55 289t150.5 228.5t229.5 148.5t288 54zM1172 1508h-160l-174 189l-175 -189h-160l235 288h200z" />
    <glyph glyph-name="ccircumflex" unicode="&#x109;" horiz-adv-x="1024" 
d="M593 966q106 0 197 -38.5t154 -110.5l-96 -101q-113 110 -259 110q-143 0 -238.5 -100t-95.5 -252q0 -153 95.5 -253t238.5 -100q148 0 262 111l93 -102q-64 -72 -155 -110.5t-196 -38.5q-216 0 -353 140t-137 353q0 212 137 352t353 140zM917 1093h-160l-174 189
l-175 -189h-160l235 288h200z" />
    <glyph glyph-name="Cdotaccent" unicode="&#x10a;" horiz-adv-x="1530" 
d="M844 1420q183 0 336 -77.5t235 -212.5l-134 -90q-70 105 -185 165t-252 60q-117 0 -219 -41.5t-176 -114.5t-116.5 -179t-42.5 -230t42.5 -230t116.5 -179t176 -114.5t219 -41.5q138 0 252 59t185 165l130 -96q-88 -132 -237.5 -207.5t-329.5 -75.5q-154 0 -288 54
t-229.5 148.5t-150.5 228.5t-55 289t55 289t150.5 228.5t229.5 148.5t288 54zM824 1764q46 0 78 -31.5t32 -77.5t-32 -77.5t-78 -31.5t-77.5 31t-31.5 78t31.5 78t77.5 31z" />
    <glyph glyph-name="cdotaccent" unicode="&#x10b;" horiz-adv-x="1024" 
d="M593 966q106 0 197 -38.5t154 -110.5l-96 -101q-113 110 -259 110q-143 0 -238.5 -100t-95.5 -252q0 -153 95.5 -253t238.5 -100q148 0 262 111l93 -102q-64 -72 -155 -110.5t-196 -38.5q-216 0 -353 140t-137 353q0 212 137 352t353 140zM583 1389q44 0 75 -30.5
t31 -75.5t-30.5 -75t-75.5 -30t-75 30t-30 75t30 75.5t75 30.5z" />
    <glyph glyph-name="Ccaron" unicode="&#x10c;" horiz-adv-x="1530" 
d="M844 1420q183 0 336 -77.5t235 -212.5l-134 -90q-70 105 -185 165t-252 60q-117 0 -219 -41.5t-176 -114.5t-116.5 -179t-42.5 -230t42.5 -230t116.5 -179t176 -114.5t219 -41.5q138 0 252 59t185 165l130 -96q-88 -132 -237.5 -207.5t-329.5 -75.5q-154 0 -288 54
t-229.5 148.5t-150.5 228.5t-55 289t55 289t150.5 228.5t229.5 148.5t288 54zM503 1794h160l175 -189l174 189h160l-234 -288h-200z" />
    <glyph glyph-name="ccaron" unicode="&#x10d;" horiz-adv-x="1024" 
d="M593 966q106 0 197 -38.5t154 -110.5l-96 -101q-113 110 -259 110q-143 0 -238.5 -100t-95.5 -252q0 -153 95.5 -253t238.5 -100q148 0 262 111l93 -102q-64 -72 -155 -110.5t-196 -38.5q-216 0 -353 140t-137 353q0 212 137 352t353 140zM248 1379h160l175 -189l174 189
h160l-234 -288h-200z" />
    <glyph glyph-name="Dcaron" unicode="&#x10e;" horiz-adv-x="1598" 
d="M202 1400h527q343 0 545 -190t202 -510t-202 -510t-545 -190h-527v1400zM729 1248h-366v-1096h366q278 0 428 148t150 400q0 253 -149.5 400.5t-428.5 147.5zM403 1794h160l175 -189l174 189h160l-234 -288h-200z" />
    <glyph glyph-name="dcaron" unicode="&#x10f;" horiz-adv-x="1296" 
d="M576 966q221 0 346 -160v634h149v-1440h-149v141q-124 -160 -346 -160q-201 0 -337 140.5t-136 352.5t136 352t337 140zM594 826q-150 0 -244.5 -101.5t-94.5 -250.5t95 -251t244 -102q147 0 242 100.5t95 252.5q0 151 -95 251.5t-242 100.5zM1315 1051h-126l7 389h153z
" />
    <glyph glyph-name="Dcroat" unicode="&#x110;" horiz-adv-x="1749" 
d="M353 1400h527q343 0 545 -190t202 -510t-202 -510t-545 -190h-527v629h-232v152h232v619zM917 781v-152h-403v-477h366q278 0 428 148t150 400q0 253 -149.5 400.5t-428.5 147.5h-366v-467h403z" />
    <glyph glyph-name="dcroat" unicode="&#x111;" horiz-adv-x="1246" 
d="M1221 1251v-136h-150v-1115h-149v141q-124 -160 -346 -160q-201 0 -337 140.5t-136 352.5t136 352t337 140q221 0 346 -160v309h-419v136h419v189h149v-189h150zM594 826q-150 0 -244.5 -101.5t-94.5 -250.5t95 -251t244 -102q147 0 242 100.5t95 252.5q0 151 -95 251.5
t-242 100.5z" />
    <glyph glyph-name="Emacron" unicode="&#x112;" horiz-adv-x="1348" 
d="M1187 151v-151h-985v1400h976v-151h-815v-469h790v-150h-790v-479h824zM386 1590v121h598v-121h-598z" />
    <glyph glyph-name="emacron" unicode="&#x113;" horiz-adv-x="1121" 
d="M573 966q193 0 318.5 -137t126.5 -352q0 -31 -3 -56h-759q15 -148 108 -228.5t227 -80.5q170 0 300 119l80 -102q-155 -148 -389 -148q-211 0 -345 136.5t-134 355.5q0 216 133 354.5t337 138.5zM570 833q-128 0 -211 -80t-101 -211h608q-14 133 -94.5 212t-201.5 79z
M270 1175v121h598v-121h-598z" />
    <glyph glyph-name="Ebreve" unicode="&#x114;" horiz-adv-x="1348" 
d="M1187 151v-151h-985v1400h976v-151h-815v-469h790v-150h-790v-479h824zM344 1781l120 37q56 -191 221 -191q166 0 222 191l120 -37q-38 -137 -126.5 -208.5t-215.5 -71.5q-126 0 -214.5 71.5t-126.5 208.5z" />
    <glyph glyph-name="ebreve" unicode="&#x115;" horiz-adv-x="1121" 
d="M573 966q193 0 318.5 -137t126.5 -352q0 -31 -3 -56h-759q15 -148 108 -228.5t227 -80.5q170 0 300 119l80 -102q-155 -148 -389 -148q-211 0 -345 136.5t-134 355.5q0 216 133 354.5t337 138.5zM570 833q-128 0 -211 -80t-101 -211h608q-14 133 -94.5 212t-201.5 79z
M228 1366l120 37q56 -191 221 -191q166 0 222 191l120 -37q-38 -137 -126.5 -208.5t-215.5 -71.5q-126 0 -214.5 71.5t-126.5 208.5z" />
    <glyph glyph-name="Edotaccent" unicode="&#x116;" horiz-adv-x="1348" 
d="M1187 151v-151h-985v1400h976v-151h-815v-469h790v-150h-790v-479h824zM671 1764q46 0 78 -31.5t32 -77.5t-32 -77.5t-78 -31.5q-47 0 -78 31t-31 78t31 78t78 31z" />
    <glyph glyph-name="edotaccent" unicode="&#x117;" horiz-adv-x="1121" 
d="M573 966q193 0 318.5 -137t126.5 -352q0 -31 -3 -56h-759q15 -148 108 -228.5t227 -80.5q170 0 300 119l80 -102q-155 -148 -389 -148q-211 0 -345 136.5t-134 355.5q0 216 133 354.5t337 138.5zM570 833q-128 0 -211 -80t-101 -211h608q-14 133 -94.5 212t-201.5 79z
M569 1389q44 0 75 -30.5t31 -75.5t-30.5 -75t-75.5 -30t-75 30t-30 75t30 75.5t75 30.5z" />
    <glyph glyph-name="Eogonek" unicode="&#x118;" horiz-adv-x="1348" 
d="M1187 151v-151h-184q-148 -80 -148 -182q0 -46 34 -75t90 -29q80 0 143 58l80 -97q-95 -90 -232 -90q-116 0 -188.5 58t-72.5 148q0 127 140 209h-647v1400h976v-151h-815v-469h790v-150h-790v-479h824z" />
    <glyph glyph-name="eogonek" unicode="&#x119;" horiz-adv-x="1121" 
d="M887 -228l80 -97q-95 -90 -232 -90q-116 0 -188.5 58t-72.5 148q0 112 107 190q-210 0 -344 136.5t-134 355.5q0 216 133 354.5t337 138.5q193 0 318.5 -137t126.5 -352q0 -31 -3 -56h-759q15 -148 108 -228.5t227 -80.5q170 0 300 119l80 -102q-67 -64 -171 -112
q-180 -82 -180 -199q0 -46 34 -75t90 -29q80 0 143 58zM570 833q-128 0 -211 -80t-101 -211h608q-14 133 -94.5 212t-201.5 79z" />
    <glyph glyph-name="Ecaron" unicode="&#x11a;" horiz-adv-x="1348" 
d="M1187 151v-151h-985v1400h976v-151h-815v-469h790v-150h-790v-479h824zM350 1794h160l175 -189l174 189h160l-234 -288h-200z" />
    <glyph glyph-name="ecaron" unicode="&#x11b;" horiz-adv-x="1121" 
d="M573 966q193 0 318.5 -137t126.5 -352q0 -31 -3 -56h-759q15 -148 108 -228.5t227 -80.5q170 0 300 119l80 -102q-155 -148 -389 -148q-211 0 -345 136.5t-134 355.5q0 216 133 354.5t337 138.5zM570 833q-128 0 -211 -80t-101 -211h608q-14 133 -94.5 212t-201.5 79z
M234 1379h160l175 -189l174 189h160l-234 -288h-200z" />
    <glyph glyph-name="Gcircumflex" unicode="&#x11c;" horiz-adv-x="1639" 
d="M844 1420q165 0 305.5 -61.5t237.5 -173.5l-119 -114q-75 91 -185 142.5t-239 51.5q-117 0 -219 -41.5t-176 -114.5t-116.5 -179t-42.5 -230t42.5 -230t116 -179t174 -114.5t214.5 -41.5q220 0 352.5 123t151.5 340h-436v150h610q2 -28 2 -41q0 -205 -81 -369
t-237 -260.5t-362 -96.5q-111 0 -216 31t-195.5 92.5t-158.5 146.5t-107 201t-39 248q0 207 94 372t259.5 256.5t369.5 91.5zM1156 1508h-160l-174 189l-175 -189h-160l235 288h200z" />
    <glyph glyph-name="gcircumflex" unicode="&#x11d;" horiz-adv-x="1235" 
d="M572 966q220 0 338 -161v142h150v-882q0 -227 -138 -353.5t-363 -126.5q-114 0 -220.5 33.5t-178.5 93.5l66 120q147 -111 333 -111q158 0 254.5 88t96.5 250v97q-117 -161 -338 -161q-201 0 -335 136.5t-134 349.5t134 349t335 136zM589 826q-148 0 -241 -99.5
t-93 -245.5q0 -147 93 -246.5t241 -99.5q145 0 239.5 98.5t94.5 247.5q0 147 -94.5 246t-239.5 99zM938 1093h-160l-174 189l-175 -189h-160l235 288h200z" />
    <glyph glyph-name="Gbreve" unicode="&#x11e;" horiz-adv-x="1639" 
d="M844 1420q165 0 305.5 -61.5t237.5 -173.5l-119 -114q-75 91 -185 142.5t-239 51.5q-117 0 -219 -41.5t-176 -114.5t-116.5 -179t-42.5 -230t42.5 -230t116 -179t174 -114.5t214.5 -41.5q220 0 352.5 123t151.5 340h-436v150h610q2 -28 2 -41q0 -205 -81 -369
t-237 -260.5t-362 -96.5q-111 0 -216 31t-195.5 92.5t-158.5 146.5t-107 201t-39 248q0 207 94 372t259.5 256.5t369.5 91.5zM481 1781l120 37q56 -191 221 -191q166 0 222 191l120 -37q-38 -137 -126.5 -208.5t-215.5 -71.5q-126 0 -214.5 71.5t-126.5 208.5z" />
    <glyph glyph-name="gbreve" unicode="&#x11f;" horiz-adv-x="1235" 
d="M572 966q220 0 338 -161v142h150v-882q0 -227 -138 -353.5t-363 -126.5q-114 0 -220.5 33.5t-178.5 93.5l66 120q147 -111 333 -111q158 0 254.5 88t96.5 250v97q-117 -161 -338 -161q-201 0 -335 136.5t-134 349.5t134 349t335 136zM589 826q-148 0 -241 -99.5
t-93 -245.5q0 -147 93 -246.5t241 -99.5q145 0 239.5 98.5t94.5 247.5q0 147 -94.5 246t-239.5 99zM263 1366l120 37q56 -191 221 -191q166 0 222 191l120 -37q-38 -137 -126.5 -208.5t-215.5 -71.5q-126 0 -214.5 71.5t-126.5 208.5z" />
    <glyph glyph-name="Gdotaccent" unicode="&#x120;" horiz-adv-x="1639" 
d="M844 1420q165 0 305.5 -61.5t237.5 -173.5l-119 -114q-75 91 -185 142.5t-239 51.5q-117 0 -219 -41.5t-176 -114.5t-116.5 -179t-42.5 -230t42.5 -230t116 -179t174 -114.5t214.5 -41.5q220 0 352.5 123t151.5 340h-436v150h610q2 -28 2 -41q0 -205 -81 -369
t-237 -260.5t-362 -96.5q-111 0 -216 31t-195.5 92.5t-158.5 146.5t-107 201t-39 248q0 207 94 372t259.5 256.5t369.5 91.5zM808 1764q46 0 78 -31.5t32 -77.5t-32 -77.5t-78 -31.5t-77.5 31t-31.5 78t31.5 78t77.5 31z" />
    <glyph glyph-name="gdotaccent" unicode="&#x121;" horiz-adv-x="1235" 
d="M572 966q220 0 338 -161v142h150v-882q0 -227 -138 -353.5t-363 -126.5q-114 0 -220.5 33.5t-178.5 93.5l66 120q147 -111 333 -111q158 0 254.5 88t96.5 250v97q-117 -161 -338 -161q-201 0 -335 136.5t-134 349.5t134 349t335 136zM589 826q-148 0 -241 -99.5
t-93 -245.5q0 -147 93 -246.5t241 -99.5q145 0 239.5 98.5t94.5 247.5q0 147 -94.5 246t-239.5 99zM604 1389q44 0 75 -30.5t31 -75.5t-30.5 -75t-75.5 -30t-75 30t-30 75t30 75.5t75 30.5z" />
    <glyph glyph-name="uni0122" unicode="&#x122;" horiz-adv-x="1639" 
d="M844 1420q165 0 305.5 -61.5t237.5 -173.5l-119 -114q-75 91 -185 142.5t-239 51.5q-117 0 -219 -41.5t-176 -114.5t-116.5 -179t-42.5 -230t42.5 -230t116 -179t174 -114.5t214.5 -41.5q220 0 352.5 123t151.5 340h-436v150h610q2 -28 2 -41q0 -205 -81 -369
t-237 -260.5t-362 -96.5q-111 0 -216 31t-195.5 92.5t-158.5 146.5t-107 201t-39 248q0 207 94 372t259.5 256.5t369.5 91.5zM758 -88h164l-74 -350h-132z" />
    <glyph glyph-name="uni0123" unicode="&#x123;" horiz-adv-x="1235" 
d="M572 966q220 0 338 -161v142h150v-882q0 -227 -138 -353.5t-363 -126.5q-114 0 -220.5 33.5t-178.5 93.5l66 120q147 -111 333 -111q158 0 254.5 88t96.5 250v97q-117 -161 -338 -161q-201 0 -335 136.5t-134 349.5t134 349t335 136zM589 826q-148 0 -241 -99.5
t-93 -245.5q0 -147 93 -246.5t241 -99.5q145 0 239.5 98.5t94.5 247.5q0 147 -94.5 246t-239.5 99zM677 1092h-164l74 351h132z" />
    <glyph glyph-name="Hcircumflex" unicode="&#x124;" horiz-adv-x="1573" 
d="M363 1400v-619h847v619h161v-1400h-161v629h-847v-629h-161v1400h161zM1120 1508h-160l-174 189l-175 -189h-160l235 288h200z" />
    <glyph glyph-name="hcircumflex" unicode="&#x125;" horiz-adv-x="1201" 
d="M325 1440v-625q55 78 139 114.5t178 36.5q176 0 285.5 -104t109.5 -275v-587h-149v538q0 135 -71.5 210.5t-201.5 75.5q-123 0 -206.5 -79.5t-83.5 -210.5v-534h-150v1440h150zM943 1546h-160l-174 189l-175 -189h-160l235 288h200z" />
    <glyph glyph-name="Hbar" unicode="&#x126;" horiz-adv-x="1619" 
d="M1558 1146v-136h-163v-1010h-161v629h-847v-629h-161v1010h-165v136h165v254h161v-254h847v254h161v-254h163zM387 781h847v229h-847v-229z" />
    <glyph glyph-name="hbar" unicode="&#x127;" horiz-adv-x="1201" 
d="M717 1251v-136h-392v-300q55 78 139 114.5t178 36.5q176 0 285.5 -104t109.5 -275v-587h-149v538q0 135 -71.5 210.5t-201.5 75.5q-123 0 -206.5 -79.5t-83.5 -210.5v-534h-150v1115h-176v136h176v189h150v-189h392z" />
    <glyph glyph-name="Itilde" unicode="&#x128;" horiz-adv-x="565" 
d="M363 1400v-1400h-161v1400h161zM18 1564l-88 85q46 57 97.5 84t121.5 27q58 0 106.5 -20t87 -39.5t72.5 -19.5q66 0 130 67l89 -85q-46 -57 -98 -84t-121 -27q-57 0 -105.5 20t-87 40t-73.5 20q-66 0 -131 -68z" />
    <glyph glyph-name="itilde" unicode="&#x129;" horiz-adv-x="500" 
d="M325 947v-947h-150v947h150zM-6 1149l-88 85q46 57 97.5 84t121.5 27q46 0 86.5 -12.5t65.5 -27t55.5 -27t58.5 -12.5q66 0 130 67l89 -85q-46 -57 -98 -84t-121 -27q-57 0 -105.5 20t-87 40t-73.5 20q-66 0 -131 -68z" />
    <glyph glyph-name="Imacron" unicode="&#x12a;" horiz-adv-x="565" 
d="M363 1400v-1400h-161v1400h161zM-17 1590v121h598v-121h-598z" />
    <glyph glyph-name="imacron" unicode="&#x12b;" horiz-adv-x="500" 
d="M325 947v-947h-150v947h150zM-49 1175v121h598v-121h-598z" />
    <glyph glyph-name="Ibreve" unicode="&#x12c;" horiz-adv-x="565" 
d="M363 1400v-1400h-161v1400h161zM-59 1781l120 37q56 -191 221 -191q166 0 222 191l120 -37q-38 -137 -126.5 -208.5t-215.5 -71.5q-126 0 -214.5 71.5t-126.5 208.5z" />
    <glyph glyph-name="ibreve" unicode="&#x12d;" horiz-adv-x="500" 
d="M325 947v-947h-150v947h150zM-91 1366l120 37q56 -191 221 -191q166 0 222 191l120 -37q-38 -137 -126.5 -208.5t-215.5 -71.5q-126 0 -214.5 71.5t-126.5 208.5z" />
    <glyph glyph-name="Iogonek" unicode="&#x12e;" horiz-adv-x="565" 
d="M408 -236l80 -96q-83 -83 -195 -83q-94 0 -153.5 48t-59.5 128q0 67 39.5 124t117.5 115h-35v1400h161v-1400h-1q-141 -115 -141 -209q0 -35 23.5 -56t61.5 -21q57 0 102 50z" />
    <glyph glyph-name="iogonek" unicode="&#x12f;" horiz-adv-x="500" 
d="M325 947v-947h-1q-141 -115 -141 -209q0 -35 23.5 -56t61.5 -21q57 0 102 50l80 -96q-83 -83 -195 -83q-94 0 -153.5 48t-59.5 128q0 67 39.5 124t117.5 115h-24v947h150zM250 1389q44 0 75 -30.5t31 -75.5t-30.5 -75t-75.5 -30t-75 30t-30 75t30 75.5t75 30.5z" />
    <glyph glyph-name="Idotaccent" unicode="&#x130;" horiz-adv-x="565" 
d="M363 1400v-1400h-161v1400h161zM268 1764q46 0 78 -31.5t32 -77.5t-32 -77.5t-78 -31.5t-77.5 31t-31.5 78t31.5 78t77.5 31z" />
    <glyph glyph-name="dotlessi" unicode="&#x131;" horiz-adv-x="500" 
d="M325 947v-947h-150v947h150z" />
    <glyph glyph-name="IJ" unicode="&#x132;" horiz-adv-x="1715" 
d="M363 1400v-1400h-161v1400h161zM1523 1400v-901q0 -244 -136 -381t-350 -137q-269 0 -432 197l108 110q122 -153 323 -153q151 0 239 98t88 282v885h160z" />
    <glyph glyph-name="ij" unicode="&#x133;" horiz-adv-x="1004" 
d="M829 947v-1103q0 -124 -63.5 -191.5t-172.5 -67.5q-79 0 -136 32l36 129q40 -20 87 -20q99 0 99 125v1096h150zM753 1389q44 0 75 -30.5t31 -75.5t-30.5 -75t-75.5 -30t-75 30t-30 75t30 75.5t75 30.5zM325 947v-947h-150v947h150zM250 1389q44 0 75 -30.5t31 -75.5
t-30.5 -75t-75.5 -30t-75 30t-30 75t30 75.5t75 30.5z" />
    <glyph glyph-name="Jcircumflex" unicode="&#x134;" horiz-adv-x="1150" 
d="M958 1400v-901q0 -244 -136 -381t-350 -137q-269 0 -432 197l108 110q122 -153 323 -153q151 0 239 98t88 282v885h160zM1212 1508h-160l-174 189l-175 -189h-160l235 288h200z" />
    <glyph glyph-name="jcircumflex" unicode="&#x135;" horiz-adv-x="504" 
d="M329 947v-1103q0 -124 -63.5 -191.5t-172.5 -67.5q-79 0 -136 32l36 129q40 -20 87 -20q99 0 99 125v1096h150zM587 1093h-160l-174 189l-175 -189h-160l235 288h200z" />
    <glyph glyph-name="uni0136" unicode="&#x136;" horiz-adv-x="1388" 
d="M1145 0l-616 628h-166v-628h-161v1400h161v-620h169l581 620h208l-658 -687l701 -713h-219zM633 -88h164l-74 -350h-132z" />
    <glyph glyph-name="uni0137" unicode="&#x137;" horiz-adv-x="1058" 
d="M325 1440v-877h137l365 384h187l-430 -446l437 -501h-189l-371 427h-136v-427h-150v1440h150zM490 -88h164l-74 -350h-132z" />
    <glyph glyph-name="kgreenlandic" unicode="&#x138;" horiz-adv-x="1049" 
d="M325 947v-384h133l359 384h188l-425 -446l432 -501h-189l-366 427h-132v-427h-150v947h150z" />
    <glyph glyph-name="Lacute" unicode="&#x139;" horiz-adv-x="1213" 
d="M1173 152v-152h-971v1400h161v-1248h810zM289 1507h-148l209 300h190z" />
    <glyph glyph-name="lacute" unicode="&#x13a;" horiz-adv-x="500" 
d="M325 1440v-1440h-150v1440h150zM232 1545h-148l209 300h190z" />
    <glyph glyph-name="uni013B" unicode="&#x13b;" horiz-adv-x="1213" 
d="M1173 152v-152h-971v1400h161v-1248h810zM617 -88h164l-74 -350h-132z" />
    <glyph glyph-name="uni013C" unicode="&#x13c;" horiz-adv-x="500" 
d="M325 1440v-1440h-150v1440h150zM181 -88h164l-74 -350h-132z" />
    <glyph glyph-name="Lcaron" unicode="&#x13d;" horiz-adv-x="1213" 
d="M1173 152v-152h-971v1400h161v-1248h810zM727 1011h-126l7 389h153z" />
    <glyph glyph-name="lcaron" unicode="&#x13e;" horiz-adv-x="543" 
d="M325 1440v-1440h-150v1440h150zM558 1051h-126l7 389h153z" />
    <glyph glyph-name="Ldot" unicode="&#x13f;" horiz-adv-x="1213" 
d="M1173 152v-152h-971v1400h161v-1248h810zM857 814q46 0 78 -31.5t32 -77.5t-32 -77.5t-78 -31.5q-47 0 -78 31t-31 78t31 78t78 31z" />
    <glyph glyph-name="ldot" unicode="&#x140;" horiz-adv-x="613" 
d="M325 1440v-1440h-150v1440h150zM552 836q44 0 75 -30.5t31 -75.5t-30.5 -75t-75.5 -30t-75 30t-30 75t30 75.5t75 30.5z" />
    <glyph glyph-name="Lslash" unicode="&#x141;" horiz-adv-x="1346" 
d="M1306 152v-152h-971v503l-214 -120v172l214 120v725h161v-635l517 290v-172l-517 -290v-441h810z" />
    <glyph glyph-name="lslash" unicode="&#x142;" horiz-adv-x="670" 
d="M409 1440v-563l208 148v-155l-208 -148v-722h-150v616l-206 -146v155l206 146v669h150z" />
    <glyph glyph-name="Nacute" unicode="&#x143;" horiz-adv-x="1577" 
d="M1375 1400v-1400h-145l-867 1124v-1124h-161v1400h145l867 -1124v1124h161zM795 1507h-148l209 300h190z" />
    <glyph glyph-name="nacute" unicode="&#x144;" horiz-adv-x="1201" 
d="M642 966q176 0 285.5 -104t109.5 -275v-587h-149v538q0 135 -71.5 210.5t-201.5 75.5q-123 0 -206.5 -79.5t-83.5 -210.5v-534h-150v947h148v-135q54 80 139 117t180 37zM635 1092h-148l209 300h190z" />
    <glyph glyph-name="uni0145" unicode="&#x145;" horiz-adv-x="1577" 
d="M1375 1400v-1400h-145l-867 1124v-1124h-161v1400h145l867 -1124v1124h161zM722 -88h164l-74 -350h-132z" />
    <glyph glyph-name="uni0146" unicode="&#x146;" horiz-adv-x="1201" 
d="M642 966q176 0 285.5 -104t109.5 -275v-587h-149v538q0 135 -71.5 210.5t-201.5 75.5q-123 0 -206.5 -79.5t-83.5 -210.5v-534h-150v947h148v-135q54 80 139 117t180 37zM536 -88h164l-74 -350h-132z" />
    <glyph glyph-name="Ncaron" unicode="&#x147;" horiz-adv-x="1577" 
d="M1375 1400v-1400h-145l-867 1124v-1124h-161v1400h145l867 -1124v1124h161zM453 1794h160l175 -189l174 189h160l-234 -288h-200z" />
    <glyph glyph-name="ncaron" unicode="&#x148;" horiz-adv-x="1201" 
d="M642 966q176 0 285.5 -104t109.5 -275v-587h-149v538q0 135 -71.5 210.5t-201.5 75.5q-123 0 -206.5 -79.5t-83.5 -210.5v-534h-150v947h148v-135q54 80 139 117t180 37zM282 1379h160l175 -189l174 189h160l-234 -288h-200z" />
    <glyph glyph-name="napostrophe" unicode="&#x149;" horiz-adv-x="1476" 
d="M187 1440h174l-105 -507h-129zM917 966q176 0 285.5 -104t109.5 -275v-587h-149v538q0 135 -71.5 210.5t-201.5 75.5q-123 0 -206.5 -79.5t-83.5 -210.5v-534h-150v947h148v-135q54 80 139 117t180 37z" />
    <glyph glyph-name="Eng" unicode="&#x14a;" horiz-adv-x="1577" 
d="M1375 1400v-1437q0 -82 -19.5 -149t-59.5 -119t-106.5 -81t-154.5 -29q-146 0 -262 64l59 140q91 -49 186 -49q196 0 196 230v50l-851 1104v-1124h-161v1400h145l867 -1124v1124h161z" />
    <glyph glyph-name="eng" unicode="&#x14b;" horiz-adv-x="1201" 
d="M642 966q176 0 285.5 -104t109.5 -275v-664q0 -124 -63 -191.5t-172 -67.5q-79 0 -136 32l36 129q40 -20 86 -20q100 0 100 125v608q0 135 -71.5 210.5t-201.5 75.5q-123 0 -206.5 -79.5t-83.5 -210.5v-534h-150v947h148v-135q54 80 139 117t180 37z" />
    <glyph glyph-name="Omacron" unicode="&#x14c;" horiz-adv-x="1689" 
d="M844 1420q206 0 371 -91.5t258.5 -256.5t93.5 -372t-93.5 -372t-258.5 -256.5t-371 -91.5q-154 0 -288 54t-229.5 148.5t-150.5 228.5t-55 289t55 289t150.5 228.5t229.5 148.5t288 54zM844 1265q-117 0 -219 -41.5t-176 -114.5t-116.5 -179t-42.5 -230t42.5 -230
t116.5 -179t176 -114.5t219 -41.5q157 0 283 70t199 200t73 295t-73 295t-199 200t-283 70zM545 1590v121h598v-121h-598z" />
    <glyph glyph-name="omacron" unicode="&#x14d;" horiz-adv-x="1203" 
d="M601 966q214 0 356.5 -141t142.5 -351q0 -211 -142.5 -352t-356.5 -141t-356 141t-142 352q0 210 142.5 351t355.5 141zM601 826q-148 0 -247 -100t-99 -252q0 -153 99 -253t247 -100t247 100t99 253q0 152 -99 252t-247 100zM302 1175v121h598v-121h-598z" />
    <glyph glyph-name="Obreve" unicode="&#x14e;" horiz-adv-x="1689" 
d="M844 1420q206 0 371 -91.5t258.5 -256.5t93.5 -372t-93.5 -372t-258.5 -256.5t-371 -91.5q-154 0 -288 54t-229.5 148.5t-150.5 228.5t-55 289t55 289t150.5 228.5t229.5 148.5t288 54zM844 1265q-117 0 -219 -41.5t-176 -114.5t-116.5 -179t-42.5 -230t42.5 -230
t116.5 -179t176 -114.5t219 -41.5q157 0 283 70t199 200t73 295t-73 295t-199 200t-283 70zM503 1781l120 37q56 -191 221 -191q166 0 222 191l120 -37q-38 -137 -126.5 -208.5t-215.5 -71.5q-126 0 -214.5 71.5t-126.5 208.5z" />
    <glyph glyph-name="obreve" unicode="&#x14f;" horiz-adv-x="1203" 
d="M601 966q214 0 356.5 -141t142.5 -351q0 -211 -142.5 -352t-356.5 -141t-356 141t-142 352q0 210 142.5 351t355.5 141zM601 826q-148 0 -247 -100t-99 -252q0 -153 99 -253t247 -100t247 100t99 253q0 152 -99 252t-247 100zM260 1366l120 37q56 -191 221 -191
q166 0 222 191l120 -37q-38 -137 -126.5 -208.5t-215.5 -71.5q-126 0 -214.5 71.5t-126.5 208.5z" />
    <glyph glyph-name="Ohungarumlaut" unicode="&#x150;" horiz-adv-x="1689" 
d="M844 1420q206 0 371 -91.5t258.5 -256.5t93.5 -372t-93.5 -372t-258.5 -256.5t-371 -91.5q-154 0 -288 54t-229.5 148.5t-150.5 228.5t-55 289t55 289t150.5 228.5t229.5 148.5t288 54zM844 1265q-117 0 -219 -41.5t-176 -114.5t-116.5 -179t-42.5 -230t42.5 -230
t116.5 -179t176 -114.5t219 -41.5q157 0 283 70t199 200t73 295t-73 295t-199 200t-283 70zM1062 1507h-150l215 300h175zM721 1507h-153l200 300h169z" />
    <glyph glyph-name="ohungarumlaut" unicode="&#x151;" horiz-adv-x="1203" 
d="M601 966q214 0 356.5 -141t142.5 -351q0 -211 -142.5 -352t-356.5 -141t-356 141t-142 352q0 210 142.5 351t355.5 141zM601 826q-148 0 -247 -100t-99 -252q0 -153 99 -253t247 -100t247 100t99 253q0 152 -99 252t-247 100zM834 1092h-150l215 300h175zM493 1092h-153
l200 300h169z" />
    <glyph glyph-name="OE" unicode="&#x152;" horiz-adv-x="2257" 
d="M2096 151v-151h-1228q-343 0 -545 190t-202 510t202 510t545 190h1219v-151h-815v-469h790v-150h-790v-479h824zM290 700q0 -253 149.5 -400.5t428.5 -147.5h243v1096h-243q-278 0 -428 -148t-150 -400z" />
    <glyph glyph-name="oe" unicode="&#x153;" horiz-adv-x="1965" 
d="M1417 966q193 0 318 -136.5t127 -352.5q0 -5 -3 -56h-759q15 -148 108 -228.5t227 -80.5q170 0 300 119l80 -102q-155 -148 -389 -148q-139 0 -246 61.5t-165 171.5q-63 -108 -172 -170.5t-242 -62.5q-214 0 -356 141t-142 352q0 210 142.5 351t355.5 141
q134 0 243 -63.5t172 -172.5q59 111 164.5 173.5t236.5 62.5zM601 826q-148 0 -247 -100t-99 -252q0 -153 99 -253t247 -100t247 100t99 253q0 152 -99 252t-247 100zM1414 833q-128 0 -211 -80t-101 -211h608q-14 132 -94.5 211.5t-201.5 79.5z" />
    <glyph glyph-name="Racute" unicode="&#x154;" horiz-adv-x="1353" 
d="M202 1400h549q236 0 362.5 -102.5t126.5 -292.5q0 -182 -131.5 -289t-355.5 -107h-23l503 -609h-200l-493 609h-177v-609h-161v1400zM749 1249h-386v-494h386q159 0 241.5 63.5t82.5 186.5q0 121 -83 182.5t-241 61.5zM670 1507h-148l209 300h190z" />
    <glyph glyph-name="racute" unicode="&#x155;" horiz-adv-x="830" 
d="M604 966q104 0 174 -32l-36 -147q-70 38 -164 38q-112 0 -183 -81t-71 -214v-530h-149v947h148v-133q49 73 121.5 112.5t159.5 39.5zM493 1092h-148l209 300h190z" />
    <glyph glyph-name="uni0156" unicode="&#x156;" horiz-adv-x="1353" 
d="M202 1400h549q236 0 362.5 -102.5t126.5 -292.5q0 -182 -131.5 -289t-355.5 -107h-23l503 -609h-200l-493 609h-177v-609h-161v1400zM749 1249h-386v-494h386q159 0 241.5 63.5t82.5 186.5q0 121 -83 182.5t-241 61.5zM605 -88h164l-74 -350h-132z" />
    <glyph glyph-name="uni0157" unicode="&#x157;" horiz-adv-x="830" 
d="M604 966q104 0 174 -32l-36 -147q-70 38 -164 38q-112 0 -183 -81t-71 -214v-530h-149v947h148v-133q49 73 121.5 112.5t159.5 39.5zM182 -88h164l-74 -350h-132z" />
    <glyph glyph-name="Rcaron" unicode="&#x158;" horiz-adv-x="1353" 
d="M202 1400h549q236 0 362.5 -102.5t126.5 -292.5q0 -182 -131.5 -289t-355.5 -107h-23l503 -609h-200l-493 609h-177v-609h-161v1400zM749 1249h-386v-494h386q159 0 241.5 63.5t82.5 186.5q0 121 -83 182.5t-241 61.5zM328 1794h160l175 -189l174 189h160l-234 -288h-200
z" />
    <glyph glyph-name="rcaron" unicode="&#x159;" horiz-adv-x="830" 
d="M604 966q104 0 174 -32l-36 -147q-70 38 -164 38q-112 0 -183 -81t-71 -214v-530h-149v947h148v-133q49 73 121.5 112.5t159.5 39.5zM140 1379h160l175 -189l174 189h160l-234 -288h-200z" />
    <glyph glyph-name="Sacute" unicode="&#x15a;" horiz-adv-x="1346" 
d="M1198 1265l-82 -130q-192 131 -422 131q-161 0 -261.5 -68t-100.5 -185q0 -97 79.5 -152t243.5 -75l133 -16q92 -11 166.5 -36t137.5 -67t98 -110t35 -155q0 -134 -76.5 -231t-200 -143.5t-277.5 -46.5q-151 0 -300.5 49.5t-249.5 130.5l88 128q77 -65 204 -110.5
t257 -45.5q170 0 279 67t109 188q0 100 -84.5 155t-254.5 74l-141 16q-190 22 -301.5 113t-111.5 257q0 129 72 224.5t191 143t267 47.5q284 0 503 -153zM720 1507h-148l209 300h190z" />
    <glyph glyph-name="sacute" unicode="&#x15b;" horiz-adv-x="987" 
d="M876 862l-65 -116q-52 36 -136.5 62.5t-173.5 26.5q-102 0 -163 -40t-61 -109q0 -110 193 -133l112 -14q318 -41 318 -264q0 -135 -113 -214t-304 -79q-235 0 -395 121l69 112q132 -103 328 -103q122 0 191.5 39.5t69.5 113.5q0 114 -198 138l-113 13q-157 19 -235 86.5
t-78 175.5q0 133 103 210t275 77q109 0 207 -28t169 -75zM532 1092h-148l209 300h190z" />
    <glyph glyph-name="Scircumflex" unicode="&#x15c;" horiz-adv-x="1346" 
d="M1198 1265l-82 -130q-192 131 -422 131q-161 0 -261.5 -68t-100.5 -185q0 -97 79.5 -152t243.5 -75l133 -16q92 -11 166.5 -36t137.5 -67t98 -110t35 -155q0 -134 -76.5 -231t-200 -143.5t-277.5 -46.5q-151 0 -300.5 49.5t-249.5 130.5l88 128q77 -65 204 -110.5
t257 -45.5q170 0 279 67t109 188q0 100 -84.5 155t-254.5 74l-141 16q-190 22 -301.5 113t-111.5 257q0 129 72 224.5t191 143t267 47.5q284 0 503 -153zM1047 1508h-160l-174 189l-175 -189h-160l235 288h200z" />
    <glyph glyph-name="scircumflex" unicode="&#x15d;" horiz-adv-x="987" 
d="M876 862l-65 -116q-52 36 -136.5 62.5t-173.5 26.5q-102 0 -163 -40t-61 -109q0 -110 193 -133l112 -14q318 -41 318 -264q0 -135 -113 -214t-304 -79q-235 0 -395 121l69 112q132 -103 328 -103q122 0 191.5 39.5t69.5 113.5q0 114 -198 138l-113 13q-157 19 -235 86.5
t-78 175.5q0 133 103 210t275 77q109 0 207 -28t169 -75zM848 1093h-160l-174 189l-175 -189h-160l235 288h200z" />
    <glyph glyph-name="Scedilla" unicode="&#x15e;" horiz-adv-x="1346" 
d="M1198 1265l-82 -130q-192 131 -422 131q-161 0 -261.5 -68t-100.5 -185q0 -97 79.5 -152t243.5 -75l133 -16q92 -11 166.5 -36t137.5 -67t98 -110t35 -155q0 -177 -126.5 -285t-328.5 -130l-97 -310h-163l103 306q-139 9 -271 57t-221 121l88 128q77 -65 204 -110.5
t257 -45.5q170 0 279 67t109 188q0 100 -84.5 155t-254.5 74l-141 16q-190 22 -301.5 113t-111.5 257q0 129 72 224.5t191 143t267 47.5q284 0 503 -153z" />
    <glyph glyph-name="scedilla" unicode="&#x15f;" horiz-adv-x="987" 
d="M876 862l-65 -116q-52 36 -136.5 62.5t-173.5 26.5q-102 0 -163 -40t-61 -109q0 -110 193 -133l112 -14q318 -41 318 -264q0 -114 -82.5 -189.5t-226.5 -95.5l-98 -313h-156l101 307q-209 11 -350 119l69 112q132 -103 328 -103q122 0 191.5 39.5t69.5 113.5
q0 114 -198 138l-113 13q-157 19 -235 86.5t-78 175.5q0 133 103 210t275 77q109 0 207 -28t169 -75z" />
    <glyph glyph-name="Scaron" unicode="&#x160;" horiz-adv-x="1346" 
d="M1198 1265l-82 -130q-192 131 -422 131q-161 0 -261.5 -68t-100.5 -185q0 -97 79.5 -152t243.5 -75l133 -16q92 -11 166.5 -36t137.5 -67t98 -110t35 -155q0 -134 -76.5 -231t-200 -143.5t-277.5 -46.5q-151 0 -300.5 49.5t-249.5 130.5l88 128q77 -65 204 -110.5
t257 -45.5q170 0 279 67t109 188q0 100 -84.5 155t-254.5 74l-141 16q-190 22 -301.5 113t-111.5 257q0 129 72 224.5t191 143t267 47.5q284 0 503 -153zM378 1794h160l175 -189l174 189h160l-234 -288h-200z" />
    <glyph glyph-name="scaron" unicode="&#x161;" horiz-adv-x="987" 
d="M876 862l-65 -116q-52 36 -136.5 62.5t-173.5 26.5q-102 0 -163 -40t-61 -109q0 -110 193 -133l112 -14q318 -41 318 -264q0 -135 -113 -214t-304 -79q-235 0 -395 121l69 112q132 -103 328 -103q122 0 191.5 39.5t69.5 113.5q0 114 -198 138l-113 13q-157 19 -235 86.5
t-78 175.5q0 133 103 210t275 77q109 0 207 -28t169 -75zM179 1379h160l175 -189l174 189h160l-234 -288h-200z" />
    <glyph glyph-name="uni0162" unicode="&#x162;" horiz-adv-x="1212" 
d="M1172 1400v-152h-486v-1248h-3l-101 -323h-163l109 323h-2v1248h-486v152h1132z" />
    <glyph glyph-name="uni0163" unicode="&#x163;" horiz-adv-x="906" 
d="M818 947v-135h-409v-478q0 -107 51 -160t137 -53q107 0 199 67l70 -113q-102 -78 -233 -91l-96 -307h-156l104 315q-109 24 -167 109t-58 230v481h-207v135h207v301h149v-301h409z" />
    <glyph glyph-name="Tcaron" unicode="&#x164;" horiz-adv-x="1212" 
d="M1172 1400v-152h-486v-1248h-160v1248h-486v152h1132zM271 1794h160l175 -189l174 189h160l-234 -288h-200z" />
    <glyph glyph-name="tcaron" unicode="&#x165;" horiz-adv-x="906" 
d="M818 947v-135h-409v-478q0 -107 51 -160t137 -53q107 0 199 67l70 -113q-124 -94 -281 -94q-156 0 -240.5 87.5t-84.5 262.5v481h-207v135h207v301h149v-301h409zM661 1051h-126l7 389h153z" />
    <glyph glyph-name="Tbar" unicode="&#x166;" horiz-adv-x="1212" 
d="M1004 781v-152h-318v-629h-160v629h-318v152h318v467h-486v152h1132v-152h-486v-467h318z" />
    <glyph glyph-name="tbar" unicode="&#x167;" horiz-adv-x="906" 
d="M818 947v-135h-409v-222h307v-136h-307v-120q0 -107 51 -160t137 -53q107 0 199 67l70 -113q-124 -94 -281 -94q-156 0 -240.5 87.5t-84.5 262.5v123h-199v136h199v222h-207v135h207v301h149v-301h409z" />
    <glyph glyph-name="Utilde" unicode="&#x168;" horiz-adv-x="1517" 
d="M1335 1400v-852q0 -139 -45 -248.5t-124 -178t-182.5 -104.5t-225.5 -36t-225.5 36t-182.5 104.5t-123.5 178t-44.5 248.5v852h160v-840q0 -211 114 -318t302 -107t302 107t114 318v840h161zM494 1564l-88 85q46 57 97.5 84t121.5 27q58 0 106.5 -20t87 -39.5t72.5 -19.5
q66 0 130 67l89 -85q-46 -57 -98 -84t-121 -27q-57 0 -105.5 20t-87 40t-73.5 20q-66 0 -131 -68z" />
    <glyph glyph-name="utilde" unicode="&#x169;" horiz-adv-x="1188" 
d="M1024 947v-552q0 -102 -35 -182.5t-95 -130.5t-136.5 -75.5t-163.5 -25.5q-88 0 -164.5 25.5t-136.5 75.5t-94.5 130.5t-34.5 182.5v552h149v-538q0 -142 77 -215t204 -73t203.5 73t76.5 215v538h150zM338 1149l-88 85q46 57 97.5 84t121.5 27q46 0 86.5 -12.5t65.5 -27
t55.5 -27t58.5 -12.5q66 0 130 67l89 -85q-46 -57 -98 -84t-121 -27q-57 0 -105.5 20t-87 40t-73.5 20q-66 0 -131 -68z" />
    <glyph glyph-name="Umacron" unicode="&#x16a;" horiz-adv-x="1517" 
d="M1335 1400v-852q0 -139 -45 -248.5t-124 -178t-182.5 -104.5t-225.5 -36t-225.5 36t-182.5 104.5t-123.5 178t-44.5 248.5v852h160v-840q0 -211 114 -318t302 -107t302 107t114 318v840h161zM459 1590v121h598v-121h-598z" />
    <glyph glyph-name="umacron" unicode="&#x16b;" horiz-adv-x="1188" 
d="M1024 947v-552q0 -102 -35 -182.5t-95 -130.5t-136.5 -75.5t-163.5 -25.5q-88 0 -164.5 25.5t-136.5 75.5t-94.5 130.5t-34.5 182.5v552h149v-538q0 -142 77 -215t204 -73t203.5 73t76.5 215v538h150zM295 1175v121h598v-121h-598z" />
    <glyph glyph-name="Ubreve" unicode="&#x16c;" horiz-adv-x="1517" 
d="M1335 1400v-852q0 -139 -45 -248.5t-124 -178t-182.5 -104.5t-225.5 -36t-225.5 36t-182.5 104.5t-123.5 178t-44.5 248.5v852h160v-840q0 -211 114 -318t302 -107t302 107t114 318v840h161zM417 1781l120 37q56 -191 221 -191q166 0 222 191l120 -37
q-38 -137 -126.5 -208.5t-215.5 -71.5q-126 0 -214.5 71.5t-126.5 208.5z" />
    <glyph glyph-name="ubreve" unicode="&#x16d;" horiz-adv-x="1188" 
d="M1024 947v-552q0 -102 -35 -182.5t-95 -130.5t-136.5 -75.5t-163.5 -25.5q-88 0 -164.5 25.5t-136.5 75.5t-94.5 130.5t-34.5 182.5v552h149v-538q0 -142 77 -215t204 -73t203.5 73t76.5 215v538h150zM253 1366l120 37q56 -191 221 -191q166 0 222 191l120 -37
q-38 -137 -126.5 -208.5t-215.5 -71.5q-126 0 -214.5 71.5t-126.5 208.5z" />
    <glyph glyph-name="Uring" unicode="&#x16e;" horiz-adv-x="1517" 
d="M1335 1400v-852q0 -139 -45 -248.5t-124 -178t-182.5 -104.5t-225.5 -36t-225.5 36t-182.5 104.5t-123.5 178t-44.5 248.5v852h160v-840q0 -211 114 -318t302 -107t302 107t114 318v840h161zM758 1487q-93 0 -160 66t-67 159q0 92 67 158t160 66q94 0 161 -66t67 -158
q0 -93 -67 -159t-161 -66zM758 1582q53 0 90.5 38t37.5 92t-37.5 91.5t-90.5 37.5t-90 -37.5t-37 -91.5q0 -55 37 -92.5t90 -37.5z" />
    <glyph glyph-name="uring" unicode="&#x16f;" horiz-adv-x="1188" 
d="M1024 947v-552q0 -102 -35 -182.5t-95 -130.5t-136.5 -75.5t-163.5 -25.5q-88 0 -164.5 25.5t-136.5 75.5t-94.5 130.5t-34.5 182.5v552h149v-538q0 -142 77 -215t204 -73t203.5 73t76.5 215v538h150zM593 1072q-93 0 -160 66t-67 159q0 92 67 158t160 66q94 0 161 -66
t67 -158q0 -93 -67 -159t-161 -66zM593 1167q53 0 90.5 38t37.5 92t-37.5 91.5t-90.5 37.5t-90 -37.5t-37 -91.5q0 -55 37 -92.5t90 -37.5z" />
    <glyph glyph-name="Uhungarumlaut" unicode="&#x170;" horiz-adv-x="1517" 
d="M1335 1400v-852q0 -139 -45 -248.5t-124 -178t-182.5 -104.5t-225.5 -36t-225.5 36t-182.5 104.5t-123.5 178t-44.5 248.5v852h160v-840q0 -211 114 -318t302 -107t302 107t114 318v840h161zM976 1507h-150l215 300h175zM635 1507h-153l200 300h169z" />
    <glyph glyph-name="uhungarumlaut" unicode="&#x171;" horiz-adv-x="1188" 
d="M1024 947v-552q0 -102 -35 -182.5t-95 -130.5t-136.5 -75.5t-163.5 -25.5q-88 0 -164.5 25.5t-136.5 75.5t-94.5 130.5t-34.5 182.5v552h149v-538q0 -142 77 -215t204 -73t203.5 73t76.5 215v538h150zM827 1092h-150l215 300h175zM486 1092h-153l200 300h169z" />
    <glyph glyph-name="Uogonek" unicode="&#x172;" horiz-adv-x="1517" 
d="M1119 -228l80 -97q-95 -90 -232 -90q-116 0 -188.5 58t-72.5 148q0 113 111 192q-42 -2 -59 -2q-122 0 -225.5 36t-182.5 104.5t-123.5 178t-44.5 248.5v852h160v-840q0 -211 114 -318t302 -107t302 107t114 318v840h161v-852q0 -182 -74 -308.5t-204 -194.5
q-105 -55 -155 -108.5t-50 -118.5q0 -46 34 -75t90 -29q80 0 143 58z" />
    <glyph glyph-name="uogonek" unicode="&#x173;" horiz-adv-x="1188" 
d="M907 -228l80 -97q-95 -90 -232 -90q-116 0 -188.5 58t-72.5 148q0 112 107 190h-7q-88 0 -164.5 25.5t-136.5 75.5t-94.5 130.5t-34.5 182.5v552h149v-538q0 -142 77 -215t204 -73t203.5 73t76.5 215v538h150v-552q0 -256 -211 -368q-173 -93 -173 -209q0 -46 34 -75
t90 -29q80 0 143 58z" />
    <glyph glyph-name="Wcircumflex" unicode="&#x174;" horiz-adv-x="2197" 
d="M2139 1400l-455 -1400h-198l-388 1186l-388 -1186h-197l-455 1400h168l387 -1218l396 1218h182l395 -1219l388 1219h165zM1432 1508h-160l-174 189l-175 -189h-160l235 288h200z" />
    <glyph glyph-name="wcircumflex" unicode="&#x175;" horiz-adv-x="1706" 
d="M937 947l284 -792l285 792h155l-350 -947h-177l-283 787l-282 -787h-174l-350 947h159l283 -791l282 791h168zM1187 1093h-160l-174 189l-175 -189h-160l235 288h200z" />
    <glyph glyph-name="Ycircumflex" unicode="&#x176;" horiz-adv-x="1287" 
d="M1276 1400l-551 -813v-587h-160v589l-554 811h192l443 -664l443 664h187zM980 1508h-160l-174 189l-175 -189h-160l235 288h200z" />
    <glyph glyph-name="ycircumflex" unicode="&#x177;" horiz-adv-x="1054" 
d="M1039 947l-771 -1351h-165l353 609l-435 742h167l353 -594l334 594h164zM866 1093h-160l-174 189l-175 -189h-160l235 288h200z" />
    <glyph glyph-name="Ydieresis" unicode="&#x178;" horiz-adv-x="1287" 
d="M1276 1400l-551 -813v-587h-160v589l-554 811h192l443 -664l443 664h187zM443 1758q44 0 75 -31t31 -76t-30.5 -75t-75.5 -30t-75.5 30t-30.5 75t30.5 76t75.5 31zM849 1758q44 0 75 -31t31 -76t-30.5 -75t-75.5 -30t-75 30t-30 75t30 76t75 31z" />
    <glyph glyph-name="Zacute" unicode="&#x179;" horiz-adv-x="1314" 
d="M1190 1400v-124l-855 -1124h858v-152h-1072v124l856 1124h-846v152h1059zM668 1507h-148l209 300h190z" />
    <glyph glyph-name="zacute" unicode="&#x17a;" horiz-adv-x="1055" 
d="M924 947v-109l-604 -703h613v-135h-811v108l610 704h-592v135h784zM550 1092h-148l209 300h190z" />
    <glyph glyph-name="Zdotaccent" unicode="&#x17b;" horiz-adv-x="1314" 
d="M1190 1400v-124l-855 -1124h858v-152h-1072v124l856 1124h-846v152h1059zM647 1764q46 0 78 -31.5t32 -77.5t-32 -77.5t-78 -31.5q-47 0 -78 31t-31 78t31 78t78 31z" />
    <glyph glyph-name="zdotaccent" unicode="&#x17c;" horiz-adv-x="1055" 
d="M924 947v-109l-604 -703h613v-135h-811v108l610 704h-592v135h784zM532 1389q44 0 75 -30.5t31 -75.5t-30.5 -75t-75.5 -30t-75 30t-30 75t30 75.5t75 30.5z" />
    <glyph glyph-name="Zcaron" unicode="&#x17d;" horiz-adv-x="1314" 
d="M1190 1400v-124l-855 -1124h858v-152h-1072v124l856 1124h-846v152h1059zM326 1794h160l175 -189l174 189h160l-234 -288h-200z" />
    <glyph glyph-name="zcaron" unicode="&#x17e;" horiz-adv-x="1055" 
d="M924 947v-109l-604 -703h613v-135h-811v108l610 704h-592v135h784zM197 1379h160l175 -189l174 189h160l-234 -288h-200z" />
    <glyph glyph-name="longs" unicode="&#x17f;" horiz-adv-x="645" 
d="M481 1459q143 0 259 -71l-53 -125q-97 56 -196 56q-175 0 -175 -210v-1109h-150v1109q0 161 77 255.5t238 94.5z" />
    <glyph glyph-name="uni018F" unicode="&#x18f;" horiz-adv-x="1622" 
d="M794 1419q197 0 358.5 -92t254.5 -257t93 -370q0 -154 -53.5 -288t-145.5 -228.5t-220 -148.5t-272 -54q-199 0 -356 91t-244.5 252.5t-87.5 365.5q0 12 0.5 26t1.5 31t1 26h1207q-25 216 -175.5 354t-360.5 138q-271 0 -458 -218l-112 110q233 262 569 262zM810 135
q203 0 349 136t171 352h-1033q12 -212 156 -350t357 -138z" />
    <glyph glyph-name="florin" unicode="&#x192;" horiz-adv-x="1400" 
d="M1080 793v-136h-311l-34 -348q-33 -327 -292 -327q-130 0 -233 65l51 120q80 -50 173 -50q136 0 155 192l35 348h-261v136h275l30 298q33 327 291 327q130 0 234 -65l-52 -120q-80 50 -173 50q-136 0 -155 -192l-30 -298h297z" />
    <glyph glyph-name="uni01B5" unicode="&#x1b5;" horiz-adv-x="1314" 
d="M1057 773v-148h-363l-359 -473h858v-152h-1072v124l385 506h-249v148h362l358 470h-846v152h1059v-124l-383 -503h250z" />
    <glyph glyph-name="uni01B6" unicode="&#x1b6;" horiz-adv-x="1055" 
d="M853 537v-115h-287l-246 -287h613v-135h-811v108l277 319h-191v115h289l236 270h-593v135h784v-109l-258 -301h187z" />
    <glyph glyph-name="uni01CD" unicode="&#x1cd;" horiz-adv-x="1421" 
d="M810 1400l575 -1400h-172l-159 390h-693l-158 -390h-167l575 1400h199zM708 1241l-285 -699h570zM376 1794h160l175 -189l174 189h160l-234 -288h-200z" />
    <glyph glyph-name="uni01CE" unicode="&#x1ce;" horiz-adv-x="1246" 
d="M1071 947v-947h-149v141q-124 -160 -346 -160q-201 0 -337 140.5t-136 352.5t136 352t337 140q221 0 346 -160v141h149zM594 826q-150 0 -244.5 -101.5t-94.5 -250.5t95 -251t244 -102q147 0 242 100.5t95 252.5q0 151 -95 251.5t-242 100.5zM276 1379h160l175 -189
l174 189h160l-234 -288h-200z" />
    <glyph glyph-name="uni01CF" unicode="&#x1cf;" horiz-adv-x="565" 
d="M363 1400v-1400h-161v1400h161zM-53 1794h160l175 -189l174 189h160l-234 -288h-200z" />
    <glyph glyph-name="uni01D0" unicode="&#x1d0;" horiz-adv-x="500" 
d="M325 947v-947h-150v947h150zM-85 1379h160l175 -189l174 189h160l-234 -288h-200z" />
    <glyph glyph-name="uni01D1" unicode="&#x1d1;" horiz-adv-x="1689" 
d="M844 1420q206 0 371 -91.5t258.5 -256.5t93.5 -372t-93.5 -372t-258.5 -256.5t-371 -91.5q-154 0 -288 54t-229.5 148.5t-150.5 228.5t-55 289t55 289t150.5 228.5t229.5 148.5t288 54zM844 1265q-117 0 -219 -41.5t-176 -114.5t-116.5 -179t-42.5 -230t42.5 -230
t116.5 -179t176 -114.5t219 -41.5q157 0 283 70t199 200t73 295t-73 295t-199 200t-283 70zM509 1794h160l175 -189l174 189h160l-234 -288h-200z" />
    <glyph glyph-name="uni01D2" unicode="&#x1d2;" horiz-adv-x="1203" 
d="M601 966q214 0 356.5 -141t142.5 -351q0 -211 -142.5 -352t-356.5 -141t-356 141t-142 352q0 210 142.5 351t355.5 141zM601 826q-148 0 -247 -100t-99 -252q0 -153 99 -253t247 -100t247 100t99 253q0 152 -99 252t-247 100zM266 1379h160l175 -189l174 189h160
l-234 -288h-200z" />
    <glyph glyph-name="uni01D3" unicode="&#x1d3;" horiz-adv-x="1517" 
d="M1335 1400v-852q0 -139 -45 -248.5t-124 -178t-182.5 -104.5t-225.5 -36t-225.5 36t-182.5 104.5t-123.5 178t-44.5 248.5v852h160v-840q0 -211 114 -318t302 -107t302 107t114 318v840h161zM423 1794h160l175 -189l174 189h160l-234 -288h-200z" />
    <glyph glyph-name="uni01D4" unicode="&#x1d4;" horiz-adv-x="1188" 
d="M1024 947v-552q0 -102 -35 -182.5t-95 -130.5t-136.5 -75.5t-163.5 -25.5q-88 0 -164.5 25.5t-136.5 75.5t-94.5 130.5t-34.5 182.5v552h149v-538q0 -142 77 -215t204 -73t203.5 73t76.5 215v538h150zM259 1379h160l175 -189l174 189h160l-234 -288h-200z" />
    <glyph glyph-name="uni01D5" unicode="&#x1d5;" horiz-adv-x="1517" 
d="M1335 1400v-852q0 -139 -45 -248.5t-124 -178t-182.5 -104.5t-225.5 -36t-225.5 36t-182.5 104.5t-123.5 178t-44.5 248.5v852h160v-840q0 -211 114 -318t302 -107t302 107t114 318v840h161zM459 1924v121h598v-121h-598zM555 1758q44 0 75 -31t31 -76t-30.5 -75
t-75.5 -30t-75.5 30t-30.5 75t30.5 76t75.5 31zM961 1758q44 0 75 -31t31 -76t-30.5 -75t-75.5 -30t-75 30t-30 75t30 76t75 31z" />
    <glyph glyph-name="uni01D6" unicode="&#x1d6;" horiz-adv-x="1188" 
d="M1024 947v-552q0 -102 -35 -182.5t-95 -130.5t-136.5 -75.5t-163.5 -25.5q-88 0 -164.5 25.5t-136.5 75.5t-94.5 130.5t-34.5 182.5v552h149v-538q0 -142 77 -215t204 -73t203.5 73t76.5 215v538h150zM391 1343q44 0 75 -31t31 -76t-30.5 -75t-75.5 -30t-75.5 30
t-30.5 75t30.5 76t75.5 31zM797 1343q44 0 75 -31t31 -76t-30.5 -75t-75.5 -30t-75 30t-30 75t30 76t75 31zM295 1510v121h598v-121h-598z" />
    <glyph glyph-name="uni01D7" unicode="&#x1d7;" horiz-adv-x="1517" 
d="M1335 1400v-852q0 -139 -45 -248.5t-124 -178t-182.5 -104.5t-225.5 -36t-225.5 36t-182.5 104.5t-123.5 178t-44.5 248.5v852h160v-840q0 -211 114 -318t302 -107t302 107t114 318v840h161zM765 1906h-148l209 300h190zM555 1758q44 0 75 -31t31 -76t-30.5 -75
t-75.5 -30t-75.5 30t-30.5 75t30.5 76t75.5 31zM961 1758q44 0 75 -31t31 -76t-30.5 -75t-75.5 -30t-75 30t-30 75t30 76t75 31z" />
    <glyph glyph-name="uni01D8" unicode="&#x1d8;" horiz-adv-x="1188" 
d="M1024 947v-552q0 -102 -35 -182.5t-95 -130.5t-136.5 -75.5t-163.5 -25.5q-88 0 -164.5 25.5t-136.5 75.5t-94.5 130.5t-34.5 182.5v552h149v-538q0 -142 77 -215t204 -73t203.5 73t76.5 215v538h150zM391 1343q44 0 75 -31t31 -76t-30.5 -75t-75.5 -30t-75.5 30
t-30.5 75t30.5 76t75.5 31zM797 1343q44 0 75 -31t31 -76t-30.5 -75t-75.5 -30t-75 30t-30 75t30 76t75 31zM601 1492h-148l209 300h190z" />
    <glyph glyph-name="uni01D9" unicode="&#x1d9;" horiz-adv-x="1517" 
d="M1335 1400v-852q0 -139 -45 -248.5t-124 -178t-182.5 -104.5t-225.5 -36t-225.5 36t-182.5 104.5t-123.5 178t-44.5 248.5v852h160v-840q0 -211 114 -318t302 -107t302 107t114 318v840h161zM423 2193h160l175 -189l174 189h160l-234 -288h-200zM555 1758q44 0 75 -31
t31 -76t-30.5 -75t-75.5 -30t-75.5 30t-30.5 75t30.5 76t75.5 31zM961 1758q44 0 75 -31t31 -76t-30.5 -75t-75.5 -30t-75 30t-30 75t30 76t75 31z" />
    <glyph glyph-name="uni01DA" unicode="&#x1da;" horiz-adv-x="1188" 
d="M1024 947v-552q0 -102 -35 -182.5t-95 -130.5t-136.5 -75.5t-163.5 -25.5q-88 0 -164.5 25.5t-136.5 75.5t-94.5 130.5t-34.5 182.5v552h149v-538q0 -142 77 -215t204 -73t203.5 73t76.5 215v538h150zM391 1343q44 0 75 -31t31 -76t-30.5 -75t-75.5 -30t-75.5 30
t-30.5 75t30.5 76t75.5 31zM797 1343q44 0 75 -31t31 -76t-30.5 -75t-75.5 -30t-75 30t-30 75t30 76t75 31zM259 1779h160l175 -189l174 189h160l-234 -288h-200z" />
    <glyph glyph-name="uni01DB" unicode="&#x1db;" horiz-adv-x="1517" 
d="M1335 1400v-852q0 -139 -45 -248.5t-124 -178t-182.5 -104.5t-225.5 -36t-225.5 36t-182.5 104.5t-123.5 178t-44.5 248.5v852h160v-840q0 -211 114 -318t302 -107t302 107t114 318v840h161zM741 1906l-251 300h189l210 -300h-148zM555 1758q44 0 75 -31t31 -76
t-30.5 -75t-75.5 -30t-75.5 30t-30.5 75t30.5 76t75.5 31zM961 1758q44 0 75 -31t31 -76t-30.5 -75t-75.5 -30t-75 30t-30 75t30 76t75 31z" />
    <glyph glyph-name="uni01DC" unicode="&#x1dc;" horiz-adv-x="1188" 
d="M1024 947v-552q0 -102 -35 -182.5t-95 -130.5t-136.5 -75.5t-163.5 -25.5q-88 0 -164.5 25.5t-136.5 75.5t-94.5 130.5t-34.5 182.5v552h149v-538q0 -142 77 -215t204 -73t203.5 73t76.5 215v538h150zM391 1343q44 0 75 -31t31 -76t-30.5 -75t-75.5 -30t-75.5 30
t-30.5 75t30.5 76t75.5 31zM797 1343q44 0 75 -31t31 -76t-30.5 -75t-75.5 -30t-75 30t-30 75t30 76t75 31zM577 1492l-251 300h189l210 -300h-148z" />
    <glyph glyph-name="uni01E2" unicode="&#x1e2;" horiz-adv-x="2283" 
d="M2122 151v-151h-985v365h-638l-276 -365h-194l1064 1400h1020v-151h-815v-469h790v-150h-790v-479h824zM614 517h523v690zM1226 1590v121h598v-121h-598z" />
    <glyph glyph-name="uni01E3" unicode="&#x1e3;" horiz-adv-x="1800" 
d="M1252 965q193 0 318 -136.5t127 -351.5q0 -5 -3 -56h-759q15 -148 108 -228.5t227 -80.5q170 0 300 119l79 -102q-153 -148 -388 -148q-123 0 -223.5 48.5t-164.5 137.5q-69 -85 -171 -135.5t-232 -50.5q-170 0 -268.5 79t-98.5 206q0 126 102.5 202.5t287.5 76.5h290v7
q0 140 -72.5 209.5t-209.5 69.5q-145 0 -274 -95l-70 111q158 119 363 119q275 0 360 -199q58 92 156.5 145t215.5 53zM493 113q89 0 176 43.5t146 119.5q-24 64 -32 145h-274q-128 0 -187.5 -43t-59.5 -112q0 -66 60.5 -109.5t170.5 -43.5zM1249 833q-128 0 -211 -80
t-101 -211h607q-13 132 -94 211.5t-201 79.5zM596 1175v121h598v-121h-598z" />
    <glyph glyph-name="Gcaron" unicode="&#x1e6;" horiz-adv-x="1639" 
d="M844 1420q165 0 305.5 -61.5t237.5 -173.5l-119 -114q-75 91 -185 142.5t-239 51.5q-117 0 -219 -41.5t-176 -114.5t-116.5 -179t-42.5 -230t42.5 -230t116 -179t174 -114.5t214.5 -41.5q220 0 352.5 123t151.5 340h-436v150h610q2 -28 2 -41q0 -205 -81 -369
t-237 -260.5t-362 -96.5q-111 0 -216 31t-195.5 92.5t-158.5 146.5t-107 201t-39 248q0 207 94 372t259.5 256.5t369.5 91.5zM487 1794h160l175 -189l174 189h160l-234 -288h-200z" />
    <glyph glyph-name="gcaron" unicode="&#x1e7;" horiz-adv-x="1235" 
d="M572 966q220 0 338 -161v142h150v-882q0 -227 -138 -353.5t-363 -126.5q-114 0 -220.5 33.5t-178.5 93.5l66 120q147 -111 333 -111q158 0 254.5 88t96.5 250v97q-117 -161 -338 -161q-201 0 -335 136.5t-134 349.5t134 349t335 136zM589 826q-148 0 -241 -99.5
t-93 -245.5q0 -147 93 -246.5t241 -99.5q145 0 239.5 98.5t94.5 247.5q0 147 -94.5 246t-239.5 99zM269 1379h160l175 -189l174 189h160l-234 -288h-200z" />
    <glyph glyph-name="Aringacute" unicode="&#x1fa;" horiz-adv-x="1421" 
d="M203 0h-167l553 1348q-50 30 -79 80.5t-29 110.5q0 92 67 158t160 66q94 0 161 -66t67 -158q0 -58 -28.5 -108t-76.5 -81l554 -1350h-172l-159 390h-693zM708 1243l-285 -701h570zM708 1409q53 0 90.5 38t37.5 92t-37.5 91.5t-90.5 37.5t-90 -37.5t-37 -91.5
q0 -55 37 -92.5t90 -37.5zM715 1823h-148l209 300h190z" />
    <glyph glyph-name="aringacute" unicode="&#x1fb;" horiz-adv-x="1246" 
d="M1071 947v-947h-149v141q-124 -160 -346 -160q-201 0 -337 140.5t-136 352.5t136 352t337 140q221 0 346 -160v141h149zM594 826q-150 0 -244.5 -101.5t-94.5 -250.5t95 -251t244 -102q147 0 242 100.5t95 252.5q0 151 -95 251.5t-242 100.5zM595 1038q-93 0 -160 66
t-67 159q0 92 67 158t160 66q94 0 161 -66t67 -158q0 -93 -67 -159t-161 -66zM595 1133q53 0 90.5 38t37.5 92t-37.5 91.5t-90.5 37.5t-90 -37.5t-37 -91.5q0 -55 37 -92.5t90 -37.5zM603 1545h-148l209 300h190z" />
    <glyph glyph-name="AEacute" unicode="&#x1fc;" horiz-adv-x="2283" 
d="M2122 151v-151h-985v365h-638l-276 -365h-194l1064 1400h1020v-151h-815v-469h790v-150h-790v-479h824zM614 517h523v690zM1532 1507h-148l209 300h190z" />
    <glyph glyph-name="aeacute" unicode="&#x1fd;" horiz-adv-x="1800" 
d="M1252 965q193 0 318 -136.5t127 -351.5q0 -5 -3 -56h-759q15 -148 108 -228.5t227 -80.5q170 0 300 119l79 -102q-153 -148 -388 -148q-123 0 -223.5 48.5t-164.5 137.5q-69 -85 -171 -135.5t-232 -50.5q-170 0 -268.5 79t-98.5 206q0 126 102.5 202.5t287.5 76.5h290v7
q0 140 -72.5 209.5t-209.5 69.5q-145 0 -274 -95l-70 111q158 119 363 119q275 0 360 -199q58 92 156.5 145t215.5 53zM493 113q89 0 176 43.5t146 119.5q-24 64 -32 145h-274q-128 0 -187.5 -43t-59.5 -112q0 -66 60.5 -109.5t170.5 -43.5zM1249 833q-128 0 -211 -80
t-101 -211h607q-13 132 -94 211.5t-201 79.5zM913 1092h-148l209 300h190z" />
    <glyph glyph-name="Oslashacute" unicode="&#x1fe;" horiz-adv-x="1689" 
d="M844 1420q267 0 461 -153l152 152l106 -106l-152 -152q156 -194 156 -461q0 -207 -93.5 -372t-258.5 -256.5t-371 -91.5q-267 0 -461 153l-151 -151l-107 105l151 151q-155 193 -155 462q0 155 55 289t150.5 228.5t229.5 148.5t288 54zM1399 700q0 198 -105 344
l-796 -796q144 -113 346 -113q157 0 283 70t199 200t73 295zM844 1265q-117 0 -219 -41.5t-176 -114.5t-116.5 -179t-42.5 -230q0 -199 104 -344l796 796q-148 113 -346 113zM851 1507h-148l209 300h190z" />
    <glyph glyph-name="oslashacute" unicode="&#x1ff;" horiz-adv-x="1203" 
d="M601 966q173 0 306 -98l111 111l90 -90l-110 -110q102 -132 102 -305q0 -211 -142.5 -352t-356.5 -141q-174 0 -304 97l-111 -111l-91 89l110 110q-102 130 -102 308q0 210 142.5 351t355.5 141zM601 826q-148 0 -247 -100t-99 -252q0 -112 57 -201l491 491
q-91 62 -202 62zM947 474q0 108 -56 198l-491 -491q88 -60 201 -60q148 0 247 100t99 253zM619 1092h-148l209 300h190z" />
    <glyph glyph-name="uni0218" unicode="&#x218;" horiz-adv-x="1346" 
d="M1198 1265l-82 -130q-192 131 -422 131q-161 0 -261.5 -68t-100.5 -185q0 -97 79.5 -152t243.5 -75l133 -16q92 -11 166.5 -36t137.5 -67t98 -110t35 -155q0 -134 -76.5 -231t-200 -143.5t-277.5 -46.5q-151 0 -300.5 49.5t-249.5 130.5l88 128q77 -65 204 -110.5
t257 -45.5q170 0 279 67t109 188q0 100 -84.5 155t-254.5 74l-141 16q-190 22 -301.5 113t-111.5 257q0 129 72 224.5t191 143t267 47.5q284 0 503 -153zM636 -88h164l-74 -350h-132z" />
    <glyph glyph-name="uni0219" unicode="&#x219;" horiz-adv-x="987" 
d="M876 862l-65 -116q-52 36 -136.5 62.5t-173.5 26.5q-102 0 -163 -40t-61 -109q0 -110 193 -133l112 -14q318 -41 318 -264q0 -135 -113 -214t-304 -79q-235 0 -395 121l69 112q132 -103 328 -103q122 0 191.5 39.5t69.5 113.5q0 114 -198 138l-113 13q-157 19 -235 86.5
t-78 175.5q0 133 103 210t275 77q109 0 207 -28t169 -75zM438 -88h164l-74 -350h-132z" />
    <glyph glyph-name="uni021A" unicode="&#x21a;" horiz-adv-x="1212" 
d="M1172 1400v-152h-486v-1248h-160v1248h-486v152h1132zM545 -88h164l-74 -350h-132z" />
    <glyph glyph-name="uni021B" unicode="&#x21b;" horiz-adv-x="906" 
d="M818 947v-135h-409v-478q0 -107 51 -160t137 -53q107 0 199 67l70 -113q-124 -94 -281 -94q-156 0 -240.5 87.5t-84.5 262.5v481h-207v135h207v301h149v-301h409zM482 -88h164l-74 -350h-132z" />
    <glyph glyph-name="uni0232" unicode="&#x232;" horiz-adv-x="1287" 
d="M1276 1400l-551 -813v-587h-160v589l-554 811h192l443 -664l443 664h187zM347 1590v121h598v-121h-598z" />
    <glyph glyph-name="uni0233" unicode="&#x233;" horiz-adv-x="1054" 
d="M1039 947l-771 -1351h-165l353 609l-435 742h167l353 -594l334 594h164zM233 1175v121h598v-121h-598z" />
    <glyph glyph-name="uni0237" unicode="&#x237;" horiz-adv-x="504" 
d="M329 947v-1103q0 -124 -63.5 -191.5t-172.5 -67.5q-79 0 -136 32l36 129q40 -20 87 -20q99 0 99 125v1096h150z" />
    <glyph glyph-name="uni0259" unicode="&#x259;" horiz-adv-x="1121" 
d="M548 -19q-193 0 -318.5 137t-126.5 352q0 30 3 56h759q-15 148 -108 228.5t-227 80.5q-172 0 -305 -123l-75 106q155 148 389 148q211 0 345 -136.5t134 -355.5q0 -216 -133 -354.5t-337 -138.5zM551 114q128 0 211 80t101 211h-608q14 -133 94.5 -212t201.5 -79z" />
    <glyph glyph-name="uni02BB" unicode="&#x2bb;" horiz-adv-x="494" 
d="M307 933h-174l105 507h129z" />
    <glyph glyph-name="uni02BC" unicode="&#x2bc;" horiz-adv-x="494" 
d="M187 1440h174l-105 -507h-129z" />
    <glyph glyph-name="uni02BE" unicode="&#x2be;" horiz-adv-x="540" 
d="M142 746v138q84 0 144.5 63t60.5 152q0 90 -60.5 153t-144.5 63v138q145 0 247.5 -103.5t102.5 -250.5q0 -146 -102.5 -249.5t-247.5 -103.5z" />
    <glyph glyph-name="uni02BF" unicode="&#x2bf;" horiz-adv-x="540" 
d="M398 1453v-138q-84 0 -144.5 -63t-60.5 -152q0 -90 60.5 -153t144.5 -63v-138q-145 0 -247.5 103.5t-102.5 250.5q0 146 102.5 249.5t247.5 103.5z" />
    <glyph glyph-name="circumflex" unicode="&#x2c6;" horiz-adv-x="939" 
d="M804 1093h-160l-175 189l-174 -189h-160l234 288h200z" />
    <glyph glyph-name="caron" unicode="&#x2c7;" horiz-adv-x="939" 
d="M135 1379h160l175 -189l174 189h160l-234 -288h-200z" />
    <glyph glyph-name="breve" unicode="&#x2d8;" horiz-adv-x="939" 
d="M128 1366l120 37q56 -191 222 -191q165 0 221 191l120 -37q-38 -136 -126.5 -208t-214.5 -72t-215 72t-127 208z" />
    <glyph glyph-name="dotaccent" unicode="&#x2d9;" horiz-adv-x="561" 
d="M280 1389q44 0 75 -30.5t31 -75.5t-30.5 -75t-75.5 -30t-75 30t-30 75t30 75.5t75 30.5z" />
    <glyph glyph-name="ring" unicode="&#x2da;" horiz-adv-x="939" 
d="M470 1072q-94 0 -160.5 66t-66.5 159q0 92 66.5 158t160.5 66t161 -66t67 -158q0 -93 -67 -159t-161 -66zM470 1167q53 0 90.5 38t37.5 92t-37.5 91.5t-90.5 37.5t-90 -37.5t-37 -91.5q0 -55 37 -92.5t90 -37.5z" />
    <glyph glyph-name="ogonek" unicode="&#x2db;" horiz-adv-x="1088" 
d="M826 -228l80 -97q-95 -90 -232 -90q-115 0 -185.5 60.5t-70.5 158.5q0 99 75.5 168t226.5 131l66 -84q-119 -49 -173 -95.5t-54 -105.5q0 -46 34 -75t90 -29q80 0 143 58z" />
    <glyph glyph-name="tilde" unicode="&#x2dc;" horiz-adv-x="939" 
d="M206 1149l-88 85q46 57 97.5 84t121.5 27q46 0 86.5 -12.5t65.5 -27t55.5 -27t58.5 -12.5q66 0 130 67l89 -85q-46 -57 -98 -84t-121 -27q-57 0 -105.5 20t-87 40t-73.5 20q-66 0 -131 -68z" />
    <glyph glyph-name="hungarumlaut" unicode="&#x2dd;" horiz-adv-x="939" 
d="M609 1092h-147l209 300h189zM226 1092h-147l209 300h189z" />
    <glyph glyph-name="gravecomb" unicode="&#x300;" 
d="M-632 1092l-251 300h189l210 -300h-148z" />
    <glyph glyph-name="acutecomb" unicode="&#x301;" 
d="M-584 1092h-148l209 300h190z" />
    <glyph glyph-name="uni0302" unicode="&#x302;" 
d="M-268 1093h-160l-174 189l-175 -189h-160l235 288h200z" />
    <glyph glyph-name="tildecomb" unicode="&#x303;" 
d="M-858 1149l-88 85q46 57 97.5 84t121.5 27q46 0 86.5 -12.5t65.5 -27t55.5 -27t58.5 -12.5q66 0 130 67l89 -85q-46 -57 -98 -84t-121 -27q-57 0 -105.5 20t-87 40t-73.5 20q-66 0 -131 -68z" />
    <glyph glyph-name="uni0304" unicode="&#x304;" 
d="M-901 1175v121h598v-121h-598z" />
    <glyph glyph-name="uni0306" unicode="&#x306;" 
d="M-943 1366l120 37q56 -191 221 -191q166 0 222 191l120 -37q-38 -137 -126.5 -208.5t-215.5 -71.5q-126 0 -214.5 71.5t-126.5 208.5z" />
    <glyph glyph-name="uni0307" unicode="&#x307;" 
d="M-602 1389q44 0 75 -30.5t31 -75.5t-30.5 -75t-75.5 -30t-75 30t-30 75t30 75.5t75 30.5z" />
    <glyph glyph-name="uni0308" unicode="&#x308;" 
d="M-805 1343q44 0 75 -31t31 -76t-30.5 -75t-75.5 -30t-75.5 30t-30.5 75t30.5 76t75.5 31zM-399 1343q44 0 75 -31t31 -76t-30.5 -75t-75.5 -30t-75 30t-30 75t30 76t75 31z" />
    <glyph glyph-name="uni030A" unicode="&#x30a;" 
d="M-603 1072q-93 0 -160 66t-67 159q0 92 67 158t160 66q94 0 161 -66t67 -158q0 -93 -67 -159t-161 -66zM-603 1167q53 0 90.5 38t37.5 92t-37.5 91.5t-90.5 37.5t-90 -37.5t-37 -91.5q0 -55 37 -92.5t90 -37.5z" />
    <glyph glyph-name="uni030B" unicode="&#x30b;" 
d="M-369 1092h-150l215 300h175zM-710 1092h-153l200 300h169z" />
    <glyph glyph-name="uni030C" unicode="&#x30c;" 
d="M-937 1379h160l175 -189l174 189h160l-234 -288h-200z" />
    <glyph glyph-name="uni0312" unicode="&#x312;" 
d="M-529 1092h-164l74 351h132z" />
    <glyph glyph-name="dotbelowcomb" unicode="&#x323;" 
d="M-601 -159q44 0 75 -30.5t31 -75.5t-30.5 -75t-75.5 -30t-75 30t-30 75t30 75.5t75 30.5z" />
    <glyph glyph-name="uni0326" unicode="&#x326;" 
d="M-670 -88h164l-74 -350h-132z" />
    <glyph glyph-name="uni0327" unicode="&#x327;" 
d="M-471 5l-103 -328h-156l109 329z" />
    <glyph glyph-name="uni0328" unicode="&#x328;" 
d="M-434 -228l80 -97q-95 -90 -232 -90q-116 0 -188.5 58t-72.5 148q0 103 82 170t253 130l14 -45q-105 -57 -154 -110t-49 -118q0 -46 34 -75t90 -29q80 0 143 58z" />
    <glyph glyph-name="uni032E" unicode="&#x32e;" 
d="M-943 -136l120 36q56 -191 222 -191q165 0 221 191l120 -36q-38 -137 -126.5 -209t-214.5 -72t-215 72t-127 209z" />
    <glyph glyph-name="uni0331" unicode="&#x331;" 
d="M-899 -324v122h598v-122h-598z" />
    <glyph glyph-name="uni0335" unicode="&#x335;" 
d="M-242 597v-136h-718v136h718z" />
    <glyph glyph-name="uni0336" unicode="&#x336;" 
d="M148 597v-136h-1497v136h1497z" />
    <glyph glyph-name="uni0394" unicode="&#x394;" horiz-adv-x="1412" 
d="M805 1402l526 -1278v-124h-1250v124l526 1278h198zM706 1239l-444 -1087h888z" />
    <glyph glyph-name="uni03A9" unicode="&#x3a9;" horiz-adv-x="1720" 
d="M81 152h342q-133 87 -209.5 228.5t-76.5 314.5q0 208 93.5 374t258.5 258.5t371 92.5q154 0 288 -54.5t229.5 -149.5t150.5 -230t55 -291q0 -174 -76.5 -315t-210.5 -228h343v-152h-602v131q171 54 274.5 203t103.5 354q0 127 -42.5 235.5t-116.5 183t-176.5 116.5
t-219.5 42t-219.5 -42t-176.5 -116.5t-116.5 -183t-42.5 -235.5q0 -205 103.5 -354t274.5 -203v-131h-602v152z" />
    <glyph glyph-name="uni03BC" unicode="&#x3bc;" horiz-adv-x="1201" 
d="M312 -400h-148v1347h149v-538q0 -135 71.5 -210.5t201.5 -75.5q123 0 206.5 79.5t83.5 210.5v534h150v-947h-148v135q-54 -80 -139 -117t-180 -37q-74 0 -140 24.5t-107 68.5v-474z" />
    <glyph glyph-name="pi" unicode="&#x3c0;" horiz-adv-x="1201" 
d="M1037 947v-947h-150v812h-562v-812h-150v947h862z" />
    <glyph glyph-name="uni1E0C" unicode="&#x1e0c;" horiz-adv-x="1598" 
d="M202 1400h527q343 0 545 -190t202 -510t-202 -510t-545 -190h-527v1400zM729 1248h-366v-1096h366q278 0 428 148t150 400q0 253 -149.5 400.5t-428.5 147.5zM761 -159q44 0 75 -30.5t31 -75.5t-30.5 -75t-75.5 -30t-75 30t-30 75t30 75.5t75 30.5z" />
    <glyph glyph-name="uni1E0D" unicode="&#x1e0d;" horiz-adv-x="1246" 
d="M576 966q221 0 346 -160v634h149v-1440h-149v141q-124 -160 -346 -160q-201 0 -337 140.5t-136 352.5t136 352t337 140zM594 826q-150 0 -244.5 -101.5t-94.5 -250.5t95 -251t244 -102q147 0 242 100.5t95 252.5q0 151 -95 251.5t-242 100.5zM617 -159q44 0 75 -30.5
t31 -75.5t-30.5 -75t-75.5 -30t-75 30t-30 75t30 75.5t75 30.5z" />
    <glyph glyph-name="uni1E0E" unicode="&#x1e0e;" horiz-adv-x="1598" 
d="M202 1400h527q343 0 545 -190t202 -510t-202 -510t-545 -190h-527v1400zM729 1248h-366v-1096h366q278 0 428 148t150 400q0 253 -149.5 400.5t-428.5 147.5zM464 -324v122h598v-122h-598z" />
    <glyph glyph-name="uni1E0F" unicode="&#x1e0f;" horiz-adv-x="1246" 
d="M576 966q221 0 346 -160v634h149v-1440h-149v141q-124 -160 -346 -160q-201 0 -337 140.5t-136 352.5t136 352t337 140zM594 826q-150 0 -244.5 -101.5t-94.5 -250.5t95 -251t244 -102q147 0 242 100.5t95 252.5q0 151 -95 251.5t-242 100.5zM319 -324v122h598v-122h-598
z" />
    <glyph glyph-name="uni1E24" unicode="&#x1e24;" horiz-adv-x="1573" 
d="M363 1400v-619h847v619h161v-1400h-161v629h-847v-629h-161v1400h161zM785 -159q44 0 75 -30.5t31 -75.5t-30.5 -75t-75.5 -30t-75 30t-30 75t30 75.5t75 30.5z" />
    <glyph glyph-name="uni1E25" unicode="&#x1e25;" horiz-adv-x="1201" 
d="M325 1440v-625q55 78 139 114.5t178 36.5q176 0 285.5 -104t109.5 -275v-587h-149v538q0 135 -71.5 210.5t-201.5 75.5q-123 0 -206.5 -79.5t-83.5 -210.5v-534h-150v1440h150zM607 -159q44 0 75 -30.5t31 -75.5t-30.5 -75t-75.5 -30t-75 30t-30 75t30 75.5t75 30.5z" />
    <glyph glyph-name="uni1E28" unicode="&#x1e28;" horiz-adv-x="1573" 
d="M363 1400v-619h847v619h161v-1400h-161v629h-847v-629h-4l-101 -323h-163l109 323h-2v1400h161z" />
    <glyph glyph-name="uni1E29" unicode="&#x1e29;" horiz-adv-x="1201" 
d="M325 1440v-625q55 78 139 114.5t178 36.5q176 0 285.5 -104t109.5 -275v-587h-149v538q0 135 -71.5 210.5t-201.5 75.5q-123 0 -206.5 -79.5t-83.5 -210.5v-534h-2l-101 -323h-156l111 323h-2v1440h150z" />
    <glyph glyph-name="uni1E2A" unicode="&#x1e2a;" horiz-adv-x="1573" 
d="M363 1400v-619h847v619h161v-1400h-161v629h-847v-629h-161v1400h161zM444 -136l120 36q56 -191 222 -191q165 0 221 191l120 -36q-38 -137 -126.5 -209t-214.5 -72t-215 72t-127 209z" />
    <glyph glyph-name="uni1E2B" unicode="&#x1e2b;" horiz-adv-x="1201" 
d="M325 1440v-625q55 78 139 114.5t178 36.5q176 0 285.5 -104t109.5 -275v-587h-149v538q0 135 -71.5 210.5t-201.5 75.5q-123 0 -206.5 -79.5t-83.5 -210.5v-534h-150v1440h150zM265 -136l120 36q56 -191 222 -191q165 0 221 191l120 -36q-38 -137 -126.5 -209t-214.5 -72
t-215 72t-127 209z" />
    <glyph glyph-name="uni1E32" unicode="&#x1e32;" horiz-adv-x="1388" 
d="M1145 0l-616 628h-166v-628h-161v1400h161v-620h169l581 620h208l-658 -687l701 -713h-219zM693 -159q44 0 75 -30.5t31 -75.5t-30.5 -75t-75.5 -30t-75 30t-30 75t30 75.5t75 30.5z" />
    <glyph glyph-name="uni1E33" unicode="&#x1e33;" horiz-adv-x="1058" 
d="M325 1440v-877h137l365 384h187l-430 -446l437 -501h-189l-371 427h-136v-427h-150v1440h150zM559 -159q44 0 75 -30.5t31 -75.5t-30.5 -75t-75.5 -30t-75 30t-30 75t30 75.5t75 30.5z" />
    <glyph glyph-name="uni1E36" unicode="&#x1e36;" horiz-adv-x="1213" 
d="M1173 152v-152h-971v1400h161v-1248h810zM677 -159q44 0 75 -30.5t31 -75.5t-30.5 -75t-75.5 -30t-75 30t-30 75t30 75.5t75 30.5z" />
    <glyph glyph-name="uni1E37" unicode="&#x1e37;" horiz-adv-x="500" 
d="M325 1440v-1440h-150v1440h150zM250 -159q44 0 75 -30.5t31 -75.5t-30.5 -75t-75.5 -30t-75 30t-30 75t30 75.5t75 30.5z" />
    <glyph glyph-name="uni1E38" unicode="&#x1e38;" horiz-adv-x="1213" 
d="M1173 152v-152h-971v1400h161v-1248h810zM677 -159q44 0 75 -30.5t31 -75.5t-30.5 -75t-75.5 -30t-75 30t-30 75t30 75.5t75 30.5zM-17 1590v121h598v-121h-598z" />
    <glyph glyph-name="uni1E39" unicode="&#x1e39;" horiz-adv-x="500" 
d="M325 1440v-1440h-150v1440h150zM-67 1610v121h598v-121h-598zM250 -159q44 0 75 -30.5t31 -75.5t-30.5 -75t-75.5 -30t-75 30t-30 75t30 75.5t75 30.5z" />
    <glyph glyph-name="uni1E3A" unicode="&#x1e3a;" horiz-adv-x="1213" 
d="M1173 152v-152h-971v1400h161v-1248h810zM380 -324v122h598v-122h-598z" />
    <glyph glyph-name="uni1E3B" unicode="&#x1e3b;" horiz-adv-x="500" 
d="M325 1440v-1440h-150v1440h150zM-48 -324v122h598v-122h-598z" />
    <glyph glyph-name="uni1E40" unicode="&#x1e40;" horiz-adv-x="1870" 
d="M1668 1400v-1400h-161v1220l-488 -1065h-169l-487 1057v-1212h-161v1400h244l489 -1058l488 1058h245zM921 1764q46 0 78 -31.5t32 -77.5t-32 -77.5t-78 -31.5q-47 0 -78 31t-31 78t31 78t78 31z" />
    <glyph glyph-name="uni1E41" unicode="&#x1e41;" horiz-adv-x="1914" 
d="M1354 966q177 0 286.5 -104t109.5 -275v-587h-149v538q0 135 -72 210.5t-202 75.5q-123 0 -206.5 -79.5t-83.5 -210.5v-534h-149v538q0 135 -71.5 210.5t-201.5 75.5q-123 0 -206.5 -79.5t-83.5 -210.5v-534h-150v947h148v-135q54 80 139 117t180 37q123 0 216 -52.5
t139 -146.5q53 103 149.5 151t207.5 48zM963 1400q44 0 75 -30.5t31 -75.5t-30.5 -75t-75.5 -30t-75 30t-30 75t30 75.5t75 30.5z" />
    <glyph glyph-name="uni1E42" unicode="&#x1e42;" horiz-adv-x="1870" 
d="M1668 1400v-1400h-161v1220l-488 -1065h-169l-487 1057v-1212h-161v1400h244l489 -1058l488 1058h245zM934 -159q44 0 75 -30.5t31 -75.5t-30.5 -75t-75.5 -30t-75 30t-30 75t30 75.5t75 30.5z" />
    <glyph glyph-name="uni1E43" unicode="&#x1e43;" horiz-adv-x="1914" 
d="M1354 966q177 0 286.5 -104t109.5 -275v-587h-149v538q0 135 -72 210.5t-202 75.5q-123 0 -206.5 -79.5t-83.5 -210.5v-534h-149v538q0 135 -71.5 210.5t-201.5 75.5q-123 0 -206.5 -79.5t-83.5 -210.5v-534h-150v947h148v-135q54 80 139 117t180 37q123 0 216 -52.5
t139 -146.5q53 103 149.5 151t207.5 48zM963 -159q44 0 75 -30.5t31 -75.5t-30.5 -75t-75.5 -30t-75 30t-30 75t30 75.5t75 30.5z" />
    <glyph glyph-name="uni1E44" unicode="&#x1e44;" horiz-adv-x="1577" 
d="M1375 1400v-1400h-145l-867 1124v-1124h-161v1400h145l867 -1124v1124h161zM774 1764q46 0 78 -31.5t32 -77.5t-32 -77.5t-78 -31.5t-77.5 31t-31.5 78t31.5 78t77.5 31z" />
    <glyph glyph-name="uni1E45" unicode="&#x1e45;" horiz-adv-x="1201" 
d="M642 966q176 0 285.5 -104t109.5 -275v-587h-149v538q0 135 -71.5 210.5t-201.5 75.5q-123 0 -206.5 -79.5t-83.5 -210.5v-534h-150v947h148v-135q54 80 139 117t180 37zM617 1389q44 0 75 -30.5t31 -75.5t-30.5 -75t-75.5 -30t-75 30t-30 75t30 75.5t75 30.5z" />
    <glyph glyph-name="uni1E46" unicode="&#x1e46;" horiz-adv-x="1577" 
d="M1375 1400v-1400h-145l-867 1124v-1124h-161v1400h145l867 -1124v1124h161zM782 -159q44 0 75 -30.5t31 -75.5t-30.5 -75t-75.5 -30t-75 30t-30 75t30 75.5t75 30.5z" />
    <glyph glyph-name="uni1E47" unicode="&#x1e47;" horiz-adv-x="1201" 
d="M642 966q176 0 285.5 -104t109.5 -275v-587h-149v538q0 135 -71.5 210.5t-201.5 75.5q-123 0 -206.5 -79.5t-83.5 -210.5v-534h-150v947h148v-135q54 80 139 117t180 37zM605 -159q44 0 75 -30.5t31 -75.5t-30.5 -75t-75.5 -30t-75 30t-30 75t30 75.5t75 30.5z" />
    <glyph glyph-name="uni1E48" unicode="&#x1e48;" horiz-adv-x="1577" 
d="M1375 1400v-1400h-145l-867 1124v-1124h-161v1400h145l867 -1124v1124h161zM485 -324v122h598v-122h-598z" />
    <glyph glyph-name="uni1E49" unicode="&#x1e49;" horiz-adv-x="1201" 
d="M642 966q176 0 285.5 -104t109.5 -275v-587h-149v538q0 135 -71.5 210.5t-201.5 75.5q-123 0 -206.5 -79.5t-83.5 -210.5v-534h-150v947h148v-135q54 80 139 117t180 37zM307 -324v122h598v-122h-598z" />
    <glyph glyph-name="uni1E58" unicode="&#x1e58;" horiz-adv-x="1353" 
d="M202 1400h549q236 0 362.5 -102.5t126.5 -292.5q0 -182 -131.5 -289t-355.5 -107h-23l503 -609h-200l-493 609h-177v-609h-161v1400zM749 1249h-386v-494h386q159 0 241.5 63.5t82.5 186.5q0 121 -83 182.5t-241 61.5zM649 1764q46 0 78 -31.5t32 -77.5t-32 -77.5
t-78 -31.5q-47 0 -78 31t-31 78t31 78t78 31z" />
    <glyph glyph-name="uni1E59" unicode="&#x1e59;" horiz-adv-x="830" 
d="M604 966q104 0 174 -32l-36 -147q-70 38 -164 38q-112 0 -183 -81t-71 -214v-530h-149v947h148v-133q49 73 121.5 112.5t159.5 39.5zM475 1389q44 0 75 -30.5t31 -75.5t-30.5 -75t-75.5 -30t-75 30t-30 75t30 75.5t75 30.5z" />
    <glyph glyph-name="uni1E5A" unicode="&#x1e5a;" horiz-adv-x="1353" 
d="M202 1400h549q236 0 362.5 -102.5t126.5 -292.5q0 -182 -131.5 -289t-355.5 -107h-23l503 -609h-200l-493 609h-177v-609h-161v1400zM749 1249h-386v-494h386q159 0 241.5 63.5t82.5 186.5q0 121 -83 182.5t-241 61.5zM665 -159q44 0 75 -30.5t31 -75.5t-30.5 -75
t-75.5 -30t-75 30t-30 75t30 75.5t75 30.5z" />
    <glyph glyph-name="uni1E5B" unicode="&#x1e5b;" horiz-adv-x="830" 
d="M604 966q104 0 174 -32l-36 -147q-70 38 -164 38q-112 0 -183 -81t-71 -214v-530h-149v947h148v-133q49 73 121.5 112.5t159.5 39.5zM251 -159q44 0 75 -30.5t31 -75.5t-30.5 -75t-75.5 -30t-75 30t-30 75t30 75.5t75 30.5z" />
    <glyph glyph-name="uni1E5C" unicode="&#x1e5c;" horiz-adv-x="1353" 
d="M202 1400h549q236 0 362.5 -102.5t126.5 -292.5q0 -182 -131.5 -289t-355.5 -107h-23l503 -609h-200l-493 609h-177v-609h-161v1400zM749 1249h-386v-494h386q159 0 241.5 63.5t82.5 186.5q0 121 -83 182.5t-241 61.5zM665 -159q44 0 75 -30.5t31 -75.5t-30.5 -75
t-75.5 -30t-75 30t-30 75t30 75.5t75 30.5zM364 1590v121h598v-121h-598z" />
    <glyph glyph-name="uni1E5D" unicode="&#x1e5d;" horiz-adv-x="830" 
d="M604 966q104 0 174 -32l-36 -147q-70 38 -164 38q-112 0 -183 -81t-71 -214v-530h-149v947h148v-133q49 73 121.5 112.5t159.5 39.5zM176 1175v121h598v-121h-598zM251 -159q44 0 75 -30.5t31 -75.5t-30.5 -75t-75.5 -30t-75 30t-30 75t30 75.5t75 30.5z" />
    <glyph glyph-name="uni1E5E" unicode="&#x1e5e;" horiz-adv-x="1353" 
d="M202 1400h549q236 0 362.5 -102.5t126.5 -292.5q0 -182 -131.5 -289t-355.5 -107h-23l503 -609h-200l-493 609h-177v-609h-161v1400zM749 1249h-386v-494h386q159 0 241.5 63.5t82.5 186.5q0 121 -83 182.5t-241 61.5zM368 -324v122h598v-122h-598z" />
    <glyph glyph-name="uni1E5F" unicode="&#x1e5f;" horiz-adv-x="830" 
d="M604 966q104 0 174 -32l-36 -147q-70 38 -164 38q-112 0 -183 -81t-71 -214v-530h-149v947h148v-133q49 73 121.5 112.5t159.5 39.5zM-47 -324v122h598v-122h-598z" />
    <glyph glyph-name="uni1E62" unicode="&#x1e62;" horiz-adv-x="1346" 
d="M1198 1265l-82 -130q-192 131 -422 131q-161 0 -261.5 -68t-100.5 -185q0 -97 79.5 -152t243.5 -75l133 -16q92 -11 166.5 -36t137.5 -67t98 -110t35 -155q0 -134 -76.5 -231t-200 -143.5t-277.5 -46.5q-151 0 -300.5 49.5t-249.5 130.5l88 128q77 -65 204 -110.5
t257 -45.5q170 0 279 67t109 188q0 100 -84.5 155t-254.5 74l-141 16q-190 22 -301.5 113t-111.5 257q0 129 72 224.5t191 143t267 47.5q284 0 503 -153zM696 -159q44 0 75 -30.5t31 -75.5t-30.5 -75t-75.5 -30t-75 30t-30 75t30 75.5t75 30.5z" />
    <glyph glyph-name="uni1E63" unicode="&#x1e63;" horiz-adv-x="987" 
d="M876 862l-65 -116q-52 36 -136.5 62.5t-173.5 26.5q-102 0 -163 -40t-61 -109q0 -110 193 -133l112 -14q318 -41 318 -264q0 -135 -113 -214t-304 -79q-235 0 -395 121l69 112q132 -103 328 -103q122 0 191.5 39.5t69.5 113.5q0 114 -198 138l-113 13q-157 19 -235 86.5
t-78 175.5q0 133 103 210t275 77q109 0 207 -28t169 -75zM507 -159q44 0 75 -30.5t31 -75.5t-30.5 -75t-75.5 -30t-75 30t-30 75t30 75.5t75 30.5z" />
    <glyph glyph-name="uni1E6C" unicode="&#x1e6c;" horiz-adv-x="1212" 
d="M1172 1400v-152h-486v-1248h-160v1248h-486v152h1132zM605 -159q44 0 75 -30.5t31 -75.5t-30.5 -75t-75.5 -30t-75 30t-30 75t30 75.5t75 30.5z" />
    <glyph glyph-name="uni1E6D" unicode="&#x1e6d;" horiz-adv-x="906" 
d="M818 947v-135h-409v-478q0 -107 51 -160t137 -53q107 0 199 67l70 -113q-124 -94 -281 -94q-156 0 -240.5 87.5t-84.5 262.5v481h-207v135h207v301h149v-301h409zM551 -159q44 0 75 -30.5t31 -75.5t-30.5 -75t-75.5 -30t-75 30t-30 75t30 75.5t75 30.5z" />
    <glyph glyph-name="uni1E6E" unicode="&#x1e6e;" horiz-adv-x="1212" 
d="M1172 1400v-152h-486v-1248h-160v1248h-486v152h1132zM308 -324v122h598v-122h-598z" />
    <glyph glyph-name="uni1E6F" unicode="&#x1e6f;" horiz-adv-x="906" 
d="M818 947v-135h-409v-478q0 -107 51 -160t137 -53q107 0 199 67l70 -113q-124 -94 -281 -94q-156 0 -240.5 87.5t-84.5 262.5v481h-207v135h207v301h149v-301h409zM253 -324v122h598v-122h-598z" />
    <glyph glyph-name="Wgrave" unicode="&#x1e80;" horiz-adv-x="2197" 
d="M2139 1400l-455 -1400h-198l-388 1186l-388 -1186h-197l-455 1400h168l387 -1218l396 1218h182l395 -1219l388 1219h165zM1081 1507l-251 300h189l210 -300h-148z" />
    <glyph glyph-name="wgrave" unicode="&#x1e81;" horiz-adv-x="1706" 
d="M937 947l284 -792l285 792h155l-350 -947h-177l-283 787l-282 -787h-174l-350 947h159l283 -791l282 791h168zM823 1092l-251 300h189l210 -300h-148z" />
    <glyph glyph-name="Wacute" unicode="&#x1e82;" horiz-adv-x="2197" 
d="M2139 1400l-455 -1400h-198l-388 1186l-388 -1186h-197l-455 1400h168l387 -1218l396 1218h182l395 -1219l388 1219h165zM1105 1507h-148l209 300h190z" />
    <glyph glyph-name="wacute" unicode="&#x1e83;" horiz-adv-x="1706" 
d="M937 947l284 -792l285 792h155l-350 -947h-177l-283 787l-282 -787h-174l-350 947h159l283 -791l282 791h168zM871 1092h-148l209 300h190z" />
    <glyph glyph-name="Wdieresis" unicode="&#x1e84;" horiz-adv-x="2197" 
d="M2139 1400l-455 -1400h-198l-388 1186l-388 -1186h-197l-455 1400h168l387 -1218l396 1218h182l395 -1219l388 1219h165zM895 1758q44 0 75 -31t31 -76t-30.5 -75t-75.5 -30t-75.5 30t-30.5 75t30.5 76t75.5 31zM1301 1758q44 0 75 -31t31 -76t-30.5 -75t-75.5 -30
t-75 30t-30 75t30 76t75 31z" />
    <glyph glyph-name="wdieresis" unicode="&#x1e85;" horiz-adv-x="1706" 
d="M937 947l284 -792l285 792h155l-350 -947h-177l-283 787l-282 -787h-174l-350 947h159l283 -791l282 791h168zM650 1343q44 0 75 -31t31 -76t-30.5 -75t-75.5 -30t-75.5 30t-30.5 75t30.5 76t75.5 31zM1056 1343q44 0 75 -31t31 -76t-30.5 -75t-75.5 -30t-75 30t-30 75
t30 76t75 31z" />
    <glyph glyph-name="uni1E88" unicode="&#x1e88;" horiz-adv-x="2197" 
d="M2139 1400l-455 -1400h-198l-388 1186l-388 -1186h-197l-455 1400h168l387 -1218l396 1218h182l395 -1219l388 1219h165zM1098 -159q44 0 75 -30.5t31 -75.5t-30.5 -75t-75.5 -30t-75 30t-30 75t30 75.5t75 30.5z" />
    <glyph glyph-name="uni1E89" unicode="&#x1e89;" horiz-adv-x="1706" 
d="M937 947l284 -792l285 792h155l-350 -947h-177l-283 787l-282 -787h-174l-350 947h159l283 -791l282 791h168zM852 -159q44 0 75 -30.5t31 -75.5t-30.5 -75t-75.5 -30t-75 30t-30 75t30 75.5t75 30.5z" />
    <glyph glyph-name="uni1E92" unicode="&#x1e92;" horiz-adv-x="1314" 
d="M1190 1400v-124l-855 -1124h858v-152h-1072v124l856 1124h-846v152h1059zM656 -159q44 0 75 -30.5t31 -75.5t-30.5 -75t-75.5 -30t-75 30t-30 75t30 75.5t75 30.5z" />
    <glyph glyph-name="uni1E93" unicode="&#x1e93;" horiz-adv-x="1055" 
d="M924 947v-109l-604 -703h613v-135h-811v108l610 704h-592v135h784zM528 -159q44 0 75 -30.5t31 -75.5t-30.5 -75t-75.5 -30t-75 30t-30 75t30 75.5t75 30.5z" />
    <glyph glyph-name="uni1E94" unicode="&#x1e94;" horiz-adv-x="1314" 
d="M1190 1400v-124l-855 -1124h858v-152h-1072v124l856 1124h-846v152h1059zM359 -324v122h598v-122h-598z" />
    <glyph glyph-name="uni1E95" unicode="&#x1e95;" horiz-adv-x="1055" 
d="M924 947v-109l-604 -703h613v-135h-811v108l610 704h-592v135h784zM230 -324v122h598v-122h-598z" />
    <glyph glyph-name="uni1E96" unicode="&#x1e96;" horiz-adv-x="1201" 
d="M325 1440v-625q55 78 139 114.5t178 36.5q176 0 285.5 -104t109.5 -275v-587h-149v538q0 135 -71.5 210.5t-201.5 75.5q-123 0 -206.5 -79.5t-83.5 -210.5v-534h-150v1440h150zM309 -324v122h598v-122h-598z" />
    <glyph glyph-name="uni1E9E" unicode="&#x1e9e;" horiz-adv-x="1464" 
d="M705 630v120l363 400q-110 115 -331 115q-182 0 -288 -94.5t-106 -255.5v-915h-161v924q0 105 36 194.5t104.5 157t175.5 105.5t242 38q195 0 326 -63.5t222 -182.5l-373 -405q189 -22 308 -125t119 -264q0 -119 -70 -210.5t-185 -139t-254 -47.5q-167 0 -295 42l39 152
q108 -40 232 -40q167 0 265 64.5t98 178.5q0 118 -100.5 184.5t-275.5 66.5h-91z" />
    <glyph glyph-name="Ygrave" unicode="&#x1ef2;" horiz-adv-x="1287" 
d="M1276 1400l-551 -813v-587h-160v589l-554 811h192l443 -664l443 664h187zM629 1507l-251 300h189l210 -300h-148z" />
    <glyph glyph-name="ygrave" unicode="&#x1ef3;" horiz-adv-x="1054" 
d="M1039 947l-771 -1351h-165l353 609l-435 742h167l353 -594l334 594h164zM502 1092l-251 300h189l210 -300h-148z" />
    <glyph glyph-name="uni1EF4" unicode="&#x1ef4;" horiz-adv-x="1287" 
d="M1276 1400l-551 -813v-587h-160v589l-554 811h192l443 -664l443 664h187zM644 -159q44 0 75 -30.5t31 -75.5t-30.5 -75t-75.5 -30t-75 30t-30 75t30 75.5t75 30.5z" />
    <glyph glyph-name="uni1EF5" unicode="&#x1ef5;" horiz-adv-x="1054" 
d="M1039 947l-771 -1351h-165l353 609l-435 742h167l353 -594l334 594h164zM762 -159q44 0 75 -30.5t31 -75.5t-30.5 -75t-75.5 -30t-75 30t-30 75t30 75.5t75 30.5z" />
    <glyph glyph-name="uni2007" unicode="&#x2007;" horiz-adv-x="1419" 
 />
    <glyph glyph-name="uni2008" unicode="&#x2008;" horiz-adv-x="523" 
 />
    <glyph glyph-name="uni2009" unicode="&#x2009;" horiz-adv-x="178" 
 />
    <glyph glyph-name="uni200B" unicode="&#x200b;" horiz-adv-x="0" 
 />
    <glyph glyph-name="uni2010" unicode="&#x2010;" horiz-adv-x="838" 
d="M697 597v-136h-556v136h556z" />
    <glyph glyph-name="uni2011" unicode="&#x2011;" horiz-adv-x="838" 
d="M697 597v-136h-556v136h556z" />
    <glyph glyph-name="figuredash" unicode="&#x2012;" horiz-adv-x="1200" 
d="M1075 597v-136h-950v136h950z" />
    <glyph glyph-name="endash" unicode="&#x2013;" horiz-adv-x="1192" 
d="M1071 597v-136h-950v136h950z" />
    <glyph glyph-name="emdash" unicode="&#x2014;" horiz-adv-x="1622" 
d="M1561 597v-136h-1500v136h1500z" />
    <glyph glyph-name="quoteleft" unicode="&#x2018;" horiz-adv-x="494" 
d="M307 933h-174l105 507h129z" />
    <glyph glyph-name="quoteright" unicode="&#x2019;" horiz-adv-x="494" 
d="M187 1440h174l-105 -507h-129z" />
    <glyph glyph-name="quotesinglbase" unicode="&#x201a;" horiz-adv-x="494" 
d="M187 248h174l-105 -507h-129z" />
    <glyph glyph-name="quotedblleft" unicode="&#x201c;" horiz-adv-x="849" 
d="M307 933h-174l105 507h129zM662 933h-174l105 507h129z" />
    <glyph glyph-name="quotedblright" unicode="&#x201d;" horiz-adv-x="848" 
d="M541 1440h174l-105 -507h-129zM187 1440h174l-105 -507h-129z" />
    <glyph glyph-name="quotedblbase" unicode="&#x201e;" horiz-adv-x="848" 
d="M541 248h174l-105 -507h-129zM187 248h174l-105 -507h-129z" />
    <glyph glyph-name="dagger" unicode="&#x2020;" horiz-adv-x="741" 
d="M432 673h-123v439h-208v120h208v208h123v-208h208v-120h-208v-439z" />
    <glyph glyph-name="daggerdbl" unicode="&#x2021;" horiz-adv-x="741" 
d="M432 1440v-180h208v-120h-208v-166h208v-121h-208v-180h-123v180h-208v121h208v166h-208v120h208v180h123z" />
    <glyph glyph-name="bullet" unicode="&#x2022;" horiz-adv-x="864" 
d="M433 756q93 0 160 -66.5t67 -160.5t-67 -160.5t-160 -66.5q-95 0 -161 66.5t-66 160.5q0 95 66 161t161 66z" />
    <glyph glyph-name="uni2023" unicode="&#x2023;" horiz-adv-x="1015" 
d="M861 529l-603 -349v698z" />
    <glyph glyph-name="ellipsis" unicode="&#x2026;" horiz-adv-x="1490" 
d="M263 233q50 0 87 -37.5t37 -87.5t-37.5 -88t-86.5 -38q-50 0 -88 38t-38 88t38 87.5t88 37.5zM746 233q50 0 87.5 -37.5t37.5 -87.5t-37.5 -88t-87.5 -38t-87.5 38t-37.5 88t37.5 87.5t87.5 37.5zM1229 233q50 0 87.5 -37.5t37.5 -87.5t-37.5 -88t-87.5 -38t-87.5 38
t-37.5 88t37.5 87.5t87.5 37.5z" />
    <glyph glyph-name="perthousand" unicode="&#x2030;" horiz-adv-x="2777" 
d="M463 1419q158 0 264 -103.5t106 -258.5q0 -156 -106 -260t-264 -104q-156 0 -261 104t-105 260q0 154 105 258t261 104zM463 1287q-97 0 -161.5 -65t-64.5 -165q0 -101 64.5 -166.5t161.5 -65.5q99 0 164 65t65 167q0 100 -65 165t-164 65zM1488 1400l-883 -1400h-156
l883 1400h156zM1471 707q158 0 264 -105t106 -258q0 -156 -106 -259.5t-264 -103.5q-156 0 -261 103.5t-105 259.5q0 155 105 259t261 104zM1471 575q-97 0 -161.5 -65t-64.5 -166t64.5 -166t161.5 -65q99 0 164.5 65t65.5 166t-65.5 166t-164.5 65zM2310 707
q158 0 264 -104t106 -259q0 -156 -106 -259.5t-264 -103.5q-157 0 -261.5 103.5t-104.5 259.5q0 155 104.5 259t261.5 104zM2310 575q-97 0 -161.5 -65t-64.5 -166t64.5 -166t161.5 -65q99 0 164 65t65 166t-65 166t-164 65z" />
    <glyph glyph-name="minute" unicode="&#x2032;" horiz-adv-x="537" 
d="M262 1400h142l-134 -632h-143z" />
    <glyph glyph-name="second" unicode="&#x2033;" horiz-adv-x="850" 
d="M575 1400h142l-134 -632h-143zM262 1400h142l-134 -632h-143z" />
    <glyph glyph-name="uni2034" unicode="&#x2034;" horiz-adv-x="1116" 
d="M552 1400h142l-134 -632h-143zM841 1400h142l-134 -632h-143zM262 1400h142l-134 -632h-143z" />
    <glyph glyph-name="guilsinglleft" unicode="&#x2039;" horiz-adv-x="625" 
d="M287 529l191 -370h-160l-192 370l192 370h160z" />
    <glyph glyph-name="guilsinglright" unicode="&#x203a;" horiz-adv-x="625" 
d="M338 529l-191 370h160l192 -370l-192 -370h-160z" />
    <glyph glyph-name="fraction" unicode="&#x2044;" horiz-adv-x="436" 
d="M734 1400l-883 -1400h-149l883 1400h149z" />
    <glyph glyph-name="uni2070" unicode="&#x2070;" horiz-adv-x="871" 
d="M435 1410q144 0 240 -109t96 -293q0 -183 -96 -292.5t-240 -109.5q-143 0 -239 109.5t-96 292.5q0 184 96 293t239 109zM435 1292q-90 0 -148.5 -75.5t-58.5 -208.5t58.5 -208.5t148.5 -75.5t149 75.5t59 208.5t-59 208.5t-149 75.5z" />
    <glyph glyph-name="uni2071" unicode="&#x2071;" horiz-adv-x="374" 
d="M248 1279v-662h-123v662h123zM186 1584q35 0 59 -23.5t24 -58.5t-24 -58.5t-59 -23.5t-58 23.5t-23 58.5t23.5 58.5t57.5 23.5z" />
    <glyph glyph-name="uni2074" unicode="&#x2074;" horiz-adv-x="690" 
d="M529 1099v-217h121v-113h-121v-152h-124v152h-365v89l276 541h137l-267 -517h219v217h124z" />
    <glyph glyph-name="uni2075" unicode="&#x2075;" horiz-adv-x="712" 
d="M582 1399v-114h-336l-6 -189h94q138 0 213.5 -64t75.5 -168q0 -118 -80 -188t-204 -70q-172 0 -274 113l73 82q37 -37 90 -59t110 -22q74 0 115.5 37t41.5 98q0 59 -45 94.5t-141 35.5h-182l12 414h443z" />
    <glyph glyph-name="uni2076" unicode="&#x2076;" horiz-adv-x="709" 
d="M499 1399l-194 -283q30 8 65 8q121 0 198 -73t77 -183q0 -113 -83.5 -187.5t-209.5 -74.5q-125 0 -208.5 73.5t-83.5 185.5q0 91 64 188l226 346h149zM352 1019q-70 0 -116.5 -43t-47.5 -109q0 -66 46.5 -109t117.5 -43t117.5 43t46.5 109t-46.5 109t-117.5 43z" />
    <glyph glyph-name="uni2077" unicode="&#x2077;" horiz-adv-x="663" 
d="M613 1399v-96l-340 -686h-146l340 667h-407v115h553z" />
    <glyph glyph-name="uni2078" unicode="&#x2078;" horiz-adv-x="776" 
d="M388 1410q121 0 202 -58t81 -158q0 -127 -134 -181q154 -53 154 -187q0 -102 -87 -161t-216 -59q-130 0 -216.5 59t-86.5 161q0 134 153 186q-134 53 -134 182q0 100 81.5 158t202.5 58zM388 963q-73 0 -121.5 -33t-48.5 -91q0 -61 48.5 -94t121.5 -33t121 33.5t48 93.5
q0 58 -48.5 91t-120.5 33zM388 1302q-66 0 -109.5 -31.5t-43.5 -88.5q0 -56 43.5 -87.5t109.5 -31.5q65 0 108.5 31.5t43.5 87.5q0 57 -43.5 88.5t-108.5 31.5z" />
    <glyph glyph-name="uni2079" unicode="&#x2079;" horiz-adv-x="709" 
d="M211 617l193 283q-30 -8 -64 -8q-122 0 -198.5 73.5t-76.5 182.5q0 113 83 187.5t209 74.5t209.5 -73.5t83.5 -185.5q0 -87 -65 -187l-226 -347h-148zM357 997q71 0 117 43t46 109t-46 109t-117 43t-117.5 -43t-46.5 -109t46.5 -109t117.5 -43z" />
    <glyph glyph-name="uni207F" unicode="&#x207f;" horiz-adv-x="850" 
d="M465 1292q119 0 193 -72t74 -191v-412h-123v373q0 88 -46 137t-130 49q-79 0 -132 -51.5t-53 -136.5v-371h-123v662h120v-108q68 121 220 121z" />
    <glyph glyph-name="uni2080" unicode="&#x2080;" horiz-adv-x="871" 
d="M435 422q144 0 240 -109t96 -293q0 -183 -96 -292.5t-240 -109.5q-143 0 -239 109.5t-96 292.5q0 184 96 293t239 109zM435 304q-90 0 -148.5 -75.5t-58.5 -208.5t58.5 -208.5t148.5 -75.5t149 75.5t59 208.5t-59 208.5t-149 75.5z" />
    <glyph glyph-name="uni2081" unicode="&#x2081;" horiz-adv-x="550" 
d="M391 421v-792h-124v620l-217 -87v122z" />
    <glyph glyph-name="uni2082" unicode="&#x2082;" horiz-adv-x="681" 
d="M145 212l-80 77q97 133 262 133q120 0 190 -68t70 -176q0 -67 -29 -120.5t-86 -110.5l-201 -203h340v-115h-517v97l291 291q74 74 74 151q0 60 -38.5 98t-104.5 38q-96 0 -171 -92z" />
    <glyph glyph-name="uni2083" unicode="&#x2083;" horiz-adv-x="685" 
d="M308 422q122 0 198 -59.5t76 -156.5q0 -65 -34 -112t-94 -71q67 -23 106 -70.5t39 -111.5q0 -107 -83.5 -165t-201.5 -58q-169 0 -264 106l72 82q74 -77 186 -77q70 0 116.5 31.5t46.5 90.5q0 55 -49 86.5t-122 31.5h-100v110h100q68 0 111 30.5t43 86.5q0 53 -42 84
t-110 31q-106 0 -174 -83l-74 79q91 115 254 115z" />
    <glyph glyph-name="uni2084" unicode="&#x2084;" horiz-adv-x="690" 
d="M529 111v-217h121v-113h-121v-152h-124v152h-365v89l276 541h137l-267 -517h219v217h124z" />
    <glyph glyph-name="uni2085" unicode="&#x2085;" horiz-adv-x="712" 
d="M582 411v-114h-336l-6 -189h94q138 0 213.5 -64t75.5 -168q0 -118 -80 -188t-204 -70q-172 0 -274 113l73 82q37 -37 90 -59t110 -22q74 0 115.5 37t41.5 98q0 59 -45 94.5t-141 35.5h-182l12 414h443z" />
    <glyph glyph-name="uni2086" unicode="&#x2086;" horiz-adv-x="709" 
d="M499 411l-194 -283q30 8 65 8q121 0 198 -73t77 -183q0 -113 -83.5 -187.5t-209.5 -74.5q-125 0 -208.5 73.5t-83.5 185.5q0 91 64 188l226 346h149zM352 31q-70 0 -116.5 -43t-47.5 -109q0 -66 46.5 -109t117.5 -43t117.5 43t46.5 109t-46.5 109t-117.5 43z" />
    <glyph glyph-name="uni2087" unicode="&#x2087;" horiz-adv-x="663" 
d="M613 411v-96l-340 -686h-146l340 667h-407v115h553z" />
    <glyph glyph-name="uni2088" unicode="&#x2088;" horiz-adv-x="776" 
d="M388 422q121 0 202 -58t81 -158q0 -127 -134 -181q154 -53 154 -187q0 -102 -87 -161t-216 -59q-130 0 -216.5 59t-86.5 161q0 134 153 186q-134 53 -134 182q0 100 81.5 158t202.5 58zM388 -25q-73 0 -121.5 -33t-48.5 -91q0 -61 48.5 -94t121.5 -33t121 33.5t48 93.5
q0 58 -48.5 91t-120.5 33zM388 314q-66 0 -109.5 -31.5t-43.5 -88.5q0 -56 43.5 -87.5t109.5 -31.5q65 0 108.5 31.5t43.5 87.5q0 57 -43.5 88.5t-108.5 31.5z" />
    <glyph glyph-name="uni2089" unicode="&#x2089;" horiz-adv-x="709" 
d="M211 -371l193 283q-30 -8 -64 -8q-122 0 -198.5 73.5t-76.5 182.5q0 113 83 187.5t209 74.5t209.5 -73.5t83.5 -185.5q0 -87 -65 -187l-226 -347h-148zM357 9q71 0 117 43t46 109t-46 109t-117 43t-117.5 -43t-46.5 -109t46.5 -109t117.5 -43z" />
    <glyph glyph-name="Euro" unicode="&#x20ac;" horiz-adv-x="1400" 
d="M1044 602v-124h-630q45 -167 157 -260t275 -93q240 0 376 202l99 -103q-171 -242 -475 -242q-230 0 -386 132.5t-208 363.5h-175v124h156q-4 41 -4 98q0 55 4 98h-156v124h175q52 231 208 363.5t386 132.5q154 0 275.5 -62t202.5 -175l-104 -108q-135 202 -374 202
q-164 0 -276 -93t-156 -260h630v-124h-652q-5 -53 -5 -98q0 -46 5 -98h652z" />
    <glyph glyph-name="uni20BA" unicode="&#x20ba;" horiz-adv-x="1400" 
d="M1000 804v-132l-509 -237v-286h233q142 0 245 66t186 218l132 -73q-107 -193 -243 -276.5t-332 -83.5h-375v363l-195 -90v132l195 90v193l-195 -90v132l195 91v579h154v-507l509 237v-133l-509 -237v-193z" />
    <glyph glyph-name="uni2100" unicode="&#x2100;" horiz-adv-x="1909" 
d="M489 1419q137 0 215.5 -70.5t78.5 -208.5v-396h-121v89q-92 -103 -233 -103q-107 0 -170.5 57t-63.5 148t72 144t201 53h191q-3 177 -184 177q-107 0 -197 -71l-49 95q112 86 260 86zM457 832q118 0 204 100v113h-175q-82 0 -122 -30t-40 -77q0 -45 35 -75.5t98 -30.5z
M1518 1400l-883 -1400h-149l883 1400h149zM1461 670q160 0 254 -114l-87 -76q-72 75 -170 75q-92 0 -154 -64.5t-62 -164.5t61.5 -164.5t153.5 -64.5q100 0 173 76l85 -78q-97 -114 -254 -114q-152 0 -248.5 98t-96.5 247t96.5 246.5t248.5 97.5z" />
    <glyph glyph-name="uni2101" unicode="&#x2101;" horiz-adv-x="1909" 
d="M493 1419q137 0 215.5 -70.5t78.5 -208.5v-396h-121v89q-92 -103 -233 -103q-107 0 -170.5 57t-63.5 148t72 144t201 53h191q-3 177 -184 177q-107 0 -197 -71l-49 95q112 86 260 86zM461 832q118 0 204 100v113h-175q-82 0 -122 -30t-40 -77q0 -45 35 -75.5t98 -30.5z
M1522 1400l-883 -1400h-149l883 1400h149zM1687 600l-45 -96q-103 61 -219 61q-66 0 -104.5 -25.5t-38.5 -68.5q0 -68 133 -85l71 -9q106 -14 163 -60.5t57 -125.5q0 -98 -78.5 -154t-214.5 -56q-171 0 -282 80l51 94q99 -70 233 -70q78 0 122 25t44 72q0 72 -135 88l-70 8
q-111 13 -166.5 61t-55.5 126q0 95 72.5 149.5t195.5 54.5q145 0 267 -69z" />
    <glyph glyph-name="uni2105" unicode="&#x2105;" horiz-adv-x="1909" 
d="M502 1419q160 0 254 -114l-87 -76q-72 75 -170 75q-92 0 -154 -64.5t-62 -164.5t61.5 -164.5t153.5 -64.5q100 0 173 76l85 -78q-97 -114 -254 -114q-152 0 -248.5 98t-96.5 247t96.5 246.5t248.5 97.5zM1462 1400l-883 -1400h-149l883 1400h149zM1404 670
q150 0 249.5 -98t99.5 -246t-99.5 -246.5t-249.5 -98.5t-249.5 98.5t-99.5 246.5t99.5 246t249.5 98zM1404 555q-96 0 -159.5 -65t-63.5 -164t63.5 -164t159.5 -65t160 65t64 164t-64 164t-160 65z" />
    <glyph glyph-name="uni2106" unicode="&#x2106;" horiz-adv-x="1909" 
d="M499 1419q160 0 254 -114l-87 -76q-72 75 -170 75q-92 0 -154 -64.5t-62 -164.5t61.5 -164.5t153.5 -64.5q100 0 173 76l85 -78q-97 -114 -254 -114q-152 0 -248.5 98t-96.5 247t96.5 246.5t248.5 97.5zM1459 1400l-883 -1400h-149l883 1400h149zM1756 657v-385
q0 -140 -86.5 -215.5t-217.5 -75.5t-217 75.5t-86 215.5v385h123v-374q0 -91 49.5 -138.5t130.5 -47.5q83 0 132.5 47.5t49.5 138.5v374h122z" />
    <glyph glyph-name="uni2113" unicode="&#x2113;" horiz-adv-x="1072" 
d="M197 378l-55 128q87 35 163 76l1 505q1 163 84.5 267.5t222.5 104.5q132 0 215 -86t83 -221q0 -188 -123.5 -352t-333.5 -292v-175q0 -107 48.5 -159.5t131.5 -52.5q107 0 201 72l60 -119q-122 -94 -274 -94t-234.5 88t-82.5 263v95q-49 -24 -107 -48zM455 1087l-1 -413
q144 102 224 224t80 254q0 78 -38.5 122.5t-106.5 44.5q-70 0 -114 -62.5t-44 -169.5z" />
    <glyph glyph-name="uni2116" unicode="&#x2116;" horiz-adv-x="2433" 
d="M2338 579v-135h-664v135h664zM2006 1414q150 0 249 -98t99 -245t-99 -244.5t-249 -97.5q-149 0 -248 98t-99 244q0 147 99 245t248 98zM2006 1300q-96 0 -159.5 -64.5t-63.5 -164.5q0 -99 63.5 -163.5t159.5 -64.5t160 64.5t64 163.5q0 100 -64 164.5t-160 64.5z
M1375 1400v-1400h-145l-867 1124v-1124h-161v1400h145l867 -1124v1124h161z" />
    <glyph glyph-name="uni2117" unicode="&#x2117;" horiz-adv-x="1903" 
d="M951 1508q164 0 313 -63.5t257 -170.5t172 -255.5t64 -310.5q0 -163 -64 -311.5t-172 -256t-257 -171t-313 -63.5q-132 0 -255 40.5t-222 115t-173.5 173t-115 221t-40.5 252.5q0 163 63.5 311t171.5 255t257.5 170.5t313.5 63.5zM951 1376q-137 0 -261 -52.5
t-213.5 -142t-142.5 -213.5t-53 -260q0 -137 53 -261t142.5 -213.5t213.5 -142.5t261 -53q136 0 260 53t214 142.5t143 213.5t53 261q0 136 -53 260t-143 213t-214 142t-260 53zM666 1124h347q159 0 246.5 -70t87.5 -193q0 -122 -87.5 -191.5t-245.5 -69.5h-215v-321h-133
v845zM1010 1003h-211v-284h211q96 0 148 36.5t52 105.5t-52 105.5t-148 36.5z" />
    <glyph glyph-name="uni2120" unicode="&#x2120;" horiz-adv-x="1485" 
d="M608 1351l-48 -89q-96 50 -187 50q-61 0 -99.5 -20.5t-38.5 -57.5q0 -33 35.5 -50.5t105.5 -24.5l47 -5q94 -9 148.5 -49t54.5 -109q0 -95 -75.5 -143.5t-189.5 -48.5q-156 0 -260 68l53 88q94 -58 208 -58q65 0 106.5 20t41.5 59q0 34 -34.5 50.5t-108.5 24.5l-52 5
q-95 9 -146.5 50.5t-51.5 112.5q0 84 71 134.5t182 50.5q129 0 238 -58zM1404 815h-107v442l-165 -381h-113l-165 380v-441h-108v585h153l177 -402l176 402h152v-585z" />
    <glyph glyph-name="trademark" unicode="&#x2122;" horiz-adv-x="1434" 
d="M1353 815h-108v443l-165 -382h-112l-165 381v-442h-108v586h153l176 -403l176 403h153v-586zM384 815h-107v486h-196v99h499v-99h-196v-486z" />
    <glyph glyph-name="Omega" unicode="&#x2126;" horiz-adv-x="1720" 
d="M81 152h342q-133 87 -209.5 228.5t-76.5 314.5q0 208 93.5 374t258.5 258.5t371 92.5q154 0 288 -54.5t229.5 -149.5t150.5 -230t55 -291q0 -174 -76.5 -315t-210.5 -228h343v-152h-602v131q171 54 274.5 203t103.5 354q0 127 -42.5 235.5t-116.5 183t-176.5 116.5
t-219.5 42t-219.5 -42t-176.5 -116.5t-116.5 -183t-42.5 -235.5q0 -205 103.5 -354t274.5 -203v-131h-602v152z" />
    <glyph glyph-name="estimated" unicode="&#x212e;" horiz-adv-x="2000" 
d="M451 671v-345q0 -78 23.5 -133t80.5 -97q192 -141 445 -141q193 0 355.5 84t260.5 234l47 -36q-108 -161 -282.5 -251t-380.5 -90q-164 0 -310 58.5t-254 162t-171 255t-63 328.5t63 328.5t171 255t254 162t310 58.5t310 -58.5t254 -162t171 -255t63 -328.5q0 -20 -1 -29
h-1346zM451 729h1107v335q0 78 -22.5 133t-77.5 98q-195 150 -458 150q-253 0 -445 -141q-57 -42 -80.5 -97t-23.5 -133v-345z" />
    <glyph glyph-name="uni214D" unicode="&#x214d;" horiz-adv-x="1909" 
d="M560 1400l283 -729h-132l-64 173h-325l-63 -173h-129l282 729h148zM1757 664l-53 -102q-104 63 -220 63q-71 0 -116 -27t-45 -74q0 -78 170 -98l54 -6q111 -12 172 -61.5t61 -134.5q0 -116 -88 -175t-218 -59q-87 0 -166.5 23t-134.5 62l59 101q115 -73 244 -73
q76 0 123 26t47 78q0 44 -39.5 65.5t-127.5 31.5l-58 7q-230 27 -230 202q0 102 80.5 163.5t207.5 61.5q152 0 278 -74zM485 1285l-121 -328h242zM1545 1400l-883 -1400h-149l883 1400h149z" />
    <glyph glyph-name="uni2150" unicode="&#x2150;" horiz-adv-x="1700" 
d="M1308 1400l-883 -1400h-149l883 1400h149zM1650 782v-96l-340 -686h-146l340 667h-407v115h553zM391 1409v-792h-124v620l-217 -87v122z" />
    <glyph glyph-name="uni2151" unicode="&#x2151;" horiz-adv-x="1719" 
d="M1308 1400l-883 -1400h-149l883 1400h149zM1221 0l193 283q-30 -8 -64 -8q-122 0 -198.5 73.5t-76.5 182.5q0 113 83 187.5t209 74.5t209.5 -73.5t83.5 -185.5q0 -87 -65 -187l-226 -347h-148zM1367 380q71 0 117 43t46 109t-46 109t-117 43t-117.5 -43t-46.5 -109
t46.5 -109t117.5 -43zM391 1409v-792h-124v620l-217 -87v122z" />
    <glyph glyph-name="uni2152" unicode="&#x2152;" horiz-adv-x="2451" 
d="M1308 1400l-883 -1400h-149l883 1400h149zM1421 792v-792h-124v620l-217 -87v122zM2015 793q144 0 240 -109t96 -293q0 -183 -96 -292.5t-240 -109.5q-143 0 -239 109.5t-96 292.5q0 184 96 293t239 109zM2015 675q-90 0 -148.5 -75.5t-58.5 -208.5t58.5 -208.5
t148.5 -75.5t149 75.5t59 208.5t-59 208.5t-149 75.5zM391 1409v-792h-124v620l-217 -87v122z" />
    <glyph glyph-name="onethird" unicode="&#x2153;" horiz-adv-x="1694" 
d="M1308 1400l-883 -1400h-149l883 1400h149zM1318 793q122 0 198 -59.5t76 -156.5q0 -65 -34 -112t-94 -71q67 -23 106 -70.5t39 -111.5q0 -107 -83.5 -165t-201.5 -58q-169 0 -264 106l72 82q74 -77 186 -77q70 0 116.5 31.5t46.5 90.5q0 55 -49 86.5t-122 31.5h-100v110
h100q68 0 111 30.5t43 86.5q0 53 -42 84t-110 31q-106 0 -174 -83l-74 79q91 115 254 115zM391 1409v-792h-124v620l-217 -87v122z" />
    <glyph glyph-name="twothirds" unicode="&#x2154;" horiz-adv-x="1831" 
d="M1445 1400l-883 -1400h-149l883 1400h149zM1454 793q122 0 198 -59.5t76 -156.5q0 -65 -34 -112t-94 -71q67 -23 106 -70.5t39 -111.5q0 -107 -83.5 -165t-201.5 -58q-169 0 -264 106l72 82q74 -77 186 -77q70 0 116.5 31.5t46.5 90.5q0 55 -49 86.5t-122 31.5h-100v110
h100q68 0 111 30.5t43 86.5q0 53 -42 84t-110 31q-106 0 -174 -83l-74 79q91 115 254 115zM145 1200l-80 77q97 133 262 133q120 0 190 -68t70 -176q0 -67 -29 -120.5t-86 -110.5l-201 -203h340v-115h-517v97l291 291q74 74 74 151q0 60 -38.5 98t-104.5 38q-96 0 -171 -92z
" />
    <glyph glyph-name="uni2155" unicode="&#x2155;" horiz-adv-x="1722" 
d="M1308 1400l-883 -1400h-149l883 1400h149zM1592 782v-114h-336l-6 -189h94q138 0 213.5 -64t75.5 -168q0 -118 -80 -188t-204 -70q-172 0 -274 113l73 82q37 -37 90 -59t110 -22q74 0 115.5 37t41.5 98q0 59 -45 94.5t-141 35.5h-182l12 414h443zM391 1409v-792h-124v620
l-217 -87v122z" />
    <glyph glyph-name="uni2156" unicode="&#x2156;" horiz-adv-x="1859" 
d="M1445 1400l-883 -1400h-149l883 1400h149zM1728 782v-114h-336l-6 -189h94q138 0 213.5 -64t75.5 -168q0 -118 -80 -188t-204 -70q-172 0 -274 113l73 82q37 -37 90 -59t110 -22q74 0 115.5 37t41.5 98q0 59 -45 94.5t-141 35.5h-182l12 414h443zM145 1200l-80 77
q97 133 262 133q120 0 190 -68t70 -176q0 -67 -29 -120.5t-86 -110.5l-201 -203h340v-115h-517v97l291 291q74 74 74 151q0 60 -38.5 98t-104.5 38q-96 0 -171 -92z" />
    <glyph glyph-name="uni2157" unicode="&#x2157;" horiz-adv-x="1833" 
d="M1419 1400l-883 -1400h-149l883 1400h149zM1702 782v-114h-336l-6 -189h94q138 0 213.5 -64t75.5 -168q0 -118 -80 -188t-204 -70q-172 0 -274 113l73 82q37 -37 90 -59t110 -22q74 0 115.5 37t41.5 98q0 59 -45 94.5t-141 35.5h-182l12 414h443zM308 1410
q122 0 198 -59.5t76 -156.5q0 -65 -34 -112t-94 -71q67 -23 106 -70.5t39 -111.5q0 -107 -83.5 -165t-201.5 -58q-169 0 -264 106l72 82q74 -77 186 -77q70 0 116.5 31.5t46.5 90.5q0 55 -49 86.5t-122 31.5h-100v110h100q68 0 111 30.5t43 86.5q0 53 -42 84t-110 31
q-106 0 -174 -83l-74 79q91 115 254 115z" />
    <glyph glyph-name="uni2158" unicode="&#x2158;" horiz-adv-x="1838" 
d="M1424 1400l-883 -1400h-149l883 1400h149zM1708 782v-114h-336l-6 -189h94q138 0 213.5 -64t75.5 -168q0 -118 -80 -188t-204 -70q-172 0 -274 113l73 82q37 -37 90 -59t110 -22q74 0 115.5 37t41.5 98q0 59 -45 94.5t-141 35.5h-182l12 414h443zM529 1099v-217h121v-113
h-121v-152h-124v152h-365v89l276 541h137l-267 -517h219v217h124z" />
    <glyph glyph-name="uni2159" unicode="&#x2159;" horiz-adv-x="1635" 
d="M1308 1400l-883 -1400h-149l883 1400h149zM1425 782l-194 -283q30 8 65 8q121 0 198 -73t77 -183q0 -113 -83.5 -187.5t-209.5 -74.5q-125 0 -208.5 73.5t-83.5 185.5q0 91 64 188l226 346h149zM1278 402q-70 0 -116.5 -43t-47.5 -109q0 -66 46.5 -109t117.5 -43
t117.5 43t46.5 109t-46.5 109t-117.5 43zM391 1409v-792h-124v620l-217 -87v122z" />
    <glyph glyph-name="uni215A" unicode="&#x215a;" horiz-adv-x="1766" 
d="M1439 1400l-883 -1400h-149l883 1400h149zM1556 782l-194 -283q30 8 65 8q121 0 198 -73t77 -183q0 -113 -83.5 -187.5t-209.5 -74.5q-125 0 -208.5 73.5t-83.5 185.5q0 91 64 188l226 346h149zM1409 402q-70 0 -116.5 -43t-47.5 -109q0 -66 46.5 -109t117.5 -43
t117.5 43t46.5 109t-46.5 109t-117.5 43zM582 1399v-114h-336l-6 -189h94q138 0 213.5 -64t75.5 -168q0 -118 -80 -188t-204 -70q-172 0 -274 113l73 82q37 -37 90 -59t110 -22q74 0 115.5 37t41.5 98q0 59 -45 94.5t-141 35.5h-182l12 414h443z" />
    <glyph glyph-name="oneeighth" unicode="&#x215b;" horiz-adv-x="1759" 
d="M1308 1400l-883 -1400h-149l883 1400h149zM1371 793q121 0 202 -58t81 -158q0 -127 -134 -181q154 -53 154 -187q0 -102 -87 -161t-216 -59q-130 0 -216.5 59t-86.5 161q0 134 153 186q-134 53 -134 182q0 100 81.5 158t202.5 58zM1371 346q-73 0 -121.5 -33t-48.5 -91
q0 -61 48.5 -94t121.5 -33t121 33.5t48 93.5q0 58 -48.5 91t-120.5 33zM1371 685q-66 0 -109.5 -31.5t-43.5 -88.5q0 -56 43.5 -87.5t109.5 -31.5q65 0 108.5 31.5t43.5 87.5q0 57 -43.5 88.5t-108.5 31.5zM391 1409v-792h-124v620l-217 -87v122z" />
    <glyph glyph-name="threeeighths" unicode="&#x215c;" horiz-adv-x="1869" 
d="M1419 1400l-883 -1400h-149l883 1400h149zM1481 793q121 0 202 -58t81 -158q0 -127 -134 -181q154 -53 154 -187q0 -102 -87 -161t-216 -59q-130 0 -216.5 59t-86.5 161q0 134 153 186q-134 53 -134 182q0 100 81.5 158t202.5 58zM1481 346q-73 0 -121.5 -33t-48.5 -91
q0 -61 48.5 -94t121.5 -33t121 33.5t48 93.5q0 58 -48.5 91t-120.5 33zM1481 685q-66 0 -109.5 -31.5t-43.5 -88.5q0 -56 43.5 -87.5t109.5 -31.5q65 0 108.5 31.5t43.5 87.5q0 57 -43.5 88.5t-108.5 31.5zM308 1410q122 0 198 -59.5t76 -156.5q0 -65 -34 -112t-94 -71
q67 -23 106 -70.5t39 -111.5q0 -107 -83.5 -165t-201.5 -58q-169 0 -264 106l72 82q74 -77 186 -77q70 0 116.5 31.5t46.5 90.5q0 55 -49 86.5t-122 31.5h-100v110h100q68 0 111 30.5t43 86.5q0 53 -42 84t-110 31q-106 0 -174 -83l-74 79q91 115 254 115z" />
    <glyph glyph-name="fiveeighths" unicode="&#x215d;" horiz-adv-x="1890" 
d="M1439 1400l-883 -1400h-149l883 1400h149zM1502 793q121 0 202 -58t81 -158q0 -127 -134 -181q154 -53 154 -187q0 -102 -87 -161t-216 -59q-130 0 -216.5 59t-86.5 161q0 134 153 186q-134 53 -134 182q0 100 81.5 158t202.5 58zM1502 346q-73 0 -121.5 -33t-48.5 -91
q0 -61 48.5 -94t121.5 -33t121 33.5t48 93.5q0 58 -48.5 91t-120.5 33zM1502 685q-66 0 -109.5 -31.5t-43.5 -88.5q0 -56 43.5 -87.5t109.5 -31.5q65 0 108.5 31.5t43.5 87.5q0 57 -43.5 88.5t-108.5 31.5zM582 1399v-114h-336l-6 -189h94q138 0 213.5 -64t75.5 -168
q0 -118 -80 -188t-204 -70q-172 0 -274 113l73 82q37 -37 90 -59t110 -22q74 0 115.5 37t41.5 98q0 59 -45 94.5t-141 35.5h-182l12 414h443z" />
    <glyph glyph-name="seveneighths" unicode="&#x215e;" horiz-adv-x="1735" 
d="M1284 1400l-883 -1400h-149l883 1400h149zM1347 793q121 0 202 -58t81 -158q0 -127 -134 -181q154 -53 154 -187q0 -102 -87 -161t-216 -59q-130 0 -216.5 59t-86.5 161q0 134 153 186q-134 53 -134 182q0 100 81.5 158t202.5 58zM1347 346q-73 0 -121.5 -33t-48.5 -91
q0 -61 48.5 -94t121.5 -33t121 33.5t48 93.5q0 58 -48.5 91t-120.5 33zM1347 685q-66 0 -109.5 -31.5t-43.5 -88.5q0 -56 43.5 -87.5t109.5 -31.5q65 0 108.5 31.5t43.5 87.5q0 57 -43.5 88.5t-108.5 31.5zM613 1399v-96l-340 -686h-146l340 667h-407v115h553z" />
    <glyph glyph-name="uni215F" unicode="&#x215f;" horiz-adv-x="1010" 
d="M1308 1400l-883 -1400h-149l883 1400h149zM391 1409v-792h-124v620l-217 -87v122z" />
    <glyph glyph-name="uni2189" unicode="&#x2189;" horiz-adv-x="1937" 
d="M1551 1400l-883 -1400h-149l883 1400h149zM1560 793q122 0 198 -59.5t76 -156.5q0 -65 -34 -112t-94 -71q67 -23 106 -70.5t39 -111.5q0 -107 -83.5 -165t-201.5 -58q-169 0 -264 106l72 82q74 -77 186 -77q70 0 116.5 31.5t46.5 90.5q0 55 -49 86.5t-122 31.5h-100v110
h100q68 0 111 30.5t43 86.5q0 53 -42 84t-110 31q-106 0 -174 -83l-74 79q91 115 254 115zM435 1410q144 0 240 -109t96 -293q0 -183 -96 -292.5t-240 -109.5q-143 0 -239 109.5t-96 292.5q0 184 96 293t239 109zM435 1292q-90 0 -148.5 -75.5t-58.5 -208.5t58.5 -208.5
t148.5 -75.5t149 75.5t59 208.5t-59 208.5t-149 75.5z" />
    <glyph glyph-name="arrowleft" unicode="&#x2190;" horiz-adv-x="2000" 
d="M1782 585h-1128q-105 0 -196 6q73 -59 191 -177l287 -287l-96 -96l-621 622l621 622l96 -96l-287 -287q-118 -118 -191 -177q91 6 196 6h1128v-136z" />
    <glyph glyph-name="arrowup" unicode="&#x2191;" horiz-adv-x="2000" 
d="M933 -77v1127q0 105 5 197q-55 -69 -177 -191l-287 -288l-96 96l622 622l622 -622l-96 -96l-286 288q-137 139 -178 191q6 -92 6 -197v-1127h-135z" />
    <glyph glyph-name="arrowright" unicode="&#x2192;" horiz-adv-x="2000" 
d="M219 721h1127q105 0 196 -6q-65 54 -191 177l-287 287l96 96l622 -622l-622 -622l-96 96l287 287q126 123 191 177q-91 -6 -196 -6h-1127v136z" />
    <glyph glyph-name="arrowdown" unicode="&#x2193;" horiz-adv-x="2000" 
d="M1068 1484v-1127q0 -105 -6 -197q55 69 177 191l287 288l96 -96l-622 -622l-622 622l96 96l287 -288q122 -122 177 -191q-6 92 -6 197v1127h136z" />
    <glyph glyph-name="uni2196" unicode="&#x2196;" horiz-adv-x="2000" 
d="M1480 62l-797 797q-65 65 -135 143q10 -97 10 -260v-406h-135v879l879 1v-136h-406q-163 0 -260 10q69 -61 142 -134l798 -798z" />
    <glyph glyph-name="uni2197" unicode="&#x2197;" horiz-adv-x="2000" 
d="M400 149l797 797q74 74 142 135q-96 -10 -260 -10h-406v135h880v-879h-136v406q0 163 11 260q-71 -79 -135 -143l-798 -797z" />
    <glyph glyph-name="uni2198" unicode="&#x2198;" horiz-adv-x="2000" 
d="M496 1254l797 -798q94 -96 135 -142q-10 97 -10 260v406h135v-880h-879v136h406q164 0 260 -11q-69 62 -142 135l-798 798z" />
    <glyph glyph-name="uni2199" unicode="&#x2199;" horiz-adv-x="2000" 
d="M1577 1147l-797 -797q-74 -74 -142 -135q96 10 260 10h406v-135h-880v879h136v-405q0 -164 -11 -261q71 79 135 143l798 798z" />
    <glyph glyph-name="partialdiff" unicode="&#x2202;" horiz-adv-x="1192" 
d="M279 1331l67 119q125 -51 230.5 -118.5t180 -139t133 -152t94.5 -155t59 -150.5t32 -136.5t9 -115.5q0 -141 -65 -256t-179.5 -180.5t-254.5 -65.5q-213 0 -355.5 138t-142.5 344q0 208 135.5 347t336.5 139q94 0 176 -40t140 -112q-138 336 -596 534zM585 808
q-148 0 -246.5 -97t-98.5 -247q0 -149 98.5 -246t246.5 -97q149 0 247.5 97t98.5 246q0 150 -98.5 247t-247.5 97z" />
    <glyph glyph-name="uni2300" unicode="&#x2205;" horiz-adv-x="1429" 
d="M1131 1033l96 -96l-128 -128q97 -131 97 -289q0 -130 -64.5 -241t-175.5 -176t-241 -65q-161 0 -290 97l-127 -128l-96 96l127 127q-97 129 -97 290q0 130 64.5 241t176 176.5t242.5 65.5q159 0 289 -98zM367 520q0 -111 63 -199l482 483q-88 63 -197 63
q-144 0 -246 -102t-102 -245zM715 174q143 0 244.5 101.5t101.5 244.5q0 108 -62 197l-481 -482q88 -61 197 -61z" />
    <glyph glyph-name="uni2300" unicode="&#x2300;" horiz-adv-x="1429" 
d="M1131 1033l96 -96l-128 -128q97 -131 97 -289q0 -130 -64.5 -241t-175.5 -176t-241 -65q-161 0 -290 97l-127 -128l-96 96l127 127q-97 129 -97 290q0 130 64.5 241t176 176.5t242.5 65.5q159 0 289 -98zM367 520q0 -111 63 -199l482 483q-88 63 -197 63
q-144 0 -246 -102t-102 -245zM715 174q143 0 244.5 101.5t101.5 244.5q0 108 -62 197l-481 -482q88 -61 197 -61z" />
    <glyph glyph-name="Delta" unicode="&#x2206;" horiz-adv-x="1412" 
d="M805 1402l526 -1278v-124h-1250v124l526 1278h198zM706 1239l-444 -1087h888z" />
    <glyph glyph-name="product" unicode="&#x220f;" horiz-adv-x="1467" 
d="M1265 1400v-1665h-161v1513h-741v-1513h-161v1665h1063z" />
    <glyph glyph-name="summation" unicode="&#x2211;" horiz-adv-x="1314" 
d="M1190 1400v-152h-830l554 -625v-89l-558 -647h837v-152h-1072v125l622 715l-618 700v125h1065z" />
    <glyph glyph-name="minus" unicode="&#x2212;" horiz-adv-x="1200" 
d="M1035 597v-136h-870v136h870z" />
    <glyph glyph-name="uni2219" unicode="&#x2219;" horiz-adv-x="1200" 
d="M600 756q93 0 160 -66.5t67 -160.5t-67 -160.5t-160 -66.5q-95 0 -161 66.5t-66 160.5q0 95 66 161t161 66z" />
    <glyph glyph-name="radical" unicode="&#x221a;" horiz-adv-x="1238" 
d="M1202 1440l-573 -1705h-199l-400 1000h177l322 -811l509 1516h164z" />
    <glyph glyph-name="infinity" unicode="&#x221e;" horiz-adv-x="1642" 
d="M52 520q0 169 105.5 273.5t255.5 104.5q33 0 65.5 -8t57.5 -17.5t58 -33.5t53 -40t57 -53.5t54.5 -57t61.5 -67.5q57 63 85 92.5t75 73t80 62.5t77 34t90 15q151 0 256.5 -104.5t105.5 -273.5t-105.5 -273.5t-256.5 -104.5q-46 0 -90 15t-77 34t-80 62.5t-75 73t-85 92.5
q-44 -48 -61.5 -67.5t-54.5 -57t-57 -53.5t-53 -40t-58 -33.5t-57.5 -17.5t-65.5 -8q-150 0 -255.5 104.5t-105.5 273.5zM194 520q0 -112 62.5 -177t156.5 -65q24 0 45.5 5t48 22.5t44.5 30.5t53.5 50t55 58t69.5 76q-125 140 -187 191t-129 51q-94 0 -156.5 -65t-62.5 -177
zM1446 520q0 112 -62.5 177t-156.5 65q-46 0 -96 -31.5t-83.5 -65t-127.5 -137.5l-8 -8q129 -142 175 -181q73 -61 140 -61q94 0 156.5 65t62.5 177z" />
    <glyph glyph-name="integral" unicode="&#x222b;" horiz-adv-x="667" 
d="M651 1407l-40 -136q-34 8 -64 8q-166 0 -166 -201v-1021q0 -156 -75 -248.5t-231 -92.5q-61 0 -114 12l41 136q32 -8 63 -8q166 0 166 201v1021q0 156 75 248.5t231 92.5q61 0 114 -12z" />
    <glyph glyph-name="congruent" unicode="&#x2245;" horiz-adv-x="1200" 
d="M1035 412v-136h-870v136h870zM1035 782v-136h-870v136h870zM966 1192l82 -94q-56 -61 -118 -89.5t-146 -28.5q-62 0 -116 13.5t-86.5 29.5t-79.5 29.5t-97 13.5q-47 0 -87 -20t-85 -63l-81 94q55 61 117 89.5t146 28.5q63 0 117 -13.5t86 -29.5t79 -29.5t97 -13.5
q47 0 87 20t85 63z" />
    <glyph glyph-name="approxequal" unicode="&#x2248;" horiz-adv-x="1200" 
d="M966 817l82 -94q-56 -61 -118 -89.5t-146 -28.5q-62 0 -116 13.5t-86.5 29.5t-79.5 29.5t-97 13.5q-47 0 -87 -20t-85 -63l-81 94q55 61 117 89.5t146 28.5q63 0 117 -13.5t86 -29.5t79 -29.5t97 -13.5q47 0 87 20t85 63zM966 450l82 -94q-56 -61 -118 -89.5t-146 -28.5
q-62 0 -116 13.5t-86.5 29.5t-79.5 29.5t-97 13.5q-47 0 -87 -20t-85 -63l-81 94q55 61 117 89.5t146 28.5q63 0 117 -13.5t86 -29.5t79 -29.5t97 -13.5q47 0 87 20t85 63z" />
    <glyph glyph-name="uni2259" unicode="&#x2259;" horiz-adv-x="1200" 
d="M1035 412v-136h-870v136h870zM1035 782v-136h-870v136h870zM934 964h-160l-174 189l-175 -189h-160l235 288h200z" />
    <glyph glyph-name="notequal" unicode="&#x2260;" horiz-adv-x="1200" 
d="M1035 412v-136h-487l-123 -252h-143l123 252h-240v136h306l114 234h-420v136h487l123 252h143l-123 -252h240v-136h-307l-114 -234h421z" />
    <glyph glyph-name="lessequal" unicode="&#x2264;" horiz-adv-x="1200" 
d="M994 1088v-158l-626 -253l626 -253v-158l-787 337v147zM207 45v136h787v-136h-787z" />
    <glyph glyph-name="greaterequal" unicode="&#x2265;" horiz-adv-x="1200" 
d="M207 930v158l787 -338v-147l-787 -337v158l626 253zM994 181v-136h-787v136h787z" />
    <glyph glyph-name="dotmath" unicode="&#x22c5;" horiz-adv-x="1200" 
d="M601 654q50 0 87 -37t37 -87q0 -51 -37 -88.5t-87 -37.5t-88 37.5t-38 88.5q0 50 38 87t88 37z" />
    <glyph glyph-name="uni2460" unicode="&#x2460;" horiz-adv-x="2050" 
d="M1025 1582q180 0 344.5 -70t283 -188t188.5 -281t70 -342t-70 -342.5t-188.5 -282t-283 -188.5t-344.5 -70t-344.5 70t-283 188.5t-188.5 282t-70 342.5t70 342t188.5 281t283 188t344.5 70zM1025 1443q-202 0 -372.5 -99t-270 -270t-99.5 -373q0 -151 58.5 -289
t158 -237.5t237 -158.5t288.5 -59t288.5 59t237 158.5t158.5 237.5t59 289t-59 288.5t-158.5 237t-237 158t-288.5 58.5zM1140 1145v-855h-133v671l-258 -103v132z" />
    <glyph glyph-name="uni2461" unicode="&#x2461;" horiz-adv-x="2050" 
d="M1025 1582q180 0 344.5 -70t283 -188t188.5 -281t70 -342t-70 -342.5t-188.5 -282t-283 -188.5t-344.5 -70t-344.5 70t-283 188.5t-188.5 282t-70 342.5t70 342t188.5 281t283 188t344.5 70zM1025 1443q-202 0 -372.5 -99t-270 -270t-99.5 -373q0 -151 58.5 -289
t158 -237.5t237 -158.5t288.5 -59t288.5 59t237 158.5t158.5 237.5t59 289t-59 288.5t-158.5 237t-237 158t-288.5 58.5zM823 920l-88 82q106 144 286 144q132 0 209 -73.5t77 -191.5q0 -72 -34 -131t-95 -118l-221 -218h375v-124h-567v104l321 314q82 82 82 164
q0 64 -42.5 105.5t-115.5 41.5q-107 0 -187 -99z" />
    <glyph glyph-name="uni2462" unicode="&#x2462;" horiz-adv-x="2050" 
d="M1025 1582q180 0 344.5 -70t283 -188t188.5 -281t70 -342t-70 -342.5t-188.5 -282t-283 -188.5t-344.5 -70t-344.5 70t-283 188.5t-188.5 282t-70 342.5t70 342t188.5 281t283 188t344.5 70zM1025 1443q-202 0 -372.5 -99t-270 -270t-99.5 -373q0 -151 58.5 -289
t158 -237.5t237 -158.5t288.5 -59t288.5 59t237 158.5t158.5 237.5t59 289t-59 288.5t-158.5 237t-237 158t-288.5 58.5zM1012 1146q136 0 221 -64.5t85 -168.5q0 -72 -39 -122.5t-108 -74.5q77 -24 121 -75t44 -122q0 -78 -46 -134t-116.5 -81.5t-155.5 -25.5
q-186 0 -289 113l77 87q83 -83 206 -83q80 0 133.5 34t53.5 98q0 61 -55 96.5t-138 35.5h-112v115h113q77 0 125.5 33.5t48.5 94.5q0 56 -49 90.5t-127 34.5q-115 0 -191 -89l-81 85q100 123 279 123z" />
    <glyph glyph-name="uni2463" unicode="&#x2463;" horiz-adv-x="2050" 
d="M1025 1582q180 0 344.5 -70t283 -188t188.5 -281t70 -342t-70 -342.5t-188.5 -282t-283 -188.5t-344.5 -70t-344.5 70t-283 188.5t-188.5 282t-70 342.5t70 342t188.5 281t283 188t344.5 70zM1025 1443q-202 0 -372.5 -99t-270 -270t-99.5 -373q0 -151 58.5 -289
t158 -237.5t237 -158.5t288.5 -59t288.5 59t237 158.5t158.5 237.5t59 289t-59 288.5t-158.5 237t-237 158t-288.5 58.5zM1209 810v-232h134v-123h-134v-165h-133v165h-402v94l303 585h147l-291 -556h243v232h133z" />
    <glyph glyph-name="uni2464" unicode="&#x2464;" horiz-adv-x="2050" 
d="M1025 1582q180 0 344.5 -70t283 -188t188.5 -281t70 -342t-70 -342.5t-188.5 -282t-283 -188.5t-344.5 -70t-344.5 70t-283 188.5t-188.5 282t-70 342.5t70 342t188.5 281t283 188t344.5 70zM1025 1443q-202 0 -372.5 -99t-270 -270t-99.5 -373q0 -151 58.5 -289
t158 -237.5t237 -158.5t288.5 -59t288.5 59t237 158.5t158.5 237.5t59 289t-59 288.5t-158.5 237t-237 158t-288.5 58.5zM1295 1135v-123h-369l-8 -207h109q151 0 232 -68t81 -184q0 -125 -87.5 -200t-223.5 -75q-187 0 -301 122l72 95q40 -42 101 -68.5t127 -26.5
q82 0 127.5 39.5t45.5 104.5q0 144 -210 144h-193l11 447h486z" />
    <glyph glyph-name="uni2465" unicode="&#x2465;" horiz-adv-x="2050" 
d="M1025 1582q180 0 344.5 -70t283 -188t188.5 -281t70 -342t-70 -342.5t-188.5 -282t-283 -188.5t-344.5 -70t-344.5 70t-283 188.5t-188.5 282t-70 342.5t70 342t188.5 281t283 188t344.5 70zM1025 1443q-202 0 -372.5 -99t-270 -270t-99.5 -373q0 -151 58.5 -289
t158 -237.5t237 -158.5t288.5 -59t288.5 59t237 158.5t158.5 237.5t59 289t-59 288.5t-158.5 237t-237 158t-288.5 58.5zM1175 1135l-212 -308q38 10 73 10q131 0 215 -79t84 -196q0 -123 -90.5 -203.5t-226.5 -80.5q-137 0 -228 79.5t-91 200.5q0 94 70 201l246 376h160z
M1018 724q-77 0 -128.5 -47t-51.5 -117q0 -71 51 -117t129 -46q77 0 128 46.5t51 116.5t-51 117t-128 47z" />
    <glyph glyph-name="uni2466" unicode="&#x2466;" horiz-adv-x="2050" 
d="M1025 1582q180 0 344.5 -70t283 -188t188.5 -281t70 -342t-70 -342.5t-188.5 -282t-283 -188.5t-344.5 -70t-344.5 70t-283 188.5t-188.5 282t-70 342.5t70 342t188.5 281t283 188t344.5 70zM1025 1443q-202 0 -372.5 -99t-270 -270t-99.5 -373q0 -151 58.5 -289
t158 -237.5t237 -158.5t288.5 -59t288.5 59t237 158.5t158.5 237.5t59 289t-59 288.5t-158.5 237t-237 158t-288.5 58.5zM1357 1135v-105l-374 -740h-158l375 721h-449v124h606z" />
    <glyph glyph-name="uni2467" unicode="&#x2467;" horiz-adv-x="2050" 
d="M1025 1582q180 0 344.5 -70t283 -188t188.5 -281t70 -342t-70 -342.5t-188.5 -282t-283 -188.5t-344.5 -70t-344.5 70t-283 188.5t-188.5 282t-70 342.5t70 342t188.5 281t283 188t344.5 70zM1025 1443q-202 0 -372.5 -99t-270 -270t-99.5 -373q0 -151 58.5 -289
t158 -237.5t237 -158.5t288.5 -59t288.5 59t237 158.5t158.5 237.5t59 289t-59 288.5t-158.5 237t-237 158t-288.5 58.5zM1025 1146q132 0 220 -62.5t88 -170.5q0 -137 -150 -196q78 -26 125 -76t47 -125q0 -110 -94.5 -174t-235.5 -64q-140 0 -234.5 64t-94.5 174
q0 143 171 201q-150 58 -150 196q0 108 88 170.5t220 62.5zM1025 665q-79 0 -132 -36t-53 -99q0 -64 53 -99.5t132 -35.5t132.5 35.5t53.5 99.5q0 63 -53.5 99t-132.5 36zM1025 1029q-72 0 -119.5 -33.5t-47.5 -94.5t47.5 -95.5t119.5 -34.5q73 0 120.5 34.5t47.5 95.5
t-47.5 94.5t-120.5 33.5z" />
    <glyph glyph-name="uni2468" unicode="&#x2468;" horiz-adv-x="2050" 
d="M1025 1582q180 0 344.5 -70t283 -188t188.5 -281t70 -342t-70 -342.5t-188.5 -282t-283 -188.5t-344.5 -70t-344.5 70t-283 188.5t-188.5 282t-70 342.5t70 342t188.5 281t283 188t344.5 70zM1025 1443q-202 0 -372.5 -99t-270 -270t-99.5 -373q0 -151 58.5 -289
t158 -237.5t237 -158.5t288.5 -59t288.5 59t237 158.5t158.5 237.5t59 289t-59 288.5t-158.5 237t-237 158t-288.5 58.5zM879 290l212 307q-33 -10 -72 -10q-131 0 -215.5 79t-84.5 197q0 123 90.5 203t227.5 80t227.5 -79.5t90.5 -199.5q0 -97 -69 -202l-246 -375h-161z
M1037 701q77 0 128.5 46.5t51.5 117.5q0 70 -51.5 116.5t-128.5 46.5t-128 -46.5t-51 -116.5q0 -71 51 -117.5t128 -46.5z" />
    <glyph glyph-name="uni24EA" unicode="&#x24ea;" horiz-adv-x="2050" 
d="M1025 1582q180 0 344.5 -70t283 -188t188.5 -281t70 -342t-70 -342.5t-188.5 -282t-283 -188.5t-344.5 -70t-344.5 70t-283 188.5t-188.5 282t-70 342.5t70 342t188.5 281t283 188t344.5 70zM1025 1443q-202 0 -372.5 -99t-270 -270t-99.5 -373q0 -151 58.5 -289
t158 -237.5t237 -158.5t288.5 -59t288.5 59t237 158.5t158.5 237.5t59 289t-59 288.5t-158.5 237t-237 158t-288.5 58.5zM1025 1146q160 0 266.5 -118t106.5 -315q0 -199 -106.5 -317t-266.5 -118q-159 0 -265.5 118t-106.5 317q0 197 106.5 315t265.5 118zM1025 1019
q-101 0 -167.5 -82t-66.5 -225q0 -144 66.5 -225.5t167.5 -81.5t168 81.5t67 225.5q0 143 -67 225t-168 82z" />
    <glyph glyph-name="uni24FF" unicode="&#x24ff;" horiz-adv-x="2050" 
d="M1025 1146q-159 0 -265.5 -118t-106.5 -315q0 -199 106.5 -317t265.5 -118q160 0 266.5 118t106.5 317q0 197 -106.5 315t-266.5 118zM1025 1019q101 0 168 -82t67 -225q0 -144 -67 -225.5t-168 -81.5t-167.5 81.5t-66.5 225.5q0 143 66.5 225t167.5 82zM1025 1568
q178 0 339.5 -69t278.5 -185t186 -276.5t69 -336.5q0 -177 -69 -337.5t-186 -277t-278.5 -185.5t-339.5 -69t-339.5 69t-278 185.5t-185.5 277t-69 337.5q0 176 69 336.5t185.5 276.5t278 185t339.5 69z" />
    <glyph glyph-name="uni2715" unicode="&#x2573;" horiz-adv-x="2113" 
d="M1161 700l959 -959l-104 -106l-959 960l-960 -960l-105 106l959 959l-959 959l105 106l960 -959l959 959l104 -106z" />
    <glyph glyph-name="uni2715" unicode="&#x2715;" horiz-adv-x="2113" 
d="M1161 700l959 -959l-104 -106l-959 960l-960 -960l-105 106l959 959l-959 959l105 106l960 -959l959 959l104 -106z" />
    <glyph glyph-name="uni25AE" unicode="&#x258c;" horiz-adv-x="1800" 
d="M200 1400h700v-1400h-700v1400z" />
    <glyph glyph-name="uni25AE" unicode="&#x25ae;" horiz-adv-x="1800" 
d="M200 1400h700v-1400h-700v1400z" />
    <glyph glyph-name="filledbox" unicode="&#x25a0;" horiz-adv-x="1800" 
d="M200 1400h1400v-1400h-1400v1400z" />
    <glyph glyph-name="uni25A1" unicode="&#x25a1;" horiz-adv-x="1800" 
d="M200 1400h1400v-1400h-1400v1400zM338 1262v-1124h1124v1124h-1124z" />
    <glyph glyph-name="triagup" unicode="&#x25b2;" horiz-adv-x="1800" 
d="M900 1420l820 -1420h-1640z" />
    <glyph glyph-name="uni25B3" unicode="&#x25b3;" horiz-adv-x="1800" 
d="M900 1420l820 -1420h-1640zM900 1143l-581 -1005h1162z" />
    <glyph glyph-name="uni25B4" unicode="&#x25b4;" horiz-adv-x="1200" 
d="M601 955l348 -602h-697z" />
    <glyph glyph-name="uni25B8" unicode="&#x25b8;" horiz-adv-x="1200" 
d="M963 653l-603 -349v698z" />
    <glyph glyph-name="triagdn" unicode="&#x25bc;" horiz-adv-x="1800" 
d="M900 -20l-820 1420h1640z" />
    <glyph glyph-name="uni25BD" unicode="&#x25bd;" horiz-adv-x="1800" 
d="M900 -20l-820 1420h1640zM900 257l581 1005h-1162z" />
    <glyph glyph-name="uni25BE" unicode="&#x25be;" horiz-adv-x="1200" 
d="M599 352l-348 602h697z" />
    <glyph glyph-name="uni25C2" unicode="&#x25c2;" horiz-adv-x="1200" 
d="M237 653l603 349v-698z" />
    <glyph glyph-name="uni25C6" unicode="&#x25c6;" horiz-adv-x="1800" 
d="M900 1438l738 -738l-738 -738l-738 738z" />
    <glyph glyph-name="uni25C7" unicode="&#x25c7;" horiz-adv-x="1800" 
d="M900 1438l738 -738l-738 -738l-738 738zM900 1243l-543 -543l543 -543l543 543z" />
    <glyph glyph-name="lozenge" unicode="&#x25ca;" horiz-adv-x="1549" 
d="M1448 700l-587 -700h-173l-587 700l587 700h173zM1253 700l-482 563l-474 -562l481 -564z" />
    <glyph glyph-name="circle" unicode="&#x25cb;" horiz-adv-x="1800" 
d="M900 -39q-151 0 -287.5 58.5t-235.5 157.5t-157.5 236t-58.5 287t58.5 287t157.5 236t235.5 157.5t287.5 58.5q150 0 287 -58.5t236 -157.5t157.5 -236t58.5 -287t-58.5 -287t-157.5 -236t-236 -157.5t-287 -58.5zM900 99q163 0 301.5 80.5t219 219t80.5 301.5
t-80.5 301.5t-219 219t-301.5 80.5q-123 0 -234 -47.5t-191.5 -128t-128 -192t-47.5 -233.5t47.5 -233.5t128 -192t191.5 -128t234 -47.5z" />
    <glyph glyph-name="uni25CF" unicode="&#x25cf;" horiz-adv-x="1800" 
d="M900 -39q-151 0 -287.5 58.5t-235.5 157.5t-157.5 236t-58.5 287t58.5 287t157.5 236t235.5 157.5t287.5 58.5q150 0 287 -58.5t236 -157.5t157.5 -236t58.5 -287t-58.5 -287t-157.5 -236t-236 -157.5t-287 -58.5z" />
    <glyph glyph-name="uni25D0" unicode="&#x25d0;" horiz-adv-x="1800" 
d="M900 -39q-151 0 -287.5 58.5t-235.5 157.5t-157.5 236t-58.5 287t58.5 287t157.5 236t235.5 157.5t287.5 58.5q150 0 287 -58.5t236 -157.5t157.5 -236t58.5 -287t-58.5 -287t-157.5 -236t-236 -157.5t-287 -58.5zM900 1301v-1202q163 0 301.5 80.5t219 219t80.5 301.5
t-80.5 301.5t-219 219t-301.5 80.5z" />
    <glyph glyph-name="uni25D6" unicode="&#x25d6;" horiz-adv-x="1800" 
d="M900 1439v-1478q-151 0 -287.5 58.5t-235.5 157.5t-157.5 236t-58.5 287t58.5 287t157.5 236t235.5 157.5t287.5 58.5z" />
    <glyph glyph-name="uni25E7" unicode="&#x25e7;" horiz-adv-x="1800" 
d="M200 1400h1400v-1400h-1400v1400zM900 1262v-1124h562v1124h-562z" />
    <glyph glyph-name="uni2610" unicode="&#x2610;" horiz-adv-x="2200" 
d="M253 1547h1694v-1694h-1694v1694zM368 1432v-1464h1464v1464h-1464z" />
    <glyph glyph-name="uni2611" unicode="&#x2611;" horiz-adv-x="2200" 
d="M253 1547h1694v-1694h-1694v1694zM368 1432v-1464h1464v1464h-1464zM1573 1198l93 -67l-693 -969l-410 512l88 73l316 -398z" />
    <glyph glyph-name="uni2612" unicode="&#x2612;" horiz-adv-x="2200" 
d="M1947 1547v-1694h-1694v1694h1694zM1832 1432h-1464v-1464h1464v1464zM614 293l404 405l-407 407l82 81l407 -407l407 407l82 -81l-408 -407l405 -405l-81 -82l-405 405l-405 -405z" />
    <glyph glyph-name="heart" unicode="&#x2665;" horiz-adv-x="1800" 
d="M1181 1196q122 0 203 -83.5t81 -207.5q0 -117 -80 -252.5t-203.5 -256t-281.5 -231.5q-158 111 -281.5 231.5t-203.5 256t-80 252.5q0 124 81 207.5t204 83.5q111 0 195.5 -66t84.5 -155q0 89 84.5 155t196.5 66z" />
    <glyph glyph-name="uni2713" unicode="&#x2713;" horiz-adv-x="2200" 
d="M1621 1285l109 -81l-815 -1100l-445 485l100 92l334 -365z" />
    <glyph glyph-name="uni2717" unicode="&#x2717;" horiz-adv-x="2200" 
d="M1196 700l460 -460l-96 -96l-460 460l-460 -460l-96 96l460 460l-460 460l96 96l460 -460l460 460l96 -96z" />
    <glyph glyph-name="uni2776" unicode="&#x2776;" horiz-adv-x="2050" 
d="M1140 1145l-391 -155v-132l258 103v-671h133v855zM1025 1568q178 0 339.5 -69t278.5 -185t186 -276.5t69 -336.5q0 -177 -69 -337.5t-186 -277t-278.5 -185.5t-339.5 -69t-339.5 69t-278 185.5t-185.5 277t-69 337.5q0 176 69 336.5t185.5 276.5t278 185t339.5 69z" />
    <glyph glyph-name="uni2777" unicode="&#x2777;" horiz-adv-x="2050" 
d="M735 1002l88 -82q80 99 187 99q73 0 115.5 -41.5t42.5 -105.5q0 -82 -82 -164l-321 -314v-104h567v124h-375l221 218q61 59 95 118t34 131q0 118 -77 191.5t-209 73.5q-180 0 -286 -144zM1025 1568q178 0 339.5 -69t278.5 -185t186 -276.5t69 -336.5q0 -177 -69 -337.5
t-186 -277t-278.5 -185.5t-339.5 -69t-339.5 69t-278 185.5t-185.5 277t-69 337.5q0 176 69 336.5t185.5 276.5t278 185t339.5 69z" />
    <glyph glyph-name="uni2778" unicode="&#x2778;" horiz-adv-x="2050" 
d="M1025 1568q178 0 339.5 -69t278.5 -185t186 -276.5t69 -336.5q0 -177 -69 -337.5t-186 -277t-278.5 -185.5t-339.5 -69t-339.5 69t-278 185.5t-185.5 277t-69 337.5q0 176 69 336.5t185.5 276.5t278 185t339.5 69zM1012 1146q-179 0 -279 -123l81 -85q76 89 191 89
q78 0 127 -34.5t49 -90.5q0 -61 -48.5 -94.5t-125.5 -33.5h-113v-115h112q83 0 138 -35.5t55 -96.5q0 -64 -53.5 -98t-133.5 -34q-123 0 -206 83l-77 -87q103 -113 289 -113q85 0 155.5 25.5t116.5 81.5t46 134q0 71 -44 122t-121 75q69 24 108 74.5t39 122.5
q0 104 -85 168.5t-221 64.5z" />
    <glyph glyph-name="uni2779" unicode="&#x2779;" horiz-adv-x="2050" 
d="M1025 1568q178 0 339.5 -69t278.5 -185t186 -276.5t69 -336.5q0 -177 -69 -337.5t-186 -277t-278.5 -185.5t-339.5 -69t-339.5 69t-278 185.5t-185.5 277t-69 337.5q0 176 69 336.5t185.5 276.5t278 185t339.5 69zM1209 810h-133v-232h-243l291 556h-147l-303 -585v-94
h402v-165h133v165h134v123h-134v232z" />
    <glyph glyph-name="uni277A" unicode="&#x277a;" horiz-adv-x="2050" 
d="M1295 1135h-486l-11 -447h193q210 0 210 -144q0 -65 -45.5 -104.5t-127.5 -39.5q-66 0 -127 26.5t-101 68.5l-72 -95q114 -122 301 -122q136 0 223.5 75t87.5 200q0 116 -81 184t-232 68h-109l8 207h369v123zM1025 1568q178 0 339.5 -69t278.5 -185t186 -276.5t69 -336.5
q0 -177 -69 -337.5t-186 -277t-278.5 -185.5t-339.5 -69t-339.5 69t-278 185.5t-185.5 277t-69 337.5q0 176 69 336.5t185.5 276.5t278 185t339.5 69z" />
    <glyph glyph-name="uni277B" unicode="&#x277b;" horiz-adv-x="2050" 
d="M1025 1568q178 0 339.5 -69t278.5 -185t186 -276.5t69 -336.5q0 -177 -69 -337.5t-186 -277t-278.5 -185.5t-339.5 -69t-339.5 69t-278 185.5t-185.5 277t-69 337.5q0 176 69 336.5t185.5 276.5t278 185t339.5 69zM1175 1135h-160l-246 -376q-70 -107 -70 -201
q0 -121 91 -200.5t228 -79.5q136 0 226.5 80.5t90.5 203.5q0 117 -84 196t-215 79q-35 0 -73 -10zM1018 724q77 0 128 -47t51 -117t-51 -116.5t-128 -46.5q-78 0 -129 46t-51 117q0 70 51.5 117t128.5 47z" />
    <glyph glyph-name="uni277C" unicode="&#x277c;" horiz-adv-x="2050" 
d="M1357 1135h-606v-124h449l-375 -721h158l374 740v105zM1025 1568q178 0 339.5 -69t278.5 -185t186 -276.5t69 -336.5q0 -177 -69 -337.5t-186 -277t-278.5 -185.5t-339.5 -69t-339.5 69t-278 185.5t-185.5 277t-69 337.5q0 176 69 336.5t185.5 276.5t278 185t339.5 69z
" />
    <glyph glyph-name="uni277D" unicode="&#x277d;" horiz-adv-x="2050" 
d="M1025 1568q178 0 339.5 -69t278.5 -185t186 -276.5t69 -336.5q0 -177 -69 -337.5t-186 -277t-278.5 -185.5t-339.5 -69t-339.5 69t-278 185.5t-185.5 277t-69 337.5q0 176 69 336.5t185.5 276.5t278 185t339.5 69zM1025 1146q-131 0 -219.5 -63t-88.5 -170
q0 -138 150 -196q-171 -58 -171 -201q0 -110 94.5 -174t234.5 -64t235 64t95 174q0 75 -47 125t-125 76q150 59 150 196q0 107 -88.5 170t-219.5 63zM1025 665q79 0 132.5 -36t53.5 -99t-53.5 -98.5t-132.5 -35.5t-132 35.5t-53 98.5t53 99t132 36zM1025 1028
q72 0 120 -33.5t48 -93.5q0 -61 -47.5 -95.5t-120.5 -34.5q-72 0 -119.5 34.5t-47.5 95.5q0 60 47.5 93.5t119.5 33.5z" />
    <glyph glyph-name="uni277E" unicode="&#x277e;" horiz-adv-x="2050" 
d="M1025 1568q178 0 339.5 -69t278.5 -185t186 -276.5t69 -336.5q0 -177 -69 -337.5t-186 -277t-278.5 -185.5t-339.5 -69t-339.5 69t-278 185.5t-185.5 277t-69 337.5q0 176 69 336.5t185.5 276.5t278 185t339.5 69zM879 290h161l246 375q69 105 69 202q0 120 -90.5 199.5
t-227.5 79.5t-227.5 -80t-90.5 -203q0 -118 84.5 -197t215.5 -79q39 0 72 10zM1037 701q-77 0 -128 46.5t-51 117.5q0 70 51 116.5t128 46.5t128.5 -46.5t51.5 -116.5q0 -71 -51.5 -117.5t-128.5 -46.5z" />
    <glyph glyph-name="uni278A" unicode="&#x278a;" horiz-adv-x="2050" 
d="M1140 1145l-391 -155v-132l258 103v-671h133v855zM1025 1568q178 0 339.5 -69t278.5 -185t186 -276.5t69 -336.5q0 -177 -69 -337.5t-186 -277t-278.5 -185.5t-339.5 -69t-339.5 69t-278 185.5t-185.5 277t-69 337.5q0 176 69 336.5t185.5 276.5t278 185t339.5 69z" />
    <glyph glyph-name="uni278B" unicode="&#x278b;" horiz-adv-x="2050" 
d="M735 1002l88 -82q80 99 187 99q73 0 115.5 -41.5t42.5 -105.5q0 -82 -82 -164l-321 -314v-104h567v124h-375l221 218q61 59 95 118t34 131q0 118 -77 191.5t-209 73.5q-180 0 -286 -144zM1025 1568q178 0 339.5 -69t278.5 -185t186 -276.5t69 -336.5q0 -177 -69 -337.5
t-186 -277t-278.5 -185.5t-339.5 -69t-339.5 69t-278 185.5t-185.5 277t-69 337.5q0 176 69 336.5t185.5 276.5t278 185t339.5 69z" />
    <glyph glyph-name="uni278C" unicode="&#x278c;" horiz-adv-x="2050" 
d="M1025 1568q178 0 339.5 -69t278.5 -185t186 -276.5t69 -336.5q0 -177 -69 -337.5t-186 -277t-278.5 -185.5t-339.5 -69t-339.5 69t-278 185.5t-185.5 277t-69 337.5q0 176 69 336.5t185.5 276.5t278 185t339.5 69zM1012 1146q-179 0 -279 -123l81 -85q76 89 191 89
q78 0 127 -34.5t49 -90.5q0 -61 -48.5 -94.5t-125.5 -33.5h-113v-115h112q83 0 138 -35.5t55 -96.5q0 -64 -53.5 -98t-133.5 -34q-123 0 -206 83l-77 -87q103 -113 289 -113q85 0 155.5 25.5t116.5 81.5t46 134q0 71 -44 122t-121 75q69 24 108 74.5t39 122.5
q0 104 -85 168.5t-221 64.5z" />
    <glyph glyph-name="uni278D" unicode="&#x278d;" horiz-adv-x="2050" 
d="M1025 1568q178 0 339.5 -69t278.5 -185t186 -276.5t69 -336.5q0 -177 -69 -337.5t-186 -277t-278.5 -185.5t-339.5 -69t-339.5 69t-278 185.5t-185.5 277t-69 337.5q0 176 69 336.5t185.5 276.5t278 185t339.5 69zM1209 810h-133v-232h-243l291 556h-147l-303 -585v-94
h402v-165h133v165h134v123h-134v232z" />
    <glyph glyph-name="uni278E" unicode="&#x278e;" horiz-adv-x="2050" 
d="M1295 1135h-486l-11 -447h193q210 0 210 -144q0 -65 -45.5 -104.5t-127.5 -39.5q-66 0 -127 26.5t-101 68.5l-72 -95q114 -122 301 -122q136 0 223.5 75t87.5 200q0 116 -81 184t-232 68h-109l8 207h369v123zM1025 1568q178 0 339.5 -69t278.5 -185t186 -276.5t69 -336.5
q0 -177 -69 -337.5t-186 -277t-278.5 -185.5t-339.5 -69t-339.5 69t-278 185.5t-185.5 277t-69 337.5q0 176 69 336.5t185.5 276.5t278 185t339.5 69z" />
    <glyph glyph-name="uni278F" unicode="&#x278f;" horiz-adv-x="2050" 
d="M1025 1568q178 0 339.5 -69t278.5 -185t186 -276.5t69 -336.5q0 -177 -69 -337.5t-186 -277t-278.5 -185.5t-339.5 -69t-339.5 69t-278 185.5t-185.5 277t-69 337.5q0 176 69 336.5t185.5 276.5t278 185t339.5 69zM1175 1135h-160l-246 -376q-70 -107 -70 -201
q0 -121 91 -200.5t228 -79.5q136 0 226.5 80.5t90.5 203.5q0 117 -84 196t-215 79q-35 0 -73 -10zM1018 724q77 0 128 -47t51 -117t-51 -116.5t-128 -46.5q-78 0 -129 46t-51 117q0 70 51.5 117t128.5 47z" />
    <glyph glyph-name="uni2790" unicode="&#x2790;" horiz-adv-x="2050" 
d="M1357 1135h-606v-124h449l-375 -721h158l374 740v105zM1025 1568q178 0 339.5 -69t278.5 -185t186 -276.5t69 -336.5q0 -177 -69 -337.5t-186 -277t-278.5 -185.5t-339.5 -69t-339.5 69t-278 185.5t-185.5 277t-69 337.5q0 176 69 336.5t185.5 276.5t278 185t339.5 69z
" />
    <glyph glyph-name="uni2791" unicode="&#x2791;" horiz-adv-x="2050" 
d="M1025 1568q178 0 339.5 -69t278.5 -185t186 -276.5t69 -336.5q0 -177 -69 -337.5t-186 -277t-278.5 -185.5t-339.5 -69t-339.5 69t-278 185.5t-185.5 277t-69 337.5q0 176 69 336.5t185.5 276.5t278 185t339.5 69zM1025 1146q-131 0 -219.5 -63t-88.5 -170
q0 -138 150 -196q-171 -58 -171 -201q0 -110 94.5 -174t234.5 -64t235 64t95 174q0 75 -47 125t-125 76q150 59 150 196q0 107 -88.5 170t-219.5 63zM1025 665q79 0 132.5 -36t53.5 -99t-53.5 -98.5t-132.5 -35.5t-132 35.5t-53 98.5t53 99t132 36zM1025 1028
q72 0 120 -33.5t48 -93.5q0 -61 -47.5 -95.5t-120.5 -34.5q-72 0 -119.5 34.5t-47.5 95.5q0 60 47.5 93.5t119.5 33.5z" />
    <glyph glyph-name="uni2792" unicode="&#x2792;" horiz-adv-x="2050" 
d="M1025 1568q178 0 339.5 -69t278.5 -185t186 -276.5t69 -336.5q0 -177 -69 -337.5t-186 -277t-278.5 -185.5t-339.5 -69t-339.5 69t-278 185.5t-185.5 277t-69 337.5q0 176 69 336.5t185.5 276.5t278 185t339.5 69zM879 290h161l246 375q69 105 69 202q0 120 -90.5 199.5
t-227.5 79.5t-227.5 -80t-90.5 -203q0 -118 84.5 -197t215.5 -79q39 0 72 10zM1037 701q-77 0 -128 46.5t-51 117.5q0 70 51 116.5t128 46.5t128.5 -46.5t51.5 -116.5q0 -71 -51.5 -117.5t-128.5 -46.5z" />
    <glyph glyph-name="uni2B51" unicode="&#x2b51;" horiz-adv-x="1800" 
d="M1066 872h536l-433 -315l166 -511l-434 316l-433 -316l165 511l-435 315h538l165 511z" />
    <glyph glyph-name="uni2B52" unicode="&#x2b52;" horiz-adv-x="1800" 
d="M1066 872h536l-433 -315l166 -511l-434 316l-433 -316l165 511l-435 315h538l165 511zM999 780l-98 303l-98 -303h-320l258 -188l-98 -304l258 188l258 -188l-98 304l258 188h-320z" />
    <glyph glyph-name="uni2E17" unicode="&#x2e17;" horiz-adv-x="929" 
d="M746 883v-131l-563 -205v131zM746 558v-131l-563 -205v131z" />
    <glyph glyph-name="uni2E38" unicode="&#x2e38;" horiz-adv-x="741" 
d="M309 1440h123v-439h208v-120h-208v-208h-123v208h-208v120h208v439z" />
    <glyph glyph-name="uniEA00" unicode="&#xea00;" horiz-adv-x="1800" 
d="M1066 872h536l-433 -315l166 -511l-434 316l-433 -316l165 511l-435 315h538l165 511zM999 780l-98 303v-607l258 -188l-98 304l258 188h-320z" />
    <glyph glyph-name="uniEA01" unicode="&#xea01;" horiz-adv-x="1800" 
d="M901 362l-433 -316l165 511l-435 315h538l165 511v-1021z" />
    <glyph glyph-name="uniFB00" unicode="&#xfb00;" horiz-adv-x="1700" 
d="M796 947v-135h-377v-812h-150v812h-216v135h216v162q0 161 77 255.5t238 94.5q143 0 259 -71l-54 -125q-95 56 -195 56q-175 0 -175 -210v-162h377zM1633 947v-135h-377v-812h-150v812h-216v135h216v162q0 161 77 255.5t238 94.5q143 0 259 -71l-54 -125q-95 56 -195 56
q-175 0 -175 -210v-162h377z" />
    <glyph glyph-name="fi" unicode="&#xfb01;" horiz-adv-x="1363" 
d="M796 947v-135h-377v-812h-150v812h-216v135h216v162q0 161 77 255.5t238 94.5q143 0 259 -71l-54 -125q-95 56 -195 56q-175 0 -175 -210v-162h377zM1188 947v-947h-150v947h150zM1113 1389q44 0 75 -30.5t31 -75.5t-30.5 -75t-75.5 -30t-75 30t-30 75t30 75.5t75 30.5z
" />
    <glyph glyph-name="fl" unicode="&#xfb02;" horiz-adv-x="1363" 
d="M796 947v-135h-377v-812h-150v812h-216v135h216v162q0 161 77 255.5t238 94.5q143 0 259 -71l-54 -125q-95 56 -195 56q-175 0 -175 -210v-162h377zM1188 1440v-1440h-150v1440h150z" />
    <glyph glyph-name="uniFB03" unicode="&#xfb03;" horiz-adv-x="2200" 
d="M796 947v-135h-377v-812h-150v812h-216v135h216v162q0 161 77 255.5t238 94.5q143 0 259 -71l-54 -125q-95 56 -195 56q-175 0 -175 -210v-162h377zM1633 947v-135h-377v-812h-150v812h-216v135h216v162q0 161 77 255.5t238 94.5q143 0 259 -71l-54 -125q-95 56 -195 56
q-175 0 -175 -210v-162h377zM2025 947v-947h-150v947h150zM1950 1389q44 0 75 -30.5t31 -75.5t-30.5 -75t-75.5 -30t-75 30t-30 75t30 75.5t75 30.5z" />
    <glyph glyph-name="uniFB04" unicode="&#xfb04;" horiz-adv-x="2200" 
d="M796 947v-135h-377v-812h-150v812h-216v135h216v162q0 161 77 255.5t238 94.5q143 0 259 -71l-54 -125q-95 56 -195 56q-175 0 -175 -210v-162h377zM1633 947v-135h-377v-812h-150v812h-216v135h216v162q0 161 77 255.5t238 94.5q143 0 259 -71l-54 -125q-95 56 -195 56
q-175 0 -175 -210v-162h377zM2025 1440v-1440h-150v1440h150z" />
    <glyph glyph-name="uniFB05" unicode="&#xfb05;" horiz-adv-x="1464" 
d="M1377 947v-135h-409v-478q0 -107 51 -160t137 -53q107 0 198 66l70 -112q-124 -94 -281 -94q-156 0 -240 87.5t-84 262.5v481h-205v135h205v91q0 138 -69 209.5t-183 71.5q-113 0 -182 -71.5t-69 -209.5v-1038h-150v1048q0 102 32.5 182t89 129t127.5 74.5t152 25.5
t152.5 -25.5t127.5 -74.5t88.5 -129t32.5 -182v-101h409z" />
    <glyph glyph-name="uniFB06" unicode="&#xfb06;" horiz-adv-x="1893" 
d="M876 862l-65 -116q-52 36 -136.5 62.5t-173.5 26.5q-102 0 -163 -40t-61 -109q0 -110 193 -133l112 -14q318 -41 318 -264q0 -135 -113 -214t-304 -79q-235 0 -395 121l69 112q132 -103 328 -103q122 0 191.5 39.5t69.5 113.5q0 114 -198 138l-113 13q-157 19 -235 86.5
t-78 175.5q0 133 103 210t275 77q109 0 207 -28t169 -75zM1805 947v-135h-409v-478q0 -107 51 -160t137 -53q107 0 199 67l70 -113q-124 -94 -281 -94q-156 0 -240.5 87.5t-84.5 262.5v481h-207v135h207v301h149v-301h409z" />
    <glyph glyph-name="uniFEFF" unicode="&#xfeff;" horiz-adv-x="0" 
 />
    <glyph glyph-name="Iogonek.alt001" horiz-adv-x="0" 
 />
    <glyph glyph-name="iogonek.alt001" horiz-adv-x="0" 
 />
    <glyph glyph-name="uni030C.alt001" 
d="M-556 1051h-126l7 389h153z" />
    <glyph glyph-name="uni0328.alt001" 
d="M-477 -236l80 -96q-83 -83 -195 -83q-94 0 -153.5 48t-59.5 128q0 83 61 152.5t184 144.5l37 -58q-141 -115 -141 -209q0 -35 23.5 -56t61.5 -21q57 0 102 50z" />
    <glyph glyph-name="uni0328.alt002" 
d="M-544 72l23 -56q-94 -46 -137 -93t-43 -105q0 -46 34 -75t90 -29q80 0 143 58l80 -97q-95 -90 -232 -90q-116 0 -188.5 58t-72.5 148q0 96 74 161t229 120z" />
    <glyph glyph-name="uni0328.alt003" 
d="M-476 -236l79 -96q-83 -83 -194 -83q-94 0 -153.5 48t-59.5 128q0 90 79 157t246 140l35 -58q-113 -55 -166 -105.5t-53 -103.5q0 -35 23.5 -56t61.5 -21q55 0 102 50z" />
    <glyph glyph-name="uni0328.alt004" 
d="M-434 -228l80 -97q-95 -90 -232 -90q-116 0 -188.5 58t-72.5 148q0 103 82 170t253 130l18 -59q-107 -53 -157 -102.5t-50 -111.5q0 -46 34 -75t90 -29q80 0 143 58z" />
    <glyph glyph-name="i.latn_TRK" horiz-adv-x="500" 
d="M325 947v-947h-150v947h150zM250 1389q44 0 75 -30.5t31 -75.5t-30.5 -75t-75.5 -30t-75 30t-30 75t30 75.5t75 30.5z" />
    <glyph glyph-name="j.latn_NLD" horiz-adv-x="504" 
d="M329 947v-1103q0 -124 -63.5 -191.5t-172.5 -67.5q-79 0 -136 32l36 129q40 -20 87 -20q99 0 99 125v1096h150zM271 1092h-148l209 300h190z" />
    <glyph glyph-name="Ldot.latn_CAT" horiz-adv-x="1213" 
d="M1173 152v-152h-971v1400h161v-1248h810zM857 814q46 0 78 -31.5t32 -77.5t-32 -77.5t-78 -31.5q-47 0 -78 31t-31 78t31 78t78 31z" />
    <glyph glyph-name="ldot.latn_CAT" horiz-adv-x="613" 
d="M325 1440v-1440h-150v1440h150zM552 836q44 0 75 -30.5t31 -75.5t-30.5 -75t-75.5 -30t-75 30t-30 75t30 75.5t75 30.5z" />
    <glyph glyph-name="zero.numr" horiz-adv-x="871" 
d="M435 1410q144 0 240 -109t96 -293q0 -183 -96 -292.5t-240 -109.5q-143 0 -239 109.5t-96 292.5q0 184 96 293t239 109zM435 1292q-90 0 -148.5 -75.5t-58.5 -208.5t58.5 -208.5t148.5 -75.5t149 75.5t59 208.5t-59 208.5t-149 75.5z" />
    <glyph glyph-name="one.numr" horiz-adv-x="550" 
d="M391 1409v-792h-124v620l-217 -87v122z" />
    <glyph glyph-name="two.numr" horiz-adv-x="681" 
d="M145 1200l-80 77q97 133 262 133q120 0 190 -68t70 -176q0 -67 -29 -120.5t-86 -110.5l-201 -203h340v-115h-517v97l291 291q74 74 74 151q0 60 -38.5 98t-104.5 38q-96 0 -171 -92z" />
    <glyph glyph-name="three.numr" horiz-adv-x="685" 
d="M308 1410q122 0 198 -59.5t76 -156.5q0 -65 -34 -112t-94 -71q67 -23 106 -70.5t39 -111.5q0 -107 -83.5 -165t-201.5 -58q-169 0 -264 106l72 82q74 -77 186 -77q70 0 116.5 31.5t46.5 90.5q0 55 -49 86.5t-122 31.5h-100v110h100q68 0 111 30.5t43 86.5q0 53 -42 84
t-110 31q-106 0 -174 -83l-74 79q91 115 254 115z" />
    <glyph glyph-name="four.numr" horiz-adv-x="690" 
d="M529 1099v-217h121v-113h-121v-152h-124v152h-365v89l276 541h137l-267 -517h219v217h124z" />
    <glyph glyph-name="five.numr" horiz-adv-x="712" 
d="M582 1399v-114h-336l-6 -189h94q138 0 213.5 -64t75.5 -168q0 -118 -80 -188t-204 -70q-172 0 -274 113l73 82q37 -37 90 -59t110 -22q74 0 115.5 37t41.5 98q0 59 -45 94.5t-141 35.5h-182l12 414h443z" />
    <glyph glyph-name="six.numr" horiz-adv-x="709" 
d="M499 1399l-194 -283q30 8 65 8q121 0 198 -73t77 -183q0 -113 -83.5 -187.5t-209.5 -74.5q-125 0 -208.5 73.5t-83.5 185.5q0 91 64 188l226 346h149zM352 1019q-70 0 -116.5 -43t-47.5 -109q0 -66 46.5 -109t117.5 -43t117.5 43t46.5 109t-46.5 109t-117.5 43z" />
    <glyph glyph-name="seven.numr" horiz-adv-x="663" 
d="M613 1399v-96l-340 -686h-146l340 667h-407v115h553z" />
    <glyph glyph-name="eight.numr" horiz-adv-x="776" 
d="M388 1410q121 0 202 -58t81 -158q0 -127 -134 -181q154 -53 154 -187q0 -102 -87 -161t-216 -59q-130 0 -216.5 59t-86.5 161q0 134 153 186q-134 53 -134 182q0 100 81.5 158t202.5 58zM388 963q-73 0 -121.5 -33t-48.5 -91q0 -61 48.5 -94t121.5 -33t121 33.5t48 93.5
q0 58 -48.5 91t-120.5 33zM388 1302q-66 0 -109.5 -31.5t-43.5 -88.5q0 -56 43.5 -87.5t109.5 -31.5q65 0 108.5 31.5t43.5 87.5q0 57 -43.5 88.5t-108.5 31.5z" />
    <glyph glyph-name="nine.numr" horiz-adv-x="709" 
d="M211 617l193 283q-30 -8 -64 -8q-122 0 -198.5 73.5t-76.5 182.5q0 113 83 187.5t209 74.5t209.5 -73.5t83.5 -185.5q0 -87 -65 -187l-226 -347h-148zM357 997q71 0 117 43t46 109t-46 109t-117 43t-117.5 -43t-46.5 -109t46.5 -109t117.5 -43z" />
    <glyph glyph-name="zero.dnom" horiz-adv-x="871" 
d="M435 793q144 0 240 -109t96 -293q0 -183 -96 -292.5t-240 -109.5q-143 0 -239 109.5t-96 292.5q0 184 96 293t239 109zM435 675q-90 0 -148.5 -75.5t-58.5 -208.5t58.5 -208.5t148.5 -75.5t149 75.5t59 208.5t-59 208.5t-149 75.5z" />
    <glyph glyph-name="one.dnom" horiz-adv-x="551" 
d="M391 792v-792h-124v620l-217 -87v122z" />
    <glyph glyph-name="two.dnom" horiz-adv-x="681" 
d="M145 583l-80 77q97 133 262 133q120 0 190 -68t70 -176q0 -67 -29 -120.5t-86 -110.5l-201 -203h340v-115h-517v97l291 291q74 74 74 151q0 60 -38.5 98t-104.5 38q-96 0 -171 -92z" />
    <glyph glyph-name="three.dnom" horiz-adv-x="684" 
d="M308 793q122 0 198 -59.5t76 -156.5q0 -65 -34 -112t-94 -71q67 -23 106 -70.5t39 -111.5q0 -107 -83.5 -165t-201.5 -58q-169 0 -264 106l72 82q74 -77 186 -77q70 0 116.5 31.5t46.5 90.5q0 55 -49 86.5t-122 31.5h-100v110h100q68 0 111 30.5t43 86.5q0 53 -42 84
t-110 31q-106 0 -174 -83l-74 79q91 115 254 115z" />
    <glyph glyph-name="four.dnom" horiz-adv-x="690" 
d="M529 482v-217h121v-113h-121v-152h-124v152h-365v89l276 541h137l-267 -517h219v217h124z" />
    <glyph glyph-name="five.dnom" horiz-adv-x="713" 
d="M582 782v-114h-336l-6 -189h94q138 0 213.5 -64t75.5 -168q0 -118 -80 -188t-204 -70q-172 0 -274 113l73 82q37 -37 90 -59t110 -22q74 0 115.5 37t41.5 98q0 59 -45 94.5t-141 35.5h-182l12 414h443z" />
    <glyph glyph-name="six.dnom" horiz-adv-x="710" 
d="M499 782l-194 -283q30 8 65 8q121 0 198 -73t77 -183q0 -113 -83.5 -187.5t-209.5 -74.5q-125 0 -208.5 73.5t-83.5 185.5q0 91 64 188l226 346h149zM352 402q-70 0 -116.5 -43t-47.5 -109q0 -66 46.5 -109t117.5 -43t117.5 43t46.5 109t-46.5 109t-117.5 43z" />
    <glyph glyph-name="seven.dnom" horiz-adv-x="663" 
d="M613 782v-96l-340 -686h-146l340 667h-407v115h553z" />
    <glyph glyph-name="eight.dnom" horiz-adv-x="776" 
d="M388 793q121 0 202 -58t81 -158q0 -127 -134 -181q154 -53 154 -187q0 -102 -87 -161t-216 -59q-130 0 -216.5 59t-86.5 161q0 134 153 186q-134 53 -134 182q0 100 81.5 158t202.5 58zM388 346q-73 0 -121.5 -33t-48.5 -91q0 -61 48.5 -94t121.5 -33t121 33.5t48 93.5
q0 58 -48.5 91t-120.5 33zM388 685q-66 0 -109.5 -31.5t-43.5 -88.5q0 -56 43.5 -87.5t109.5 -31.5q65 0 108.5 31.5t43.5 87.5q0 57 -43.5 88.5t-108.5 31.5z" />
    <glyph glyph-name="nine.dnom" horiz-adv-x="710" 
d="M211 0l193 283q-30 -8 -64 -8q-122 0 -198.5 73.5t-76.5 182.5q0 113 83 187.5t209 74.5t209.5 -73.5t83.5 -185.5q0 -87 -65 -187l-226 -347h-148zM357 380q71 0 117 43t46 109t-46 109t-117 43t-117.5 -43t-46.5 -109t46.5 -109t117.5 -43z" />
    <glyph glyph-name="space.frac" horiz-adv-x="106" 
 />
    <glyph glyph-name="b.ordn" horiz-adv-x="885" 
d="M480 1292q138 0 232 -98.5t94 -245.5q0 -148 -93.5 -246.5t-232.5 -98.5q-155 0 -235 129v-115h-120v999h123v-448q80 124 232 124zM460 1177q-96 0 -157.5 -65t-61.5 -164t61.5 -164t157.5 -65t157.5 66t61.5 163t-61.5 163t-157.5 66z" />
    <glyph glyph-name="c.ordn" horiz-adv-x="757" 
d="M424 1292q160 0 254 -114l-87 -76q-72 75 -170 75q-92 0 -154 -64.5t-62 -164.5t61.5 -164.5t153.5 -64.5q100 0 173 76l85 -78q-97 -114 -254 -114q-152 0 -248.5 98t-96.5 247t96.5 246.5t248.5 97.5z" />
    <glyph glyph-name="d.ordn" horiz-adv-x="885" 
d="M405 1292q151 0 232 -127v451h123v-999h-121v115q-80 -129 -235 -129q-138 0 -231.5 98.5t-93.5 246.5q0 147 93.5 245.5t232.5 98.5zM425 1177q-97 0 -158.5 -66t-61.5 -163t61.5 -163t158.5 -66q95 0 156.5 65t61.5 164t-61.5 164t-156.5 65z" />
    <glyph glyph-name="e.ordn" horiz-adv-x="804" 
d="M410 1292q138 0 226.5 -95.5t89.5 -246.5q0 -19 -2 -43h-519q11 -94 71 -145.5t148 -51.5q114 0 199 82l70 -82q-108 -107 -276 -107q-149 0 -243.5 95.5t-94.5 248.5q0 152 93.5 248.5t237.5 96.5zM409 1185q-83 0 -137 -52t-66 -139h395q-10 87 -62 139t-130 52z" />
    <glyph glyph-name="h.ordn" horiz-adv-x="850" 
d="M248 1616v-440q69 116 217 116q119 0 193 -72t74 -191v-412h-123v373q0 88 -46 137t-130 49q-79 0 -132 -51.5t-53 -136.5v-371h-123v999h123z" />
    <glyph glyph-name="l.ordn" horiz-adv-x="373" 
d="M248 1616v-999h-123v999h123z" />
    <glyph glyph-name="m.ordn" horiz-adv-x="1335" 
d="M947 1292q121 0 195.5 -72t74.5 -191v-412h-123v373q0 88 -46.5 137t-130.5 49q-79 0 -132 -51.5t-53 -136.5v-371h-123v373q0 88 -46 137t-130 49q-79 0 -132 -51.5t-53 -136.5v-371h-123v662h120v-108q68 121 220 121q82 0 144.5 -36t94.5 -100q36 69 100.5 102.5
t142.5 33.5z" />
    <glyph glyph-name="r.ordn" horiz-adv-x="596" 
d="M443 1292q66 0 107 -20l-22 -122q-48 25 -113 25q-76 0 -121.5 -52t-45.5 -138v-368h-123v662h120v-99q62 112 198 112z" />
    <glyph glyph-name="s.ordn" horiz-adv-x="714" 
d="M627 1223l-45 -96q-103 61 -219 61q-66 0 -104.5 -25.5t-38.5 -68.5q0 -68 133 -85l71 -9q106 -14 163 -60.5t57 -125.5q0 -98 -78.5 -154t-214.5 -56q-171 0 -282 80l51 94q99 -70 233 -70q78 0 122 25t44 72q0 72 -135 88l-70 8q-111 13 -166.5 61t-55.5 126
q0 95 72.5 149.5t195.5 54.5q145 0 267 -69z" />
    <glyph glyph-name="t.ordn" horiz-adv-x="663" 
d="M588 1279v-111h-276v-307q0 -71 34 -106.5t92 -35.5q72 0 141 49l46 -96q-88 -69 -204 -69q-113 0 -172.5 63.5t-59.5 185.5v316h-143v111h143v207h123v-207h276z" />
    <glyph glyph-name="u.ordn" horiz-adv-x="857" 
d="M732 1279v-385q0 -140 -86.5 -215.5t-217.5 -75.5t-217 75.5t-86 215.5v385h123v-374q0 -91 49.5 -138.5t130.5 -47.5q83 0 132.5 47.5t49.5 138.5v374h122z" />
    <glyph glyph-name="egrave.ordn" horiz-adv-x="804" 
d="M410 1292q138 0 226.5 -95.5t89.5 -246.5q0 -19 -2 -43h-519q11 -94 71 -145.5t148 -51.5q114 0 199 82l70 -82q-108 -107 -276 -107q-149 0 -243.5 95.5t-94.5 248.5q0 152 93.5 248.5t237.5 96.5zM409 1185q-83 0 -137 -52t-66 -139h395q-10 87 -62 139t-130 52z
M385 1375l-179 214h150l148 -214h-119z" />
    <glyph glyph-name="zero.osf" horiz-adv-x="1349" 
d="M675 1061q152 0 276.5 -65.5t199 -190t74.5 -283.5q0 -160 -74.5 -285t-199 -190.5t-276.5 -65.5t-277 66.5t-199 191t-74 283.5q0 120 43.5 222t117.5 171t175 107.5t214 38.5zM675 920q-170 0 -284 -109t-114 -289t114 -290t284 -110t283.5 109t113.5 291
q0 180 -113.5 289t-283.5 109z" />
    <glyph glyph-name="one.osf" horiz-adv-x="767" 
d="M568 1063v-1063h-151v857l-348 -117v150z" />
    <glyph glyph-name="two.osf" horiz-adv-x="1075" 
d="M189 754l-108 93q164 213 428 213q185 0 302 -103.5t117 -258.5q0 -89 -43.5 -168t-106.5 -134t-154 -110l-234 -141h598v-145h-871v124l423 267q229 144 229 300q0 94 -71 158.5t-195 64.5q-107 0 -180.5 -43.5t-133.5 -116.5z" />
    <glyph glyph-name="three.osf" horiz-adv-x="1097" 
d="M503 1060q204 0 330.5 -107t126.5 -278q0 -118 -57.5 -200.5t-158.5 -125.5q114 -43 180.5 -128t66.5 -204q0 -78 -26 -143.5t-71 -111t-106 -78t-129.5 -47.5t-142.5 -15q-143 0 -259.5 49t-193.5 137l100 102q65 -68 157 -106t193 -38q139 0 229 66t90 191
q0 118 -96 186.5t-240 68.5h-181v140h181q134 0 219.5 65t85.5 186q0 113 -87.5 181t-220.5 68q-97 0 -175.5 -45t-128.5 -115l-112 91q61 96 171 153.5t255 57.5z" />
    <glyph glyph-name="four.osf" horiz-adv-x="1143" 
d="M834 490v-346h259v-144h-259v-360h-151v360h-633v119l486 921h164l-470 -896h453v346h151z" />
    <glyph glyph-name="five.osf" horiz-adv-x="1144" 
d="M966 1040v-144h-617l-12 -417h202q122 0 217.5 -32.5t155 -90.5t90 -132.5t30.5 -162.5q0 -104 -38 -188.5t-103.5 -139t-151.5 -84t-184 -29.5q-297 0 -474 222l106 96q67 -83 164 -127.5t203 -44.5q150 0 234.5 81t84.5 200q0 133 -90.5 210.5t-290.5 77.5h-299l16 705
h757z" />
    <glyph glyph-name="six.osf" horiz-adv-x="1147" 
d="M782 1400l-365 -550q75 42 180 42q196 0 332.5 -131t136.5 -325q0 -195 -141 -325t-354 -130q-214 0 -355 130t-141 326q0 145 104 308l416 655h187zM571 750q-147 0 -243 -88t-96 -225t96 -225.5t243 -88.5t242.5 88.5t95.5 225.5t-95.5 225t-242.5 88z" />
    <glyph glyph-name="seven.osf" horiz-adv-x="1098" 
d="M1023 1040v-118l-636 -1282h-176l630 1256h-766v144h948z" />
    <glyph glyph-name="eight.osf" horiz-adv-x="1207" 
d="M604 1419q128 0 233.5 -47t168.5 -136t63 -203q0 -118 -65.5 -200t-172.5 -126q120 -42 195 -126.5t75 -206.5q0 -117 -67.5 -207.5t-180 -138t-249.5 -47.5t-250 47.5t-180.5 138t-67.5 207.5q0 123 74.5 207t194.5 126q-107 44 -171.5 126t-64.5 200q0 114 63 203
t168.5 136t233.5 47zM604 637q-144 0 -241 -70.5t-97 -186.5t97 -186.5t241 -70.5q143 0 240 70.5t97 186.5t-97 186.5t-240 70.5zM604 1276q-129 0 -217.5 -68.5t-88.5 -179.5q0 -116 88 -185.5t218 -69.5q129 0 217 69.5t88 185.5q0 111 -88 179.5t-217 68.5z" />
    <glyph glyph-name="nine.osf" horiz-adv-x="1148" 
d="M366 -359l364 550q-77 -42 -180 -42q-196 0 -332.5 131t-136.5 325q0 195 141 325t355 130q213 0 354.5 -130t141.5 -326q0 -147 -104 -308l-417 -655h-186zM577 291q146 0 242.5 88t96.5 225q0 138 -96 226t-243 88t-243 -88t-96 -226q0 -137 96 -225t243 -88z" />
    <glyph glyph-name="zero.tf" horiz-adv-x="1200" 
d="M603 1418q109 0 202 -44.5t164.5 -130.5t112.5 -225.5t41 -317.5q0 -149 -27 -269.5t-74 -203.5t-113 -138.5t-142.5 -81t-163.5 -25.5q-111 0 -204.5 41.5t-166.5 125.5t-114.5 225t-41.5 326t41.5 326t114.5 225t166.5 125.5t204.5 41.5zM603 1270q-78 0 -142.5 -31.5
t-116 -97.5t-80 -178.5t-28.5 -262.5t28.5 -262.5t80 -178.5t116 -97.5t142.5 -31.5q77 0 140 31.5t113.5 97.5t78.5 178.5t28 262.5q0 281 -101 425.5t-259 144.5z" />
    <glyph glyph-name="one.tf" horiz-adv-x="1200" 
d="M195 147h392v1059l-407 -146v157l561 200v-1270h367v-147h-913v147z" />
    <glyph glyph-name="two.tf" horiz-adv-x="1200" 
d="M248 1096l-112 90q156 232 429 232q208 0 327.5 -121.5t119.5 -311.5q0 -117 -51.5 -211t-136.5 -185l-418 -442h652v-147h-881v121l529 558q144 151 144 306q0 125 -77 205.5t-213 80.5q-109 0 -181.5 -47t-130.5 -128z" />
    <glyph glyph-name="three.tf" horiz-adv-x="1200" 
d="M557 1418q207 0 335 -106.5t128 -276.5q0 -120 -58 -202t-161 -126q115 -42 182.5 -127t67.5 -205q0 -78 -26.5 -143t-72 -110.5t-106.5 -77.5t-131 -47t-145 -15q-144 0 -260 48t-194 136l99 103q66 -68 157.5 -105.5t194.5 -37.5q139 0 231 66t92 190q0 118 -96.5 186
t-241.5 68h-184v141h183q135 0 221.5 65t86.5 185q0 111 -88 179t-223 68q-99 0 -178.5 -44.5t-130.5 -114.5l-111 95q64 95 174 151.5t255 56.5z" />
    <glyph glyph-name="four.tf" horiz-adv-x="1200" 
d="M890 830v-390h239v-146h-239v-294h-154v294h-654v119l523 986h175l-513 -959h469v390h154z" />
    <glyph glyph-name="five.tf" horiz-adv-x="1200" 
d="M996 1400v-146h-618l-13 -414h206q236 0 362.5 -117t126.5 -295q0 -139 -65 -242t-172.5 -154t-241.5 -51q-295 0 -474 218l103 100q68 -81 166 -126t205 -45q149 0 234 81.5t85 205.5q0 125 -91 202t-285 77h-305l18 706h759z" />
    <glyph glyph-name="six.tf" horiz-adv-x="1200" 
d="M811 1400l-363 -547q77 40 177 40q197 0 333.5 -131t136.5 -325q0 -195 -141.5 -325t-354.5 -130q-214 0 -355.5 130t-141.5 325q0 147 104 310l417 653h188zM599 750q-146 0 -241.5 -88t-96.5 -225q0 -136 96 -224t242 -88t241.5 88t95.5 224q0 137 -95.5 225t-241.5 88
z" />
    <glyph glyph-name="seven.tf" horiz-adv-x="1200" 
d="M1080 1400v-121l-633 -1279h-180l627 1254h-764v146h950z" />
    <glyph glyph-name="eight.tf" horiz-adv-x="1200" 
d="M599 1418q135 0 244 -44t175.5 -132.5t66.5 -206.5q0 -122 -66.5 -204t-177.5 -124q125 -42 201 -125t76 -209q0 -121 -70.5 -211.5t-187 -135.5t-261.5 -45t-261.5 45t-187 135.5t-70.5 211.5q0 126 76 209t201 125q-111 42 -177.5 124t-66.5 204q0 118 66.5 206.5
t175.5 132.5t244 44zM599 638q-154 0 -255 -67.5t-101 -188.5q0 -122 101 -189.5t255 -67.5q153 0 254 67.5t101 189.5q0 121 -101 188.5t-254 67.5zM599 1274q-139 0 -231 -65.5t-92 -181.5q0 -121 91.5 -187.5t231.5 -66.5t231.5 66.5t91.5 187.5q0 116 -92 181.5
t-231 65.5z" />
    <glyph glyph-name="nine.tf" horiz-adv-x="1200" 
d="M389 0l342 529q-66 -22 -144 -22q-208 0 -345 130t-137 326q0 195 141 325t355 130t355.5 -130t141.5 -325q0 -147 -104 -310l-417 -653h-188zM601 650q146 0 241.5 88t95.5 225q0 136 -95.5 224t-241.5 88t-241.5 -88t-95.5 -224t95.5 -224.5t241.5 -88.5z" />
    <glyph glyph-name="uni2007.tf" horiz-adv-x="1200" 
 />
    <glyph glyph-name="zero.tosf" horiz-adv-x="1200" 
d="M599 1060q144 0 262.5 -65t189.5 -189t71 -285q0 -162 -71 -286.5t-189 -189.5t-263 -65q-144 0 -262 65.5t-189 190.5t-71 285q0 161 71 285t189 189t262 65zM599 923q-158 0 -264 -109.5t-106 -292.5t106 -293t264 -110q159 0 265 109t106 294q0 183 -106 292.5
t-265 109.5z" />
    <glyph glyph-name="one.tosf" horiz-adv-x="1200" 
d="M208 145l374 1v723l-389 -113v152l540 155v-917l355 1v-147h-880v145z" />
    <glyph glyph-name="two.tosf" horiz-adv-x="1200" 
d="M269 754l-108 93q164 213 428 213q185 0 302 -103.5t117 -258.5q0 -89 -43.5 -168t-106.5 -134t-154 -110l-234 -141h598v-145h-871v124l423 267q229 144 229 300q0 94 -71 158.5t-195 64.5q-107 0 -180.5 -43.5t-133.5 -116.5z" />
    <glyph glyph-name="three.tosf" horiz-adv-x="1200" 
d="M569 1060q204 0 330.5 -107t126.5 -278q0 -118 -57.5 -200.5t-158.5 -125.5q114 -43 180.5 -128t66.5 -204q0 -78 -26 -143.5t-71 -111t-106 -78t-129.5 -47.5t-142.5 -15q-143 0 -259.5 49t-193.5 137l100 102q65 -68 157 -106t193 -38q139 0 229 66t90 191
q0 118 -96 186.5t-240 68.5h-181v140h181q134 0 219.5 65t85.5 186q0 113 -87.5 181t-220.5 68q-97 0 -175.5 -45t-128.5 -115l-112 91q61 96 171 153.5t255 57.5z" />
    <glyph glyph-name="four.tosf" horiz-adv-x="1200" 
d="M881 490v-346h259v-144h-259v-360h-151v360h-633v119l486 921h164l-470 -896h453v346h151z" />
    <glyph glyph-name="five.tosf" horiz-adv-x="1200" 
d="M996 1040v-144h-617l-12 -417h202q122 0 217.5 -32.5t155 -90.5t90 -132.5t30.5 -162.5q0 -104 -38 -188.5t-103.5 -139t-151.5 -84t-184 -29.5q-297 0 -474 222l106 96q67 -83 164 -127.5t203 -44.5q150 0 234.5 81t84.5 200q0 133 -90.5 210.5t-290.5 77.5h-299l16 705
h757z" />
    <glyph glyph-name="six.tosf" horiz-adv-x="1200" 
d="M818 1400l-365 -550q75 42 180 42q196 0 332.5 -131t136.5 -325q0 -195 -141 -325t-354 -130q-214 0 -355 130t-141 326q0 145 104 308l416 655h187zM607 750q-147 0 -243 -88t-96 -225t96 -225.5t243 -88.5t242.5 88.5t95.5 225.5t-95.5 225t-242.5 88z" />
    <glyph glyph-name="seven.tosf" horiz-adv-x="1200" 
d="M1095 1040v-118l-636 -1282h-176l630 1256h-766v144h948z" />
    <glyph glyph-name="eight.tosf" horiz-adv-x="1200" 
d="M613 1419q128 0 233.5 -47t168.5 -136t63 -203q0 -118 -65.5 -200t-172.5 -126q120 -42 195 -126.5t75 -206.5q0 -117 -67.5 -207.5t-180 -138t-249.5 -47.5t-250 47.5t-180.5 138t-67.5 207.5q0 123 74.5 207t194.5 126q-107 44 -171.5 126t-64.5 200q0 114 63 203
t168.5 136t233.5 47zM613 637q-144 0 -241 -70.5t-97 -186.5t97 -186.5t241 -70.5q143 0 240 70.5t97 186.5t-97 186.5t-240 70.5zM613 1276q-129 0 -217.5 -68.5t-88.5 -179.5q0 -116 88 -185.5t218 -69.5q129 0 217 69.5t88 185.5q0 111 -88 179.5t-217 68.5z" />
    </font>
</defs>
</svg>
